osu file format v14

[General]
AudioFilename: audio.mp3
AudioLeadIn: 0
PreviewTime: 23282
Countdown: 0
SampleSet: Normal
StackLeniency: 0.7
Mode: 0
LetterboxInBreaks: 0
WidescreenStoryboard: 0

[Editor]
Bookmarks: 37020
DistanceSpacing: 1.2
BeatDivisor: 4
GridSize: 4
TimelineZoom: 1

[Metadata]
Title:Cynic
TitleUnicode:Cynic
Artist:Police Piccadilly
ArtistUnicode:Police Piccadilly
Creator:Silentlemon
Version:Cynic
Source:
Tags:UTAU Yamine Rinri
BeatmapID:1311210
BeatmapSetID:621870

[Difficulty]
HPDrainRate:5
CircleSize:5
OverallDifficulty:9
ApproachRate:9
SliderMultiplier:1.5
SliderTickRate:1

[Events]
//Background and Video events
0,0,"44578941_p0.jpg",0,0
//Break Periods
2,67450,73978
2,134320,136268
//Storyboard Layer 0 (Background)
//Storyboard Layer 1 (Fail)
//Storyboard Layer 2 (Pass)
//Storyboard Layer 3 (Foreground)
//Storyboard Sound Samples

[TimingPoints]
1298.2249533374,457.980306846806,4,1,1,40,1,0
7709,-133.333333333333,4,1,1,40,0,0
8625,-76.9230769230769,4,1,1,50,0,0
20304,-111.111111111111,4,1,1,50,0,0
21220,-76.9230769230769,4,1,1,50,0,0
23281,-68.9655172413793,4,1,1,50,0,0
34272,-100,4,1,1,60,0,0
36794,-133.333333333333,4,1,1,60,0,0
37023,-133.333333333333,4,1,1,60,0,0
37936,-57.1428571428571,4,1,1,70,0,1
50763,-50,4,1,1,70,0,1
51450,-50,4,1,1,80,0,1
51679,457.980306846806,4,1,1,80,1,0
51679,-50,4,1,1,70,0,1
52594,-57.1428571428571,4,1,1,70,0,1
59006,-50,4,1,1,70,0,1
59694,-57.1428571428571,4,1,1,70,0,1
59794,-57.1428571428571,4,1,1,70,0,1
63586,-62.5,4,1,1,70,0,1
65876,-66.6666666666667,4,1,1,50,0,0
67250,-111.111111111111,4,1,1,30,0,0
74578,-76.9230769230769,4,1,1,60,0,0
89233,-100,4,1,1,40,0,0
96561,-66.6666666666667,4,1,1,60,0,0
100224,-100,4,1,1,60,0,0
102743,-133.333333333333,4,1,1,60,0,0
102972,-133.333333333333,4,1,1,60,0,0
103888,-57.1428571428571,4,1,1,70,0,1
116717,-50,4,1,1,80,0,1
117633,457.980306846806,4,1,1,80,1,0
117633,-50,4,1,1,80,0,1
118548,-57.1428571428571,4,1,1,70,0,1
124960,-57.1428571428571,4,1,1,70,0,1
125876,-57.1428571428571,4,1,1,70,0,1
133204,-133.333333333333,4,1,1,40,0,0
136868,-100,4,1,1,45,0,0
144195,-100,4,1,1,10,0,0
145569,-100,4,1,1,45,0,0
146943,-117.647058823529,4,1,1,45,0,0
149233,-133.333333333333,4,1,1,45,0,0
151523,-200,4,2,1,30,0,0
157935,-133.333333333333,4,1,1,40,0,0
158851,-100,4,1,1,45,0,0
166636,-80,4,1,1,45,0,0
170758,-66.6666666666667,4,1,1,45,0,0
171445,-66.6666666666667,4,1,1,55,0,0
172361,-133.333333333333,4,1,1,55,0,0
173506,-57.1428571428571,4,1,1,70,0,1
186335,-50,4,1,1,80,0,1
187251,457.980306846806,4,1,1,80,1,0
187251,-50,4,1,1,80,0,1
188166,-57.1428571428571,4,1,1,70,0,1
194578,-50,4,1,1,70,0,1
195494,-55.5555555555556,4,1,1,70,0,1
201448,-83.3333333333333,4,1,1,50,0,0
202822,-76.9230769230769,4,1,1,50,0,0
206486,-66.6666666666667,4,1,1,50,0,0
210150,-83.3333333333333,4,1,1,50,0,0
213813,-66.6666666666667,4,1,1,50,0,0

[Colours]
Combo1 : 74,134,255
Combo2 : 94,227,137
Combo3 : 207,84,136
Combo4 : 255,255,128

[HitObjects]
128,48,1298,6,0,P|108:80|120:120,1,75
384,336,1985,2,0,P|404:304|392:264,1,75
392,68,2443,1,0,0:0:0:0:
392,68,2557,1,0,0:0:0:0:
396,72,2672,2,0,P|404:112|376:140,1,75
132,316,3359,6,0,P|96:304|84:264,2,75
192,104,4046,1,0,0:0:0:0:
400,160,4504,1,0,0:0:0:0:
120,56,4962,5,0,0:0:0:0:
72,248,5191,1,0,0:0:0:0:
392,328,5649,1,0,0:0:0:0:
440,136,5878,1,0,0:0:0:0:
248,184,6107,1,0,0:0:0:0:
248,184,6221,1,0,0:0:0:0:
248,184,6336,2,0,P|272:224|272:256,1,75
104,296,7022,5,0,0:0:0:0:
48,172,7251,1,0,0:0:0:0:
144,76,7480,1,0,0:0:0:0:
256,92,7709,2,0,P|280:128|352:176,1,112.500004291535
104,72,8625,6,0,P|80:128|92:168,2,97.4999955368044
272,60,9312,2,0,P|304:104|332:136,1,97.4999955368044
372,284,9770,2,0,L|336:240,1,48.7499977684022
376,308,9999,2,0,P|324:348|268:348,1,97.4999955368044
184,280,10457,2,0,P|132:268|124:264,2,48.7499977684022
80,168,10915,2,0,P|72:116|112:96,1,97.4999955368044
252,44,11373,2,0,P|228:96|196:152,1,97.4999955368044
252,256,11831,1,0,0:0:0:0:
376,324,12060,1,0,0:0:0:0:
376,324,12175,1,0,0:0:0:0:
376,324,12289,1,0,0:0:0:0:
440,204,12518,6,0,L|408:104,2,97.4999955368044
328,84,13205,2,0,B|224:120|152:92|88:108,1,194.999991073609
48,168,13892,1,0,0:0:0:0:
48,192,14007,1,0,0:0:0:0:
48,216,14121,1,0,0:0:0:0:
100,324,14350,6,0,P|168:324|192:296,1,97.4999955368044
312,288,14808,1,0,0:0:0:0:
408,216,15037,2,0,B|396:152|368:108|356:92|328:80|268:68,1,194.999991073609
192,72,15724,1,0,0:0:0:0:
88,192,15953,5,0,0:0:0:0:
160,300,16182,2,0,L|256:264,1,97.4999955368044
384,236,16640,2,0,P|436:192|436:140,1,97.4999955368044
328,64,17098,2,0,L|292:104,2,48.7499977684022
168,52,17556,1,0,0:0:0:0:
104,164,17785,1,0,0:0:0:0:
188,260,18014,1,0,0:0:0:0:
168,280,18129,1,0,0:0:0:0:
148,300,18243,1,0,0:0:0:0:
60,252,18472,2,0,P|48:172|48:144,2,97.4999955368044
144,128,19159,2,0,P|168:68|308:76,1,194.999991073609
448,204,19846,6,0,P|436:260|408:296,1,97.4999955368044
280,288,20304,2,0,P|156:304|52:284,1,202.499993820191
56,192,21220,2,0,P|56:144|68:104,2,48.7499977684022
220,56,21678,5,0,0:0:0:0:
168,208,21907,1,0,0:0:0:0:
328,184,22136,2,0,P|344:128|376:96,1,97.4999955368044
472,220,22594,1,0,0:0:0:0:
352,328,22823,1,0,0:0:0:0:
104,56,23281,6,0,P|80:108|112:156,1,108.750003318787
296,112,23739,2,0,P|244:88|196:120,1,108.750003318787
168,244,24197,2,0,B|232:288|260:304|260:304|304:244|360:284,1,217.500006637573
444,204,24884,1,0,0:0:0:0:
400,64,25113,5,0,0:0:0:0:
272,136,25342,1,0,0:0:0:0:
256,116,25456,1,0,0:0:0:0:
240,100,25571,2,0,P|188:68|136:72,1,108.750003318787
40,176,26029,2,0,L|104:264,1,108.750003318787
280,320,26487,2,0,L|216:232,1,108.750003318787
276,104,26945,1,0,0:0:0:0:
412,72,27174,5,0,0:0:0:0:
456,188,27403,1,0,0:0:0:0:
348,248,27632,1,0,0:0:0:0:
236,196,27861,1,0,0:0:0:0:
172,88,28090,6,0,L|112:72,2,54.3750016593934
104,192,28548,1,0,0:0:0:0:
88,316,28777,2,0,P|144:336|208:332,2,108.750003318787
196,256,29464,1,0,0:0:0:0:
320,236,29693,2,0,P|344:288|392:304,1,108.750003318787
444,192,30150,2,0,P|480:144|480:92,1,108.750003318787
356,92,30608,1,0,0:0:0:0:
116,64,30837,6,0,P|92:112|104:180,1,108.750003318787
140,284,31295,1,0,0:0:0:0:
240,156,31524,1,0,0:0:0:0:
396,168,31753,5,0,0:0:0:0:
416,144,31868,1,0,0:0:0:0:
440,120,31982,1,0,0:0:0:0:
360,40,32211,2,0,L|232:40,1,108.750003318787
104,72,32669,1,0,0:0:0:0:
124,92,32784,1,0,0:0:0:0:
144,112,32898,2,0,P|184:168|160:184,1,108.750003318787
88,276,33356,5,0,0:0:0:0:
256,200,33585,1,0,0:0:0:0:
88,276,33814,1,0,0:0:0:0:
256,200,34043,1,0,0:0:0:0:
256,120,34272,5,0,0:0:0:0:
256,276,34501,1,0,0:0:0:0:
256,88,34959,5,0,0:0:0:0:
256,312,35188,1,0,0:0:0:0:
256,292,35303,1,0,0:0:0:0:
256,272,35417,1,0,0:0:0:0:
256,252,35532,1,0,0:0:0:0:
256,232,35646,1,0,0:0:0:0:
256,88,35875,1,0,0:0:0:0:
256,356,36333,5,0,0:0:0:0:
256,32,36562,1,0,0:0:0:0:
104,104,36791,6,0,L|160:188,1,75
328,88,37249,2,0,L|288:132,1,56.2500021457673
308,252,37707,1,0,0:0:0:0:
176,284,37936,6,2,P|124:232|96:112,1,196.875001877546,6|2,0:0|0:0,0:0:0:0:
160,48,38394,1,0,0:0:0:0:
320,56,38623,1,0,0:0:0:0:
444,152,38852,1,0,0:0:0:0:
360,284,39081,2,0,L|312:236,1,65.6250006258488
360,284,39310,2,0,L|308:336,1,65.6250006258488
280,284,39539,1,0,0:0:0:0:
100,264,39768,5,0,0:0:0:0:
84,248,39883,1,0,0:0:0:0:
80,228,39997,1,0,0:0:0:0:
80,208,40112,1,0,0:0:0:0:
84,188,40226,1,0,0:0:0:0:
180,44,40455,6,0,P|252:60|328:56,2,131.250001251698
84,108,41142,2,0,L|44:52,2,65.6250006258488
100,256,41600,5,4,0:0:0:0:
232,328,41829,1,0,0:0:0:0:
248,296,41943,1,0,0:0:0:0:
264,264,42058,1,0,0:0:0:0:
384,212,42287,2,0,P|380:132|316:92,1,131.250001251698
216,72,42745,2,0,P|136:84|112:132,1,131.250001251698
76,208,43203,5,0,0:0:0:0:
84,228,43317,1,0,0:0:0:0:
92,248,43432,1,0,0:0:0:0:
100,268,43546,1,0,0:0:0:0:
108,288,43661,1,0,0:0:0:0:
204,324,43890,1,0,0:0:0:0:
288,264,44119,2,0,P|232:204|264:160,1,131.250001251698
412,192,44577,5,0,0:0:0:0:
256,48,44806,1,0,0:0:0:0:
104,196,45035,1,0,0:0:0:0:
256,344,45264,6,0,B|320:236|196:168|196:296|320:236|256:108,1,262.500002503395
456,188,45951,2,0,L|416:256,2,65.6250006258488
384,52,46409,5,0,0:0:0:0:
360,64,46523,1,0,0:0:0:0:
336,80,46638,1,0,0:0:0:0:
312,96,46752,1,0,0:0:0:0:
288,112,46867,1,0,0:0:0:0:
144,48,47096,6,0,P|88:92|100:160,1,131.250001251698,4|0,0:0|0:0,0:0:0:0:
88,268,47554,1,0,0:0:0:0:
120,276,47668,1,0,0:0:0:0:
152,284,47783,1,0,0:0:0:0:
244,220,48012,2,0,P|196:156|240:132,2,131.250001251698
316,328,48699,1,0,0:0:0:0:
432,200,48928,6,0,P|408:128|256:76,1,196.875001877546,4|0,0:0|0:0,0:0:0:0:
220,80,49386,1,0,0:0:0:0:
200,172,49615,1,0,0:0:0:0:
212,200,49729,1,0,0:0:0:0:
224,228,49844,1,0,0:0:0:0:
236,256,49958,1,0,0:0:0:0:
260,276,50073,1,0,0:0:0:0:
344,288,50302,2,0,P|400:232|396:236,1,65.6250006258488
428,172,50531,1,0,0:0:0:0:
312,56,50760,5,0,0:0:0:0:
312,56,50874,1,0,0:0:0:0:
200,160,51103,1,0,0:0:0:0:
80,72,51332,1,0,0:0:0:0:
84,72,51447,1,0,0:0:0:0:
80,248,51676,5,0,0:0:0:0:
120,288,51793,1,0,0:0:0:0:
172,296,51907,1,0,0:0:0:0:
224,288,52022,1,0,0:0:0:0:
252,248,52136,1,0,0:0:0:0:
288,216,52251,1,0,0:0:0:0:
336,228,52365,1,0,0:0:0:0:
376,256,52480,1,0,0:0:0:0:
412,284,52594,6,0,B|464:232|464:232|464:144,1,131.250001251698,4|0,0:0|0:0,0:0:0:0:
420,48,53052,1,0,0:0:0:0:
392,48,53167,1,0,0:0:0:0:
368,48,53281,1,0,0:0:0:0:
244,40,53510,2,0,B|176:44|100:84|100:84|92:100,1,131.250001251698
72,184,53968,2,0,P|80:264|120:300,2,131.250001251698
196,232,54655,5,0,0:0:0:0:
196,252,54770,1,0,0:0:0:0:
196,272,54884,1,0,0:0:0:0:
196,292,54999,1,0,0:0:0:0:
196,312,55113,6,0,L|336:312,1,131.250001251698
432,264,55571,2,0,L|432:192,2,65.6250006258488
432,120,56029,1,0,0:0:0:0:
288,104,56258,1,4,0:0:0:0:
168,68,56487,6,0,L|96:80,2,65.6250006258488
84,188,56945,1,0,0:0:0:0:
100,208,57060,1,0,0:0:0:0:
120,224,57174,1,0,0:0:0:0:
140,240,57289,1,0,0:0:0:0:
164,248,57403,1,0,0:0:0:0:
268,292,57632,2,0,P|336:256|368:196,1,131.250001251698
312,96,58090,6,0,L|372:48,2,65.6250006258488
172,56,58548,2,0,P|96:96|88:164,1,131.250001251698
196,220,59006,5,0,0:0:0:0:
212,232,59121,1,0,0:0:0:0:
228,244,59235,1,0,0:0:0:0:
244,256,59350,1,0,0:0:0:0:
288,276,59464,5,0,0:0:0:0:
336,268,59579,1,0,0:0:0:0:
372,236,59693,1,0,0:0:0:0:
400,204,59808,1,0,0:0:0:0:
428,172,59922,6,0,P|440:100|424:40,1,131.250001251698,4|0,0:0|0:0,0:0:0:0:
292,76,60380,1,0,0:0:0:0:
168,128,60609,1,0,0:0:0:0:
60,208,60838,2,0,L|112:260,2,65.6250006258488
60,92,61296,1,0,0:0:0:0:
104,80,61411,1,0,0:0:0:0:
148,68,61525,1,0,0:0:0:0:
256,40,61754,6,0,B|280:116|280:116|344:80,1,131.250001251698
168,240,62212,2,0,B|192:164|192:164|256:200,1,131.250001251698
404,244,62670,1,0,0:0:0:0:
368,244,62785,1,0,0:0:0:0:
332,244,62899,1,0,0:0:0:0:
296,244,63014,1,0,0:0:0:0:
260,244,63128,1,0,0:0:0:0:
140,192,63357,1,0,0:0:0:0:
92,76,63586,6,0,P|168:48|252:48,1,120,4|0,0:0|0:0,0:0:0:0:
336,88,64044,1,0,0:0:0:0:
416,192,64273,2,0,L|464:308,1,120
416,192,64731,2,0,L|464:76,1,120
280,192,65189,2,0,L|248:192,4,30
256,192,65876,12,4,67250,0:0:0:0:
112,84,74578,5,0,0:0:0:0:
256,84,74807,2,0,P|308:80|376:80,1,97.4999955368044
396,208,75264,2,0,L|272:208,1,97.4999955368044
184,240,75722,1,0,0:0:0:0:
184,240,75837,1,0,0:0:0:0:
184,244,75951,2,0,P|212:296|280:328,2,97.4999955368044
72,168,76638,1,0,0:0:0:0:
144,60,76867,2,0,P|216:44|352:64,1,194.999991073609
424,168,77554,1,0,0:0:0:0:
336,272,77783,1,0,0:0:0:0:
228,192,78012,2,0,L|188:228,2,48.7499977684022
72,64,78470,6,0,P|52:116|72:160,1,97.4999955368044
128,112,78928,1,0,0:0:0:0:
264,56,79157,2,0,B|308:96|308:96|280:132|304:204|352:216,1,194.999991073609
272,296,79844,5,0,0:0:0:0:
228,312,79959,1,0,0:0:0:0:
184,328,80073,1,0,0:0:0:0:
92,172,80302,6,0,P|68:120|84:84,1,97.4999955368044
248,72,80760,1,0,0:0:0:0:
400,136,80989,1,0,0:0:0:0:
244,192,81218,1,0,0:0:0:0:
360,72,81447,1,0,0:0:0:0:
196,88,81676,5,0,0:0:0:0:
164,88,81791,1,0,0:0:0:0:
132,88,81905,1,0,0:0:0:0:
68,304,82134,6,0,B|124:328|124:328|168:328,1,97.4999955368044
272,276,82592,1,0,0:0:0:0:
392,308,82821,1,0,0:0:0:0:
424,192,83050,2,0,L|384:144,2,48.7499977684022
356,88,83508,2,0,L|392:44,2,48.7499977684022
232,96,83966,5,0,0:0:0:0:
204,92,84081,1,0,0:0:0:0:
176,88,84195,2,0,P|120:72|80:88,2,97.4999955368044
108,196,84882,2,0,P|104:256|140:280,1,97.4999955368044
256,264,85340,2,0,P|268:208|216:168,1,97.4999955368044
328,88,85798,5,0,0:0:0:0:
396,188,86027,2,0,P|396:252|376:284,1,97.4999955368044
256,312,86485,2,0,P|168:304|128:296,1,97.4999955368044
132,296,86828,1,0,0:0:0:0:
104,276,86943,2,0,P|68:232|56:160,1,97.4999955368044
64,72,87401,5,0,0:0:0:0:
204,36,87630,1,0,0:0:0:0:
344,80,87859,2,0,L|440:148,1,97.4999955368044
428,248,88317,2,0,P|396:296|360:304,1,97.4999955368044
324,300,88660,1,0,0:0:0:0:
288,296,88775,2,0,P|240:272|232:224,1,97.4999955368044
108,40,89233,6,0,B|160:128|160:128|160:128|160:128|220:68|276:68|332:68|360:96,1,300
308,288,90607,2,0,P|256:308|224:312,2,75
144,216,91523,6,0,L|104:144,1,75
256,216,91981,2,0,L|256:128,1,75
368,216,92439,2,0,L|408:144,1,75
256,40,92897,1,0,0:0:0:0:
252,196,93126,6,0,B|212:264|212:264|184:236|148:216|128:208|104:208|80:224|60:244,1,225
260,184,94271,1,0,0:0:0:0:
392,188,94500,2,0,L|328:124,1,75
120,188,94958,2,0,L|184:124,1,75
252,60,95416,1,0,0:0:0:0:
173,134,95645,2,0,L|112:192,1,75
338,134,96103,2,0,L|400:192,1,75
256,192,96561,5,0,0:0:0:0:
256,316,96790,2,0,L|136:316,1,112.500004291535
144,196,97248,2,0,L|144:76,1,112.500004291535
280,84,97706,5,0,0:0:0:0:
312,84,97820,1,0,0:0:0:0:
344,84,97935,1,0,0:0:0:0:
416,188,98164,2,0,L|416:304,1,112.500004291535
292,304,98621,1,0,0:0:0:0:
260,304,98736,1,0,0:0:0:0:
228,304,98850,2,0,L|104:304,1,112.500004291535
112,192,99308,5,0,0:0:0:0:
108,80,99537,1,0,0:0:0:0:
220,80,99766,1,0,0:0:0:0:
220,192,99995,1,0,0:0:0:0:
444,192,100224,5,0,0:0:0:0:
296,192,100453,1,0,0:0:0:0:
444,192,100911,5,0,0:0:0:0:
168,192,101140,1,0,0:0:0:0:
192,192,101255,1,0,0:0:0:0:
216,192,101369,1,0,0:0:0:0:
240,192,101484,1,0,0:0:0:0:
264,192,101598,1,0,0:0:0:0:
444,192,101827,1,0,0:0:0:0:
120,192,102285,5,0,0:0:0:0:
444,192,102514,1,0,0:0:0:0:
312,260,102743,6,0,L|344:192,1,56.2500021457673
252,80,103201,2,0,L|212:124,1,56.2500021457673
220,248,103659,1,0,0:0:0:0:
432,320,103888,6,0,P|460:232|448:112,1,196.875001877546,4|0,0:0|0:0,0:0:0:0:
396,80,104346,1,0,0:0:0:0:
248,48,104575,2,0,B|184:68|184:68|104:68,1,131.250001251698
184,216,105033,2,0,L|132:264,3,65.6250006258488
216,276,105491,2,0,P|268:328|364:328,1,131.250001251698
408,248,105949,1,0,0:0:0:0:
408,212,106064,1,0,0:0:0:0:
408,176,106178,1,0,0:0:0:0:
408,64,106407,6,0,P|336:24|284:28,1,131.250001251698
156,56,106865,2,0,P|120:112|168:160,1,131.250001251698
300,184,107323,1,0,0:0:0:0:
216,288,107552,2,0,P|132:288|76:272,1,131.250001251698,4|0,0:0|0:0,0:0:0:0:
60,256,107896,1,0,0:0:0:0:
40,224,108010,2,0,P|28:144|56:88,1,131.250001251698
184,64,108468,5,0,0:0:0:0:
208,80,108583,1,0,0:0:0:0:
232,96,108697,1,0,0:0:0:0:
384,96,108926,2,0,P|424:148|424:236,1,131.250001251698
432,240,109270,1,0,0:0:0:0:
428,272,109384,2,0,P|420:344|356:340,1,131.250001251698
340,340,109728,1,0,0:0:0:0:
312,320,109842,2,0,P|268:264|176:248,1,131.250001251698
184,240,110185,1,0,0:0:0:0:
148,240,110300,1,0,0:0:0:0:
68,188,110529,5,0,0:0:0:0:
256,192,110758,1,0,0:0:0:0:
444,192,110987,1,0,0:0:0:0:
312,56,111216,6,0,P|248:68|160:80,1,131.250001251698,4|0,0:0|0:0,0:0:0:0:
132,132,111559,1,0,0:0:0:0:
188,184,111674,2,0,P|252:172|340:160,1,131.250001251698
396,252,112132,2,0,L|356:308,2,65.6250006258488
440,116,112590,6,0,P|384:60|324:64,1,131.250001251698
256,80,112933,1,0,0:0:0:0:
176,104,113048,2,0,P|120:64|56:64,1,131.250001251698,4|0,0:0|0:0,0:0:0:0:
48,180,113506,2,0,P|84:236|176:244,2,131.250001251698
36,320,114193,2,0,P|136:336|176:340,1,131.250001251698
260,352,114651,1,0,0:0:0:0:
476,272,114880,6,0,P|384:260|424:216,1,196.875001877546
440,204,115338,1,0,0:0:0:0:
352,172,115567,1,0,0:0:0:0:
324,160,115681,1,0,0:0:0:0:
296,148,115796,1,0,0:0:0:0:
268,160,115910,1,0,0:0:0:0:
244,180,116025,1,0,0:0:0:0:
152,172,116254,2,0,L|120:104,1,65.6250006258488
96,56,116483,1,0,0:0:0:0:
268,56,116712,5,0,0:0:0:0:
268,56,116826,1,0,0:0:0:0:
336,200,117055,1,0,0:0:0:0:
432,72,117284,1,0,0:0:0:0:
432,72,117399,1,0,0:0:0:0:
460,260,117633,5,0,0:0:0:0:
416,304,117747,1,0,0:0:0:0:
356,320,117861,1,0,0:0:0:0:
296,336,117976,1,0,0:0:0:0:
240,312,118090,1,0,0:0:0:0:
192,272,118205,1,0,0:0:0:0:
140,240,118319,1,0,0:0:0:0:
100,192,118434,1,0,0:0:0:0:
48,176,118548,6,0,P|32:100|36:44,1,131.250001251698,4|0,0:0|0:0,0:0:0:0:
112,36,118892,1,0,0:0:0:0:
152,92,119006,2,0,P|188:152|260:184,1,131.250001251698
344,92,119464,2,0,L|392:40,2,65.6250006258488
432,224,119922,1,0,0:0:0:0:
432,224,120037,1,0,0:0:0:0:
432,228,120151,2,0,P|416:296|356:312,1,131.250001251698
244,244,120609,2,0,P|296:184|280:132,1,131.250001251698
176,56,121067,6,0,P|80:72|76:120,1,131.250001251698
76,216,121525,1,0,0:0:0:0:
76,216,121640,1,0,0:0:0:0:
76,216,121754,1,0,0:0:0:0:
168,320,121983,2,0,L|312:320,1,131.250001251698,0|4,0:0|0:0,0:0:0:0:
384,232,122441,5,0,0:0:0:0:
340,112,122670,1,0,0:0:0:0:
208,56,122899,1,0,0:0:0:0:
168,68,123014,1,0,0:0:0:0:
148,104,123128,1,0,0:0:0:0:
168,140,123243,1,0,0:0:0:0:
200,164,123357,1,0,0:0:0:0:
56,292,123586,6,0,P|120:332|128:312,1,131.250001251698
232,280,124044,2,0,P|292:260|304:320,1,131.250001251698
408,216,124502,2,0,L|444:140,2,65.6250006258488
300,144,124960,5,0,0:0:0:0:
284,152,125075,1,0,0:0:0:0:
272,164,125189,1,0,0:0:0:0:
264,180,125304,1,0,0:0:0:0:
296,224,125418,5,0,0:0:0:0:
272,280,125533,1,0,0:0:0:0:
220,296,125647,1,0,0:0:0:0:
176,264,125762,1,0,0:0:0:0:
148,216,125876,6,0,P|104:168|88:96,1,131.250001251698,4|0,0:0|0:0,0:0:0:0:
188,48,126334,1,0,0:0:0:0:
336,48,126563,1,0,0:0:0:0:
432,164,126792,1,0,0:0:0:0:
456,192,126907,1,0,0:0:0:0:
460,228,127021,1,0,0:0:0:0:
384,320,127250,2,0,P|316:336|228:328,1,131.250001251698
148,216,127708,6,0,B|96:168|96:168|132:100|52:52,2,196.875001877546
256,160,128624,1,0,0:0:0:0:
256,192,128739,1,0,0:0:0:0:
256,220,128853,1,0,0:0:0:0:
96,152,129082,1,0,0:0:0:0:
96,152,129311,5,0,0:0:0:0:
188,80,129540,2,0,P|264:56|376:56,1,131.250001251698,4|0,0:0|0:0,0:0:0:0:
404,108,129998,1,0,0:0:0:0:
296,264,130227,2,0,L|160:320,1,131.250001251698
296,264,130685,2,0,L|432:208,1,131.250001251698
280,128,131143,5,0,0:0:0:0:
280,128,131257,1,0,0:0:0:0:
136,224,131486,1,0,0:0:0:0:
88,88,131715,1,0,0:0:0:0:
88,88,131830,1,0,0:0:0:0:
240,56,132059,5,0,0:0:0:0:
272,56,132173,1,0,0:0:0:0:
304,56,132288,1,0,0:0:0:0:
172,220,132517,1,0,0:0:0:0:
372,156,132746,1,0,0:0:0:0:
168,104,132975,1,0,0:0:0:0:
256,192,133204,12,4,134120,0:0:0:0:
256,188,136868,5,8,0:0:0:0:
420,280,137555,6,0,P|448:216|440:196,1,75
196,56,138242,2,0,B|132:72|168:132|136:172|104:196|132:248|180:268,1,225
256,320,139158,2,0,P|300:252|248:236,2,150
256,120,140532,1,8,0:0:0:0:
80,176,141218,6,0,P|92:224|128:240,1,75
272,264,141905,1,0,0:0:0:0:
340,224,142134,2,0,L|316:184,1,37.5
300,116,142478,1,0,0:0:0:0:
228,152,142707,2,0,L|188:208,1,37.5
296,48,143279,2,0,L|216:92,2,75
120,88,144195,6,0,L|100:160,1,75,4|0,0:0|0:0,0:0:0:0:
392,88,144653,2,0,L|412:160,1,75
256,192,145111,1,0,0:0:0:0:
152,64,145569,5,0,0:0:0:0:
64,184,145798,1,0,0:0:0:0:
172,272,146027,2,0,P|252:280|336:288,1,150
404,180,146714,1,0,0:0:0:0:
336,64,146943,2,0,P|288:64|244:76,1,63.7500012159348
256,192,147401,12,0,149233,0:0:0:0:
132,72,149462,6,0,L|144:108,1,28.1250010728836
220,184,149806,1,0,0:0:0:0:
304,108,150035,2,0,L|328:80,1,28.1250010728836
396,196,150378,2,0,L|408:236,2,28.1250010728836
256,160,151065,6,0,L|256:228,1,56.2500021457673
256,192,151523,12,0,154271,0:0:0:0:
256,192,154729,5,0,0:0:0:0:
256,192,155187,12,0,157477,0:0:0:0:
252,192,157706,5,0,0:0:0:0:
400,248,157935,2,0,P|420:192|424:184,1,56.2500021457673,2|0,0:0|0:0,0:0:0:0:
404,72,158393,2,0,L|336:104,1,56.2500021457673
288,104,158736,1,0,0:0:0:0:
224,76,158851,6,0,P|180:100|152:140,1,75
112,212,159309,1,0,0:0:0:0:
180,296,159538,2,0,P|244:292|256:264,1,75
396,272,159996,2,0,P|424:236|432:192,1,75
404,92,160454,2,0,L|368:64,1,37.5
336,56,160683,2,0,P|296:76|252:76,1,75
136,68,161141,2,0,L|108:92,1,37.5
96,120,161370,6,0,P|120:160|148:184,1,75
204,244,161828,1,0,0:0:0:0:
296,272,162057,1,0,0:0:0:0:
368,204,162286,1,0,0:0:0:0:
416,104,162515,6,2,P|384:64|340:64,1,75
324,60,162858,2,0,L|292:104,1,37.5
196,56,163202,2,0,B|144:60|112:88|124:128|176:180|208:152|72:156,1,225
32,156,164003,1,0,0:0:0:0:
32,200,164118,2,0,P|40:240|196:312,1,225
296,288,165033,5,0,0:0:0:0:
296,288,165148,1,0,0:0:0:0:
296,288,165262,2,0,P|396:220|392:168,1,150
400,88,165949,2,0,L|300:68,1,75
128,76,166636,5,0,0:0:0:0:
56,176,166865,2,0,P|76:224|112:252,1,93.75
240,288,167323,2,0,L|240:240,1,46.875
268,312,167552,2,0,P|328:320|376:292,1,93.75
412,220,168010,2,0,P|416:160|360:120,3,93.75
368,64,168926,6,0,P|304:44|236:52,1,93.75
240,48,169270,1,0,0:0:0:0:
204,56,169384,2,0,P|172:108|116:124,1,93.75
104,124,169728,1,0,0:0:0:0:
76,152,169842,2,0,P|40:200|56:256,1,93.75
148,224,170300,2,0,P|184:272|168:328,1,93.75
288,244,170758,5,0,0:0:0:0:
312,216,170873,1,0,0:0:0:0:
316,184,170987,1,0,0:0:0:0:
308,152,171102,1,0,0:0:0:0:
284,128,171216,1,0,0:0:0:0:
256,192,171445,12,4,172361,0:0:0:0:
164,112,172590,5,0,0:0:0:0:
256,196,172819,2,0,P|292:168|292:152,1,56.2500021457673
392,68,173277,1,0,0:0:0:0:
444,240,173506,6,0,P|400:300|272:344,1,196.875001877546,4|0,0:0|0:0,0:0:0:0:
196,328,173964,1,0,0:0:0:0:
80,256,174193,1,0,0:0:0:0:
104,120,174422,1,0,0:0:0:0:
208,48,174651,5,0,0:0:0:0:
240,60,174766,1,0,0:0:0:0:
256,88,174880,1,0,0:0:0:0:
240,124,174995,1,0,0:0:0:0:
216,148,175109,1,0,0:0:0:0:
268,244,175338,2,0,P|336:260|376:200,1,131.250001251698
388,160,175682,2,0,L|340:108,1,65.6250006258488
288,40,176025,6,0,P|224:56|136:64,2,131.250001251698
384,88,176712,2,0,P|428:144|432:216,1,131.250001251698
344,292,177170,5,4,0:0:0:0:
232,288,177399,2,0,L|184:336,2,65.6250006258488
136,216,177857,1,0,0:0:0:0:
104,200,177971,1,0,0:0:0:0:
84,172,178086,1,0,0:0:0:0:
72,140,178200,1,0,0:0:0:0:
84,104,178315,1,0,0:0:0:0:
184,56,178544,2,0,P|260:40|312:64,1,131.250001251698
344,88,178887,1,0,0:0:0:0:
376,120,179002,2,0,P|408:192|376:236,1,131.250001251698
304,300,179460,2,0,P|204:312|144:312,2,131.250001251698
135,248,180147,5,0,0:0:0:0:
228,92,180376,2,0,P|272:148|332:176,1,131.250001251698
360,184,180719,1,0,0:0:0:0:
388,216,180834,6,0,P|380:300|308:336,1,131.250001251698,4|0,0:0|0:0,0:0:0:0:
224,272,181292,1,0,0:0:0:0:
120,200,181521,2,0,P|68:148|56:192,1,131.250001251698
72,304,181979,1,0,0:0:0:0:
72,304,182093,1,0,0:0:0:0:
72,304,182208,5,0,0:0:0:0:
216,332,182437,2,0,P|296:312|328:272,1,131.250001251698,0|4,0:0|0:0,0:0:0:0:
384,196,182895,1,0,0:0:0:0:
368,148,183009,1,0,0:0:0:0:
352,100,183124,1,0,0:0:0:0:
240,84,183353,2,0,P|176:56|188:112,1,131.250001251698
124,216,183811,1,0,0:0:0:0:
248,280,184040,1,0,0:0:0:0:
284,268,184154,1,0,0:0:0:0:
312,244,184269,1,0,0:0:0:0:
328,212,184383,1,0,0:0:0:0:
328,176,184498,6,0,P|288:112|336:64,1,131.250001251698,4|0,0:0|0:0,0:0:0:0:
200,44,184956,1,0,0:0:0:0:
72,88,185185,1,0,0:0:0:0:
56,120,185299,1,0,0:0:0:0:
64,152,185414,1,0,0:0:0:0:
84,176,185528,1,0,0:0:0:0:
112,192,185643,1,0,0:0:0:0:
208,256,185872,2,0,L|168:316,2,65.6250006258488
356,240,186330,5,0,0:0:0:0:
356,240,186444,1,0,0:0:0:0:
388,88,186673,1,0,0:0:0:0:
228,128,186902,1,0,0:0:0:0:
228,128,187017,1,0,0:0:0:0:
84,160,187246,5,0,0:0:0:0:
56,216,187365,1,0,0:0:0:0:
92,264,187479,1,0,0:0:0:0:
152,276,187594,1,0,0:0:0:0:
212,276,187708,1,0,0:0:0:0:
264,244,187823,1,0,0:0:0:0:
300,196,187937,1,0,0:0:0:0:
348,160,188052,1,0,0:0:0:0:
400,164,188166,6,0,P|452:208|512:240,1,131.250001251698,4|0,0:0|0:0,0:0:0:0:
480,300,188510,1,0,0:0:0:0:
416,304,188624,2,0,P|344:344|276:360,1,131.250001251698
160,308,189082,2,0,L|60:208,1,131.250001251698
112,88,189540,1,0,0:0:0:0:
280,88,189769,2,0,L|344:48,3,65.6250006258488
412,40,190227,2,0,P|452:104|440:180,1,131.250001251698
408,236,190685,6,0,B|396:300|396:300|352:356,1,131.250001251698
256,276,191143,1,0,0:0:0:0:
256,240,191258,1,0,0:0:0:0:
256,204,191372,1,0,0:0:0:0:
256,80,191601,2,0,P|188:48|120:56,1,131.250001251698,0|4,0:0|0:0,0:0:0:0:
60,152,192059,1,0,0:0:0:0:
116,264,192288,5,0,0:0:0:0:
248,296,192517,1,0,0:0:0:0:
280,288,192632,1,0,0:0:0:0:
304,264,192746,1,0,0:0:0:0:
312,232,192861,1,0,0:0:0:0:
296,204,192975,1,0,0:0:0:0:
204,176,193204,2,0,P|136:144|144:96,1,131.250001251698
240,40,193662,2,0,P|316:72|328:124,1,131.250001251698
408,176,194120,2,0,L|416:248,1,65.6250006258488
420,260,194349,1,0,0:0:0:0:
212,276,194578,5,0,0:0:0:0:
192,276,194693,1,0,0:0:0:0:
172,272,194807,1,0,0:0:0:0:
156,260,194922,1,0,0:0:0:0:
120,212,195036,5,0,0:0:0:0:
120,152,195151,1,0,0:0:0:0:
148,100,195265,1,0,0:0:0:0:
208,92,195380,1,0,0:0:0:0:
260,108,195494,6,0,P|304:48|364:40,1,134.999995880127,4|0,0:0|0:0,0:0:0:0:
412,156,195952,1,0,0:0:0:0:
340,264,196181,1,0,0:0:0:0:
216,248,196410,2,0,P|152:268|148:248,2,67.4999979400635
88,224,196868,2,0,P|48:152|76:92,1,134.999995880127
216,72,197326,5,4,0:0:0:0:
348,108,197555,1,0,0:0:0:0:
348,108,197670,1,0,0:0:0:0:
348,108,197784,1,0,0:0:0:0:
348,108,197899,1,0,0:0:0:0:
348,108,198013,1,0,0:0:0:0:
404,220,198242,2,0,P|368:288|300:308,2,134.999995880127
272,196,198929,5,0,0:0:0:0:
128,120,199158,2,0,P|204:64|272:64,1,134.999995880127,4|0,0:0|0:0,0:0:0:0:
164,224,199616,1,0,0:0:0:0:
308,304,199845,2,0,L|396:188,1,134.999995880127,4|0,0:0|0:0,0:0:0:0:
308,304,200303,2,0,L|160:328,1,134.999995880127
256,200,200761,2,0,L|232:160,4,33.7499989700318
256,192,201448,12,4,202822,0:0:0:0:
116,68,203051,6,0,B|116:124|164:144|164:144|112:240,1,194.999991073609
216,288,203738,2,0,B|292:228|316:312|316:312|416:316,1,194.999991073609
420,120,204425,2,0,B|400:76|336:60|336:60|296:152,1,194.999991073609
160,84,205112,2,0,P|132:144|152:176,1,97.4999955368044
148,176,205455,1,0,0:0:0:0:
156,188,205570,1,0,0:0:0:0:
176,276,205799,2,0,L|276:320,2,97.4999955368044
344,104,206486,6,0,B|400:152|400:152|324:212|384:276|408:308,1,225.000008583069,4|0,0:0|0:0,0:0:0:0:
272,264,207173,1,0,0:0:0:0:
156,284,207402,2,0,B|84:268|84:180|84:180|40:104,1,225.000008583069
168,52,208089,2,0,L|292:56,1,112.500004291535
380,136,208547,1,0,0:0:0:0:
380,136,208661,1,0,0:0:0:0:
380,136,208776,1,0,0:0:0:0:
344,240,209005,1,0,0:0:0:0:
240,272,209234,2,0,B|212:180|144:216|144:216|92:112,1,225.000008583069
176,52,209921,1,0,0:0:0:0:
260,84,210150,6,0,L|296:184,1,89.9999972534181,4|0,0:0|0:0,0:0:0:0:
316,248,210607,1,0,0:0:0:0:
424,184,210836,2,0,L|400:80,1,89.9999972534181
404,328,211294,1,0,0:0:0:0:
264,336,211523,2,0,L|172:336,1,89.9999972534181
84,232,211981,1,0,0:0:0:0:
96,124,212210,1,0,0:0:0:0:
200,72,212439,5,0,0:0:0:0:
312,120,212668,2,0,L|352:80,2,44.999998626709
288,240,213126,1,0,0:0:0:0:
328,256,213241,1,0,0:0:0:0:
368,244,213355,1,0,0:0:0:0:
400,216,213470,1,0,0:0:0:0:
428,184,213584,1,0,0:0:0:0:
424,72,213813,6,0,B|352:48|288:64|288:64|196:68,1,225.000008583069,4|0,0:0|0:0,0:0:0:0:
88,136,214500,1,0,0:0:0:0:
128,248,214729,2,0,B|112:312|156:332|192:328|192:328|264:240,1,225.000008583069
352,224,215416,2,0,L|408:328,1,112.500004291535
464,176,215874,1,0,0:0:0:0:
464,176,215989,1,0,0:0:0:0:
464,176,216103,1,0,0:0:0:0:
384,64,216332,1,0,0:0:0:0:
304,40,216561,5,0,0:0:0:0:
216,80,216790,5,0,0:0:0:0:
124,172,217019,5,0,0:0:0:0:
48,340,217248,5,4,0:0:0:0:
