osu file format v14

[General]
AudioFilename: audio.mp3
AudioLeadIn: 0
PreviewTime: 23282
Countdown: 0
SampleSet: Normal
StackLeniency: 0.7
Mode: 0
LetterboxInBreaks: 0
WidescreenStoryboard: 1

[Editor]
Bookmarks: 37020
DistanceSpacing: 1.2
BeatDivisor: 4
GridSize: 4
TimelineZoom: 1

[Metadata]
Title:Cynic
TitleUnicode:Cynic
Artist:Police Piccadilly
ArtistUnicode:Police Piccadilly
Creator:Silentlemon
Version:Shard
Source:
Tags:UTAU Yamine Rinri
BeatmapID:1396564
BeatmapSetID:621870

[Difficulty]
HPDrainRate:4
CircleSize:4
OverallDifficulty:7.5
ApproachRate:8
SliderMultiplier:1.4
SliderTickRate:1

[Events]
//Background and Video events
0,0,"44578941_p0.jpg",0,0
//Break Periods
2,67450,73828
2,89203,95811
2,134320,136118
//Storyboard Layer 0 (Background)
//Storyboard Layer 1 (Fail)
//Storyboard Layer 2 (Pass)
//Storyboard Layer 3 (Foreground)
//Storyboard Sound Samples

[TimingPoints]
1298.2249533374,457.980306846806,4,1,1,40,1,0
7709,-133.333333333333,4,1,1,40,0,0
8625,-76.9230769230769,4,1,1,50,0,0
13892,-166.666666666667,4,1,1,50,0,0
14350,-76.9230769230769,4,1,1,50,0,0
20304,-111.111111111111,4,1,1,50,0,0
21220,-76.9230769230769,4,1,1,50,0,0
23281,-68.9655172413793,4,1,1,50,0,0
34272,-100,4,1,1,60,0,0
36794,-133.333333333333,4,1,1,60,0,0
37023,-133.333333333333,4,1,1,60,0,0
37936,-57.1428571428571,4,1,1,70,0,1
50763,-50,4,1,1,70,0,1
51450,-50,4,1,1,80,0,1
51679,457.980306846806,4,1,1,80,1,0
51679,-50,4,1,1,70,0,1
52594,-57.1428571428571,4,1,1,70,0,1
59006,-50,4,1,1,70,0,1
59694,-57.1428571428571,4,1,1,70,0,1
59794,-57.1428571428571,4,1,1,70,0,1
63586,-62.5,4,1,1,70,0,1
65876,-66.6666666666667,4,1,1,50,0,0
67250,-111.111111111111,4,1,1,30,0,0
74578,-76.9230769230769,4,1,1,60,0,0
89233,-100,4,1,1,40,0,0
96561,-66.6666666666667,4,1,1,60,0,0
100224,-100,4,1,1,60,0,0
102743,-133.333333333333,4,1,1,60,0,0
102972,-133.333333333333,4,1,1,60,0,0
103888,-57.1428571428571,4,1,1,70,0,1
116717,-50,4,1,1,80,0,1
117633,457.980306846806,4,1,1,80,1,0
117633,-50,4,1,1,80,0,1
118548,-57.1428571428571,4,1,1,70,0,1
124960,-57.1428571428571,4,1,1,70,0,1
125876,-57.1428571428571,4,1,1,70,0,1
133204,-133.333333333333,4,1,1,40,0,0
136868,-100,4,1,1,45,0,0
144195,-100,4,1,1,10,0,0
145569,-100,4,1,1,45,0,0
146943,-117.647058823529,4,1,1,45,0,0
149233,-133.333333333333,4,1,1,45,0,0
151523,-200,4,2,1,30,0,0
157935,-133.333333333333,4,1,1,40,0,0
158851,-100,4,1,1,45,0,0
166636,-80,4,1,1,45,0,0
170758,-66.6666666666667,4,1,1,45,0,0
171445,-66.6666666666667,4,1,1,55,0,0
172361,-133.333333333333,4,1,1,55,0,0
173506,-57.1428571428571,4,1,1,70,0,1
186335,-50,4,1,1,80,0,1
187251,457.980306846806,4,1,1,80,1,0
187251,-66.6666666666667,4,1,1,80,0,1
188166,-57.1428571428571,4,1,1,70,0,1
194578,-50,4,1,1,70,0,1
195494,-55.5555555555556,4,1,1,70,0,1
201448,-83.3333333333333,4,1,1,50,0,0
202822,-76.9230769230769,4,1,1,50,0,0
206486,-66.6666666666667,4,1,1,50,0,0
210150,-83.3333333333333,4,1,1,50,0,0
213813,-66.6666666666667,4,1,1,50,0,0

[Colours]
Combo1 : 74,134,255
Combo2 : 94,227,137
Combo3 : 207,84,136
Combo4 : 255,255,128

[HitObjects]
192,156,1298,6,0,L|204:224,1,70
320,228,1985,2,0,L|308:160,1,70
256,88,2443,1,0,0:0:0:0:
168,84,2672,2,0,P|116:88|104:120,1,70
96,192,3359,6,0,L|136:264,2,70
64,112,4046,2,0,P|56:52|100:88,1,140
212,88,4962,5,0,0:0:0:0:
288,132,5191,1,0,0:0:0:0:
184,272,5649,1,0,0:0:0:0:
260,228,5878,1,0,0:0:0:0:
300,296,6107,2,0,P|340:264|340:220,1,70
376,168,6564,1,0,0:0:0:0:
104,120,7022,6,0,P|60:144|60:176,2,70
136,208,7709,2,0,P|216:172|256:160,1,105.000004005432
364,256,8625,6,0,P|392:212|344:188,1,90.9999958343508
308,164,9083,2,0,B|260:88|260:88|196:112|164:64,1,181.999991668702
96,88,9770,2,0,L|112:136,2,45.4999979171754
56,176,10228,2,0,P|64:228|80:264,1,90.9999958343508
148,264,10686,2,0,P|140:212|140:168,1,90.9999958343508
192,136,11144,2,0,L|248:176,1,45.4999979171754
260,192,11373,2,0,B|272:248|276:256|276:256|276:256|364:224|392:304,1,181.999991668702
376,276,12289,5,0,0:0:0:0:
380,192,12518,2,0,P|348:140|300:120,2,90.9999958343508
296,220,13205,2,0,P|256:324|188:296,1,181.999991668702
160,244,13892,2,0,L|124:200,1,41.9999987182618
76,104,14350,6,0,P|104:48|136:48,1,90.9999958343508
160,124,14808,1,0,0:0:0:0:
212,192,15037,2,0,P|244:268|276:184,1,181.999991668702
404,72,15953,5,0,0:0:0:0:
400,172,16182,2,0,P|344:160|320:192,1,90.9999958343508
400,248,16640,2,0,P|364:280|324:264,1,90.9999958343508
256,264,17098,6,0,L|228:308,2,45.4999979171754
232,200,17556,2,0,L|196:168,2,45.4999979171754
296,160,18014,2,0,L|324:112,2,45.4999979171754
340,228,18472,6,0,P|384:288|436:304,2,90.9999958343508
392,168,19159,2,0,P|444:112|384:36,1,181.999991668702
316,56,19846,5,0,0:0:0:0:
248,116,20075,1,0,0:0:0:0:
176,68,20304,1,0,0:0:0:0:
96,104,20533,2,0,P|64:136|132:168,1,125.999996154785
196,168,21220,1,0,0:0:0:0:
272,124,21449,6,0,P|320:96|384:76,2,90.9999958343508
272,196,22136,2,0,P|340:212|388:204,2,90.9999958343508
196,168,22823,1,0,0:0:0:0:
324,56,23281,6,0,P|388:72|408:108,1,101.500003097534
412,172,23739,2,0,P|372:224|304:240,1,101.500003097534
348,144,24197,2,0,L|140:144,1,203.000006195069
145,144,24884,1,0,0:0:0:0:
169,56,25113,6,0,P|105:72|85:108,1,101.500003097534
81,172,25571,2,0,P|121:224|189:240,1,101.500003097534
145,144,26029,2,0,L|353:144,1,203.000006195069
352,148,26716,1,0,0:0:0:0:
352,148,26945,6,0,L|324:248,1,101.500003097534
248,240,27403,2,0,L|280:136,1,101.500003097534
188,84,27861,2,0,L|120:280,1,203.000006195069
120,288,28548,1,0,0:0:0:0:
48,160,28777,6,0,L|116:80,1,101.500003097534
100,252,29235,2,0,L|175:168,1,101.500003097534
256,216,29693,2,0,L|324:140,1,101.500003097534
356,284,30150,2,0,L|432:200,1,101.500003097534
464,132,30608,6,0,P|396:96|364:96,1,101.500003097534
296,64,31066,1,0,0:0:0:0:
220,52,31295,1,0,0:0:0:0:
128,52,31524,2,0,B|60:84|112:168|112:168|32:232,1,203.000006195069
60,209,32211,1,0,0:0:0:0:
108,276,32440,5,0,0:0:0:0:
172,212,32669,1,0,0:0:0:0:
228,284,32898,1,0,0:0:0:0:
288,352,33127,1,0,0:0:0:0:
352,288,33356,2,0,B|388:240|388:240|388:176,3,101.500003097534
360,76,34272,6,0,L|264:76,1,70
292,152,34959,5,0,0:0:0:0:
208,152,35188,2,0,L|152:152,4,35
292,152,35875,1,0,0:0:0:0:
224,256,36333,5,0,0:0:0:0:
224,256,36562,1,0,0:0:0:0:
224,256,36791,5,0,0:0:0:0:
336,232,37020,2,0,P|312:192|316:176,1,52.5000020027161
272,116,37478,2,0,P|240:96|212:104,1,52.5000020027161
144,56,37936,6,0,B|160:100|120:156|120:156|204:236,1,183.750001752377,4|0,0:0|0:0,0:0:0:0:
192,236,38394,2,0,P|220:300|276:308,1,122.500001168251
368,256,38852,2,0,L|404:200,2,61.2500005841255
300,180,39310,2,0,P|228:112|248:72,2,122.500001168251
360,100,39997,1,0,0:0:0:0:
276,40,40226,5,0,0:0:0:0:
176,40,40455,2,0,P|104:64|60:104,1,122.500001168251
72,176,40913,1,0,0:0:0:0:
168,212,41142,2,0,P|248:172|244:144,1,122.500001168251
304,84,41600,6,0,P|396:76|372:200,1,245.000002336502,4|0,0:0|0:0,0:0:0:0:
312,272,42287,2,0,L|352:332,2,61.2500005841255
208,296,42745,2,0,L|160:360,2,61.2500005841255
124,236,43203,2,0,P|80:188|92:132,1,122.500001168251
136,64,43661,1,0,0:0:0:0:
152,64,43775,1,0,0:0:0:0:
168,64,43890,2,0,L|168:132,2,61.2500005841255
256,64,44348,1,0,0:0:0:0:
324,132,44577,5,0,0:0:0:0:
352,220,44806,2,0,P|328:280|264:288,1,122.500001168251
232,284,45149,1,0,0:0:0:0:
188,280,45264,2,0,P|128:256|116:204,1,122.500001168251,4|0,0:0|0:0,0:0:0:0:
116,140,45722,2,0,P|192:160|208:208,1,122.500001168251
312,116,46180,2,0,L|276:48,2,61.2500005841255
440,96,46638,6,0,B|460:32|460:32|480:100,1,122.500001168251
416,220,47096,2,0,B|404:284|404:284|372:220,1,122.500001168251,4|0,0:0|0:0,0:0:0:0:
272,216,47554,2,0,L|264:288,2,61.2500005841255
248,124,48012,1,0,0:0:0:0:
188,52,48241,1,0,0:0:0:0:
108,96,48470,2,0,P|68:156|92:224,1,122.500001168251
92,312,48928,6,0,P|160:340|240:332,1,122.500001168251,4|0,0:0|0:0,0:0:0:0:
264,184,49386,2,0,P|284:248|228:276,1,122.500001168251
416,208,49844,6,0,P|380:184|376:164,4,61.2500005841255
448,120,50531,2,0,L|312:72,1,122.500001168251
308,76,50874,2,0,P|256:44|100:80,1,210
96,160,51447,1,0,0:0:0:0:
184,196,51679,6,0,L|216:268,3,70
216,288,52136,2,0,L|184:360,3,70
187,351,52594,6,0,P|115:343|67:331,1,122.500001168251,4|0,0:0|0:0,0:0:0:0:
40,304,52938,2,0,P|64:216|72:192,1,61.2500005841255
68,160,53281,2,0,P|76:80|212:88,1,245.000002336502
228,156,53968,2,0,P|240:228|304:272,1,122.500001168251
344,264,54426,2,0,P|336:176|288:128,2,122.500001168251
392,336,55113,5,0,0:0:0:0:
468,256,55342,1,0,0:0:0:0:
456,140,55571,1,0,0:0:0:0:
352,88,55800,2,0,P|288:36|224:40,1,122.500001168251
164,56,56258,5,4,0:0:0:0:
88,104,56487,2,0,L|116:164,2,61.2500005841255
40,180,56945,2,0,B|40:264|40:264|76:312|76:312|116:264|176:324,1,245.000002336502
240,312,57632,2,0,B|308:312|308:312|364:280,1,122.500001168251
384,212,58090,2,0,L|376:144,2,61.2500005841255
292,192,58548,2,0,P|252:128|220:192,1,122.500001168251
176,104,59006,6,0,L|208:40,3,70
212,40,59464,2,0,L|288:40,3,70
288,40,59922,6,0,B|360:40|360:40|392:88|392:88|352:184|400:232,1,245.000002336502,4|0,0:0|0:0,0:0:0:0:
352,280,60609,1,0,0:0:0:0:
352,280,60724,1,0,0:0:0:0:
352,280,60838,1,0,0:0:0:0:
268,312,61067,1,0,0:0:0:0:
168,312,61296,6,0,P|132:236|196:168,1,183.750001752377
208,164,61754,1,4,0:0:0:0:
280,104,61983,2,0,L|344:96,2,61.2500005841255
192,60,62441,1,0,0:0:0:0:
192,60,62670,2,0,P|124:36|60:52,1,122.500001168251
40,128,63128,1,0,0:0:0:0:
92,200,63357,1,0,0:0:0:0:
152,256,63586,6,0,L|276:256,1,112,4|0,0:0|0:0,0:0:0:0:
288,256,63929,2,0,P|360:232|368:216,1,56
396,188,64273,2,0,P|320:128|260:140,1,112
232,100,64731,2,0,P|192:152|136:152,1,112
60,196,65189,2,0,L|92:232,4,28
256,192,65876,12,4,67250,0:0:0:0:
152,48,74578,6,0,P|108:96|116:144,1,90.9999958343508
112,192,75035,2,0,P|124:236|184:268,1,90.9999958343508
240,264,75493,2,0,L|276:228,1,45.4999979171754
304,200,75722,2,0,P|360:216|416:188,1,90.9999958343508
432,136,76180,2,0,L|440:76,2,45.4999979171754
352,100,76638,2,0,L|236:80,1,90.9999958343508
188,72,77096,2,0,P|120:76|124:104,2,90.9999958343508
188,72,77783,1,0,0:0:0:0:
116,240,78241,5,0,0:0:0:0:
212,200,78470,2,0,P|236:248|228:296,2,90.9999958343508
192,120,79157,2,0,P|212:64|248:144,1,181.999991668702
192,120,79844,1,0,0:0:0:0:
352,164,80302,6,0,P|364:232|328:264,1,90.9999958343508
296,208,80760,1,0,0:0:0:0:
236,248,80989,2,0,P|264:308|304:324,1,90.9999958343508
200,332,81447,1,0,0:0:0:0:
72,84,81905,5,0,0:0:0:0:
160,56,82134,2,0,P|220:44|276:48,1,90.9999958343508
160,140,82592,2,0,P|220:144|264:128,1,90.9999958343508
336,92,83050,2,0,L|384:56,2,45.4999979171754
256,140,83508,1,0,0:0:0:0:
256,140,83623,1,0,0:0:0:0:
256,140,83737,5,0,0:0:0:0:
312,204,83966,2,0,L|336:252,2,45.4999979171754
232,244,84424,2,0,P|196:292|128:292,1,90.9999958343508
100,268,84882,2,0,P|84:216|92:168,1,90.9999958343508
136,72,85569,6,0,P|220:96|236:96,2,90.9999958343508
222,96,86256,1,0,0:0:0:0:
332,88,86485,2,0,P|368:132|360:176,1,90.9999958343508
364,176,86828,1,0,0:0:0:0:
360,188,86943,1,0,0:0:0:0:
332,280,87172,2,0,P|292:316|256:308,1,90.9999958343508
176,276,87630,6,0,P|132:232|116:192,2,90.9999958343508
240,216,88317,2,0,P|288:172|308:128,1,90.9999958343508
312,124,88660,1,0,0:0:0:0:
320,96,88775,2,0,P|272:56|208:60,1,90.9999958343508
168,76,96561,5,0,0:0:0:0:
132,152,96790,2,0,L|228:216,1,105.000004005432
280,152,97248,2,0,L|320:104,2,52.5000020027161
312,228,97706,6,0,P|336:296|300:320,1,105.000004005432
228,312,98164,2,0,P|152:288|92:276,2,105.000004005432
224,228,98850,1,0,0:0:0:0:
164,168,99079,1,0,0:0:0:0:
204,92,99308,2,0,P|256:64|336:60,1,105.000004005432
360,112,99766,2,0,P|324:156|236:160,1,105.000004005432
180,192,100224,5,0,0:0:0:0:
180,192,100453,1,0,0:0:0:0:
368,192,100911,5,0,0:0:0:0:
368,112,101140,2,0,L|320:72,4,35
368,192,101827,1,0,0:0:0:0:
148,192,102285,5,0,0:0:0:0:
148,192,102514,1,0,0:0:0:0:
148,192,102743,5,0,0:0:0:0:
208,104,102972,2,0,P|224:128|256:120,1,52.5000020027161
288,212,103430,2,0,P|268:244|236:244,1,52.5000020027161
124,308,103888,6,0,B|80:240|72:176|72:112|104:100,1,183.750001752377
88,108,104346,2,0,B|104:68|104:68|172:120|224:100,1,122.500001168251
276,92,104804,1,0,0:0:0:0:
276,92,104919,1,0,0:0:0:0:
276,92,105033,1,0,0:0:0:0:
360,152,105262,2,0,P|372:236|344:288,1,122.500001168251
264,312,105720,2,0,P|256:248|240:188,1,122.500001168251
196,100,106178,5,0,0:0:0:0:
104,144,106407,2,0,P|100:208|120:268,1,122.500001168251
212,228,106865,2,0,P|256:168|328:152,2,122.500001168251
304,300,107552,6,4,B|408:208|408:208|408:88,1,245.000002336502,4|0,0:0|0:0,0:0:0:0:
312,72,108239,2,0,L|248:36,2,61.2500005841255
248,152,108697,1,0,0:0:0:0:
248,152,108812,1,0,0:0:0:0:
248,152,108926,1,0,0:0:0:0:
216,256,109155,2,0,P|148:284|64:280,1,122.500001168251
60,192,109613,2,0,L|36:128,4,61.2500005841255
160,172,110300,1,0,0:0:0:0:
248,120,110529,21,0,0:0:0:0:
368,128,110758,1,0,0:0:0:0:
296,224,110987,1,0,0:0:0:0:
204,268,111216,2,0,B|148:308|148:308|128:248|88:208,1,183.750001752377,4|0,0:0|0:0,0:0:0:0:
72,192,111674,1,0,0:0:0:0:
96,96,111903,2,0,P|144:40|192:40,2,122.500001168251
184,148,112590,1,0,0:0:0:0:
280,116,112819,5,0,0:0:0:0:
368,176,113048,2,0,P|380:240|356:304,1,122.500001168251,4|0,0:0|0:0,0:0:0:0:
348,316,113391,1,0,0:0:0:0:
332,328,113506,2,0,P|264:340|192:332,1,122.500001168251
120,300,113964,1,0,0:0:0:0:
64,220,114193,1,0,0:0:0:0:
112,132,114422,1,0,0:0:0:0:
208,164,114651,6,0,L|240:108,2,61.2500005841255,0|0|4,0:0|0:0|0:0,0:0:0:0:
300,204,115109,2,0,P|324:284|356:264,1,122.500001168251
404,212,115567,2,0,P|396:116|252:52,1,245.000002336502
176,72,116254,2,0,P|124:116|92:176,1,122.500001168251
96,236,116712,2,0,L|140:292,1,61.2500005841255
216,236,117055,2,0,L|168:180,1,70
288,172,117399,1,0,0:0:0:0:
356,100,117633,6,0,L|404:172,3,70
395,179,118090,2,0,L|363:255,3,70
368,244,118548,6,0,B|352:344|316:344|316:344|248:344,1,183.750001752377,4|0,0:0|0:0,0:0:0:0:
224,340,119006,2,0,P|164:316|108:320,1,122.500001168251
60,248,119464,2,0,L|36:188,2,61.2500005841255
136,200,119922,2,0,P|156:132|148:68,2,122.500001168251
224,244,120609,2,0,L|256:184,2,61.2500005841255
324,252,121067,5,0,0:0:0:0:
428,184,121296,1,0,0:0:0:0:
324,252,121525,1,0,0:0:0:0:
428,184,121754,1,0,0:0:0:0:
328,112,121983,1,0,0:0:0:0:
256,184,122212,6,0,P|228:240|180:184,1,122.500001168251,4|0,0:0|0:0,0:0:0:0:
88,196,122670,1,0,0:0:0:0:
48,284,122899,2,0,B|84:304|152:348|152:348|188:284|260:328|260:328,1,245.000002336502
352,304,123586,2,0,P|416:216|416:200,1,122.500001168251
368,124,124044,1,0,0:0:0:0:
368,124,124159,1,0,0:0:0:0:
368,124,124273,1,0,0:0:0:0:
268,120,124502,2,0,P|240:56|204:76,1,122.500001168251
128,128,124960,6,0,L|100:200,3,61.2500005841255
104,208,125418,2,0,L|132:276,3,61.2500005841255
132,284,125876,6,0,B|224:324|224:324|404:324,1,245.000002336502,4|0,0:0|0:0,0:0:0:0:
424,244,126563,2,0,L|424:172,2,61.2500005841255
328,224,127021,2,0,L|328:96,1,122.500001168251
236,64,127479,5,0,0:0:0:0:
144,92,127708,2,0,P|104:152|184:236,2,183.750001752377,4|0|0,0:0|0:0|0:0,0:0:0:0:
236,68,128624,2,0,L|300:68,2,61.2500005841255
236,168,129082,2,0,L|320:292,1,122.500001168251
412,244,129540,6,0,P|436:168|412:124,1,122.500001168251,4|0,0:0|0:0,0:0:0:0:
352,52,129998,2,0,L|284:76,1,61.2500005841255
200,76,130341,2,0,L|140:48,1,61.2500005841255
80,124,130685,1,0,0:0:0:0:
112,216,130914,6,0,L|164:264,1,61.2500005841255
248,232,131257,2,0,L|284:168,1,61.2500005841255
316,96,131601,1,0,0:0:0:0:
424,132,131830,2,0,P|424:244|384:296,1,122.500001168251
416,272,132173,1,0,0:0:0:0:
408,288,132288,5,2,0:0:0:0:
288,312,132517,1,2,0:0:0:0:
168,288,132746,1,2,0:0:0:0:
104,184,132975,1,2,0:0:0:0:
256,192,133204,12,4,134120,0:0:0:0:
256,192,136868,5,0,0:0:0:0:
400,304,137555,6,0,L|436:216,1,70
364,112,138242,2,0,P|324:72|284:72,2,70
252,196,139158,2,0,P|216:244|280:296,2,140
256,192,140532,5,0,0:0:0:0:
84,56,141218,6,0,L|184:52,1,70
88,176,141905,1,0,0:0:0:0:
88,176,142134,1,0,0:0:0:0:
88,176,142363,2,0,P|120:232|188:280,1,140
320,264,143279,2,0,L|352:192,2,70
384,124,144195,6,0,L|288:104,1,70
128,124,144653,2,0,L|224:104,1,70
256,188,145111,1,0,0:0:0:0:
432,228,145569,5,0,0:0:0:0:
424,112,145798,2,0,P|376:76|268:80,1,140
268,72,146371,1,0,0:0:0:0:
240,76,146485,2,0,P|188:80|168:108,1,70
144,140,146943,2,0,P|160:176|160:208,1,59.5000011348725
256,192,147401,12,0,149233,0:0:0:0:
260,200,149462,6,0,L|232:168,1,26.2500010013581
216,152,149691,2,0,P|184:128|128:128,2,78.7500030040742
216,152,150607,1,0,0:0:0:0:
360,236,151065,6,0,L|360:176,1,52.5000020027161
256,192,151523,12,0,154271,0:0:0:0:
256,192,154729,5,0,0:0:0:0:
256,192,155187,12,0,157477,0:0:0:0:
252,240,157706,6,0,L|216:212,1,35
168,172,158164,1,0,0:0:0:0:
180,100,158393,2,0,P|208:72|276:64,1,105.000004005432
336,140,159080,2,0,P|352:192|368:212,1,70
384,292,159538,2,0,P|336:332|252:340,1,140
172,328,160225,6,0,L|128:300,1,35
120,292,160454,2,0,L|96:212,1,70
88,144,160912,2,0,P|112:88|144:80,1,70
196,56,161370,5,0,0:0:0:0:
276,88,161599,1,0,0:0:0:0:
200,128,161828,1,0,0:0:0:0:
280,160,162057,1,0,0:0:0:0:
204,200,162286,2,0,P|188:236|196:276,1,70
168,336,162744,2,0,P|120:328|96:288,1,70
80,236,163202,2,0,P|80:136|188:64,1,210
180,64,164003,1,0,0:0:0:0:
212,64,164118,2,0,P|292:88|324:144,1,140
344,224,164804,6,0,L|384:296,1,70
312,304,165262,2,0,L|260:352,1,70
216,308,165720,2,0,L|160:256,1,70
220,200,166178,1,0,0:0:0:0:
220,200,166407,1,0,0:0:0:0:
312,168,166636,6,0,P|336:112|236:88,1,175
160,80,167323,1,0,0:0:0:0:
80,140,167552,1,0,0:0:0:0:
104,240,167781,2,0,P|152:188|252:208,1,175
232,288,168468,2,0,P|272:324|312:332,1,87.5
388,272,168926,6,0,P|416:220|416:136,1,131.25
416,128,169384,2,0,P|400:72|320:52,1,131.25
312,48,169842,2,0,P|280:92|156:100,1,175
88,72,170529,2,0,P|40:104|68:124,1,87.5
88,180,170987,1,0,0:0:0:0:
88,180,171216,1,0,0:0:0:0:
256,192,171445,12,0,172132,0:0:0:0:
248,192,172361,5,0,0:0:0:0:
340,140,172590,2,0,P|320:116|296:116,1,52.5000020027161
140,144,173048,2,0,P|160:120|184:120,1,52.5000020027161
256,192,173506,6,4,B|256:276|256:328|256:328|184:328,1,183.750001752377,4|0,0:0|0:0,0:0:0:0:
184,328,173964,2,0,P|104:320|48:268,1,122.500001168251
52,208,174422,1,0,0:0:0:0:
52,208,174537,1,0,0:0:0:0:
52,208,174651,1,0,0:0:0:0:
84,120,174880,2,0,B|128:76|128:76|172:104|204:88,1,122.500001168251
216,164,175338,2,0,B|260:208|260:208|232:252|248:284,1,122.500001168251
304,332,175796,1,0,0:0:0:0:
376,272,176025,5,0,0:0:0:0:
420,188,176254,1,0,0:0:0:0:
400,96,176483,1,0,0:0:0:0:
324,40,176712,1,0,0:0:0:0:
240,84,176941,1,0,0:0:0:0:
296,160,177170,6,4,B|192:176|228:272|228:272|156:328,1,245.000002336502,4|0,0:0|0:0,0:0:0:0:
80,276,177857,2,0,L|20:236,2,61.2500005841255
116,188,178315,1,0,0:0:0:0:
116,188,178429,1,0,0:0:0:0:
116,188,178544,1,0,0:0:0:0:
156,96,178773,2,0,B|212:56|212:56|276:56,1,122.500001168251
368,80,179231,2,0,L|416:132,4,61.2500005841255
316,164,179918,5,0,0:0:0:0:
356,244,180147,2,0,P|428:216|480:152,2,122.500001168251
272,296,180834,2,0,P|212:332|216:204,1,245.000002336502,4|0,0:0|0:0,0:0:0:0:
256,144,181521,1,0,0:0:0:0:
256,144,181750,2,0,L|288:88,2,61.2500005841255
180,88,182208,6,0,P|152:56|104:108,1,122.500001168251
32,228,182666,2,0,P|60:260|108:208,1,122.500001168251,4|0,0:0|0:0,0:0:0:0:
224,224,183124,2,0,L|204:288,2,61.2500005841255
256,144,183582,2,0,P|280:80|364:56,1,122.500001168251
404,96,184040,1,0,0:0:0:0:
424,180,184269,2,0,L|432:260,1,61.2500005841255
424,264,184498,6,0,P|388:320|336:320,1,122.500001168251,4|0,0:0|0:0,0:0:0:0:
256,252,184956,2,0,L|316:196,2,61.2500005841255
164,192,185414,1,0,0:0:0:0:
148,184,185528,1,0,0:0:0:0:
132,176,185643,1,0,0:0:0:0:
116,168,185757,1,0,0:0:0:0:
100,160,185872,1,0,0:0:0:0:
56,80,186101,1,0,0:0:0:0:
172,48,186330,6,0,L|224:100,1,61.2500005841255
312,84,186673,2,0,L|368:32,1,70
412,136,187017,1,0,0:0:0:0:
364,204,187251,6,0,L|336:260,1,52.5000020027161
328,264,187479,2,0,L|272:296,1,52.5000020027161
264,292,187708,2,0,L|192:292,1,52.5000020027161
196,288,187937,2,0,L|132:252,1,52.5000020027161
132,248,188166,6,0,P|108:164|152:100,1,122.500001168251,4|0,0:0|0:0,0:0:0:0:
128,120,188510,1,0,0:0:0:0:
136,108,188624,1,0,0:0:0:0:
216,60,188853,2,0,B|260:136|360:64|360:64|412:144,1,245.000002336502
408,220,189540,2,0,P|376:284|316:312,1,122.500001168251
256,284,189998,2,0,L|220:228,2,61.2500005841255
256,284,190456,1,0,0:0:0:0:
144,344,190685,5,0,0:0:0:0:
92,224,190914,1,0,0:0:0:0:
144,344,191143,1,0,0:0:0:0:
96,220,191372,2,0,P|88:128|136:96,2,122.500001168251,0|0|4,0:0|0:0|0:0,0:0:0:0:
184,184,192059,6,0,L|232:120,2,61.2500005841255
256,244,192517,2,0,B|308:280|384:320|384:320|384:320|384:320|368:244|408:216,1,245.000002336502
412,132,193204,2,0,P|384:72|324:60,1,122.500001168251
244,92,193662,2,0,L|292:140,2,61.2500005841255
148,100,194120,1,0,0:0:0:0:
80,168,194349,1,0,0:0:0:0:
156,248,194578,6,0,L|228:192,3,70
216,200,195036,2,0,L|280:256,3,70
288,264,195494,6,0,B|380:320|380:320|380:320|380:320|484:328|436:228|464:184,1,251.999992309571,4|0,0:0|0:0,0:0:0:0:
452,124,196181,2,0,L|452:48,2,62.9999980773926
352,128,196639,1,0,0:0:0:0:
252,128,196868,2,0,B|176:60|176:60|76:60,1,188.999994232178
64,60,197326,5,4,0:0:0:0:
64,160,197555,1,0,0:0:0:0:
64,160,197670,1,0,0:0:0:0:
64,160,197784,1,0,0:0:0:0:
72,264,198013,2,0,L|104:324,1,62.9999980773926
116,336,198242,2,0,L|256:336,1,125.999996154785
332,292,198700,2,0,L|416:292,2,62.9999980773926
328,192,199158,6,0,P|360:120|336:68,1,125.999996154785,4|0,0:0|0:0,0:0:0:0:
248,56,199616,1,0,0:0:0:0:
168,116,199845,2,0,L|240:288,1,125.999996154785
168,116,200303,2,0,L|96:264,1,125.999996154785
168,296,200761,2,0,L|168:252,4,31.4999990386963
256,192,201448,12,0,202822,0:0:0:0:
88,208,203051,5,0,0:0:0:0:
128,136,203280,2,0,P|168:88|236:80,1,90.9999958343508
264,72,203738,2,0,B|328:96|304:196|304:196|352:260,1,181.999991668702
328,304,204425,2,0,P|240:328|144:300,1,181.999991668702
88,264,205112,2,0,P|56:220|88:160,1,90.9999958343508
61,186,205455,1,0,0:0:0:0:
61,186,205569,1,0,0:0:0:0:
132,140,205799,2,0,L|60:80,2,90.9999958343508
196,88,206486,6,0,B|256:168|328:144|328:144|336:240,1,210.000008010865,4|0,0:0|0:0,0:0:0:0:
336,288,207173,2,0,B|276:320|276:320|236:240|136:288,1,210.000008010865
92,224,207860,2,0,P|84:164|104:116,2,105.000004005432
92,224,208547,1,0,0:0:0:0:
180,132,208776,2,0,P|208:88|280:40,1,105.000004005432
264,52,209119,1,0,0:0:0:0:
276,52,209234,1,0,0:0:0:0:
396,68,209463,2,0,P|424:116|420:200,1,105.000004005432
428,236,209921,1,0,0:0:0:0:
408,328,210150,6,0,L|304:328,1,83.9999974365235,4|0,0:0|0:0,0:0:0:0:
248,328,210607,1,0,0:0:0:0:
248,328,210836,2,0,L|144:328,1,83.9999974365235
88,328,211293,1,0,0:0:0:0:
84,248,211523,2,0,L|188:248,1,83.9999974365235
244,248,211980,1,0,0:0:0:0:
320,252,212210,6,0,P|376:236|404:180,1,83.9999974365235
420,148,212668,2,0,L|352:112,2,41.9999987182618
452,80,213126,2,0,L|372:24,1,83.9999974365235
312,60,213584,1,0,0:0:0:0:
224,60,213813,6,0,B|136:96|104:32|104:32|92:108,1,210.000008010865,4|0,0:0|0:0,0:0:0:0:
88,184,214500,1,0,0:0:0:0:
88,264,214729,2,0,B|140:316|140:316|184:292|244:320|244:320|284:300,1,210.000008010865
340,268,215416,2,0,L|396:144,1,105.000004005432
336,100,215874,2,0,P|288:144|216:132,1,105.000004005432
160,144,216332,1,0,0:0:0:0:
348,184,216561,5,0,0:0:0:0:
176,260,216790,5,0,0:0:0:0:
272,92,217019,5,0,0:0:0:0:
300,288,217248,5,4,0:0:0:0:
