osu file format v14

[General]
AudioFilename: Enter The World.mp3
AudioLeadIn: 0
PreviewTime: 123298
Countdown: 0
SampleSet: None
StackLeniency: 0.7
Mode: 3
LetterboxInBreaks: 0
SpecialStyle: 0
WidescreenStoryboard: 1

[Editor]
Bookmarks: 12140,22245,32350,42456,62666,82877,103087,123298,143508,163719,183929,204140,224350,244561,264771,284982,305192
DistanceSpacing: 0.6
BeatDivisor: 4
GridSize: 32
TimelineZoom: 1.3

[Metadata]
Title:Enter The World
TitleUnicode:Enter The World
Artist:Polcka
ArtistUnicode:Polcka
Creator:Asherz007
Version:Escape The Reality
Source:
Tags:hardtek stamina
BeatmapID:1823241
BeatmapSetID:872475

[Difficulty]
HPDrainRate:8.5
CircleSize:4
OverallDifficulty:9
ApproachRate:5
SliderMultiplier:1.4
SliderTickRate:1

[Events]
//Background and Video events
0,0,"Escape The Reality.jpg",0,0
//Break Periods
//Storyboard Layer 0 (Background)
//Storyboard Layer 1 (Fail)
//Storyboard Layer 2 (Pass)
//Storyboard Layer 3 (Foreground)
//Storyboard Sound Samples

[TimingPoints]
2035,315.789473684211,4,3,1,40,1,0
123298,-100,4,3,1,40,0,1
163719,-100,4,3,1,40,0,0
204140,-100,4,3,1,40,0,1
244561,-100,4,3,1,40,0,0

[HitObjects]
64,192,2035,5,0,0:0:0:0:
192,192,2035,1,0,0:0:0:0:
448,192,2035,1,0,0:0:0:0:
320,192,2113,1,0,0:0:0:0:
192,192,2192,1,0,0:0:0:0:
64,192,2271,1,0,0:0:0:0:
320,192,2350,1,0,0:0:0:0:
448,192,2350,1,0,0:0:0:0:
192,192,2429,1,0,0:0:0:0:
448,192,2508,1,0,0:0:0:0:
64,192,2587,1,0,0:0:0:0:
192,192,2666,1,0,0:0:0:0:
320,192,2666,1,0,0:0:0:0:
448,192,2745,1,0,0:0:0:0:
64,192,2824,1,0,0:0:0:0:
320,192,2903,1,0,0:0:0:0:
448,192,2982,1,0,0:0:0:0:
192,192,2982,1,0,0:0:0:0:
64,192,3061,1,0,0:0:0:0:
320,192,3140,1,0,0:0:0:0:
448,192,3219,1,0,0:0:0:0:
192,192,3298,1,0,0:0:0:0:
64,192,3298,1,0,0:0:0:0:
320,192,3377,1,0,0:0:0:0:
448,192,3456,1,0,0:0:0:0:
64,192,3535,1,0,0:0:0:0:
192,192,3613,1,0,0:0:0:0:
448,192,3613,1,0,0:0:0:0:
320,192,3692,1,0,0:0:0:0:
64,192,3771,1,0,0:0:0:0:
448,192,3850,1,0,0:0:0:0:
320,192,3929,1,0,0:0:0:0:
192,192,3929,1,0,0:0:0:0:
64,192,4008,1,0,0:0:0:0:
448,192,4087,1,0,0:0:0:0:
192,192,4166,1,0,0:0:0:0:
64,192,4245,1,0,0:0:0:0:
320,192,4245,1,0,0:0:0:0:
448,192,4324,1,0,0:0:0:0:
192,192,4403,1,0,0:0:0:0:
64,192,4482,1,0,0:0:0:0:
320,192,4561,1,0,0:0:0:0:
448,192,4561,1,0,0:0:0:0:
192,192,4640,1,0,0:0:0:0:
64,192,4719,1,0,0:0:0:0:
320,192,4798,1,0,0:0:0:0:
448,192,4877,1,0,0:0:0:0:
64,192,4877,1,0,0:0:0:0:
192,192,4956,1,0,0:0:0:0:
320,192,5035,1,0,0:0:0:0:
64,192,5113,1,0,0:0:0:0:
192,192,5192,1,0,0:0:0:0:
448,192,5192,1,0,0:0:0:0:
320,192,5271,1,0,0:0:0:0:
64,192,5350,1,0,0:0:0:0:
448,192,5429,1,0,0:0:0:0:
320,192,5508,1,0,0:0:0:0:
192,192,5508,1,0,0:0:0:0:
64,192,5587,1,0,0:0:0:0:
320,192,5666,1,0,0:0:0:0:
448,192,5745,1,0,0:0:0:0:
192,192,5824,1,0,0:0:0:0:
64,192,5824,1,0,0:0:0:0:
320,192,5903,1,0,0:0:0:0:
192,192,5982,1,0,0:0:0:0:
448,192,6061,1,0,0:0:0:0:
64,192,6140,1,0,0:0:0:0:
320,192,6140,1,0,0:0:0:0:
192,192,6219,1,0,0:0:0:0:
448,192,6298,1,0,0:0:0:0:
64,192,6377,1,0,0:0:0:0:
192,192,6456,1,0,0:0:0:0:
320,192,6456,1,0,0:0:0:0:
448,192,6535,1,0,0:0:0:0:
64,192,6613,1,0,0:0:0:0:
192,192,6692,1,0,0:0:0:0:
320,192,6771,1,0,0:0:0:0:
448,192,6771,1,0,0:0:0:0:
64,192,6850,1,0,0:0:0:0:
448,192,6929,1,0,0:0:0:0:
192,192,7008,1,0,0:0:0:0:
64,192,7087,1,0,0:0:0:0:
320,192,7087,1,0,0:0:0:0:
448,192,7166,1,0,0:0:0:0:
192,192,7245,1,0,0:0:0:0:
320,192,7324,1,0,0:0:0:0:
448,192,7403,1,0,0:0:0:0:
64,192,7403,1,0,0:0:0:0:
192,192,7482,1,0,0:0:0:0:
320,192,7561,1,0,0:0:0:0:
64,192,7640,1,0,0:0:0:0:
192,192,7719,1,0,0:0:0:0:
448,192,7719,1,0,0:0:0:0:
320,192,7798,1,0,0:0:0:0:
192,192,7877,1,0,0:0:0:0:
64,192,7956,1,0,0:0:0:0:
320,192,8035,1,0,0:0:0:0:
448,192,8035,1,0,0:0:0:0:
192,192,8113,1,0,0:0:0:0:
64,192,8192,1,0,0:0:0:0:
448,192,8271,1,0,0:0:0:0:
320,192,8350,1,0,0:0:0:0:
64,192,8350,1,0,0:0:0:0:
192,192,8429,1,0,0:0:0:0:
448,192,8508,1,0,0:0:0:0:
320,192,8587,1,0,0:0:0:0:
192,192,8666,1,0,0:0:0:0:
64,192,8666,1,0,0:0:0:0:
448,192,8745,1,0,0:0:0:0:
64,192,8824,1,0,0:0:0:0:
192,192,8903,1,0,0:0:0:0:
320,192,8982,1,0,0:0:0:0:
448,192,8982,1,0,0:0:0:0:
64,192,9061,1,0,0:0:0:0:
192,192,9140,1,0,0:0:0:0:
448,192,9219,1,0,0:0:0:0:
320,192,9298,1,0,0:0:0:0:
64,192,9298,1,0,0:0:0:0:
192,192,9377,1,0,0:0:0:0:
448,192,9456,1,0,0:0:0:0:
64,192,9535,1,0,0:0:0:0:
192,192,9613,1,0,0:0:0:0:
320,192,9613,1,0,0:0:0:0:
448,192,9692,1,0,0:0:0:0:
64,192,9771,1,0,0:0:0:0:
320,192,9850,1,0,0:0:0:0:
192,192,9929,1,0,0:0:0:0:
448,192,9929,1,0,0:0:0:0:
64,192,10008,1,0,0:0:0:0:
320,192,10087,1,0,0:0:0:0:
448,192,10166,1,0,0:0:0:0:
192,192,10245,1,0,0:0:0:0:
64,192,10245,1,0,0:0:0:0:
320,192,10324,1,0,0:0:0:0:
64,192,10403,1,0,0:0:0:0:
192,192,10482,1,0,0:0:0:0:
320,192,10561,1,0,0:0:0:0:
448,192,10561,1,0,0:0:0:0:
192,192,10640,1,0,0:0:0:0:
64,192,10719,1,0,0:0:0:0:
448,192,10798,1,0,0:0:0:0:
192,192,10877,1,0,0:0:0:0:
64,192,10877,1,0,0:0:0:0:
320,192,10956,1,0,0:0:0:0:
448,192,11035,1,0,0:0:0:0:
192,192,11113,1,0,0:0:0:0:
64,192,11192,1,0,0:0:0:0:
320,192,11192,1,0,0:0:0:0:
448,192,11271,1,0,0:0:0:0:
192,192,11350,1,0,0:0:0:0:
320,192,11429,1,0,0:0:0:0:
64,192,11508,1,0,0:0:0:0:
448,192,11508,1,0,0:0:0:0:
192,192,11587,1,0,0:0:0:0:
320,192,11666,1,0,0:0:0:0:
448,192,11666,1,0,0:0:0:0:
192,192,11745,1,0,0:0:0:0:
64,192,11745,1,0,0:0:0:0:
320,192,11824,1,0,0:0:0:0:
448,192,11824,1,0,0:0:0:0:
192,192,11903,1,0,0:0:0:0:
64,192,11903,1,0,0:0:0:0:
320,192,11982,1,0,0:0:0:0:
448,192,11982,1,0,0:0:0:0:
192,192,12061,1,0,0:0:0:0:
64,192,12140,1,0,0:0:0:0:
320,192,12140,1,0,0:0:0:0:
448,192,12140,1,0,0:0:0:0:
192,192,12219,1,0,0:0:0:0:
320,192,12298,1,0,0:0:0:0:
64,192,12377,1,0,0:0:0:0:
192,192,12456,1,0,0:0:0:0:
448,192,12456,1,0,0:0:0:0:
320,192,12535,1,0,0:0:0:0:
64,192,12613,1,0,0:0:0:0:
192,192,12692,1,0,0:0:0:0:
64,192,12771,1,0,0:0:0:0:
320,192,12771,1,0,0:0:0:0:
448,192,12850,1,0,0:0:0:0:
192,192,12929,1,0,0:0:0:0:
320,192,13008,1,0,0:0:0:0:
448,192,13087,1,0,0:0:0:0:
64,192,13087,1,0,0:0:0:0:
192,192,13166,1,0,0:0:0:0:
320,192,13245,1,0,0:0:0:0:
448,192,13324,1,0,0:0:0:0:
320,192,13403,1,0,0:0:0:0:
192,192,13403,1,0,0:0:0:0:
64,192,13482,1,0,0:0:0:0:
448,192,13561,1,0,0:0:0:0:
192,192,13640,1,0,0:0:0:0:
320,192,13719,1,0,0:0:0:0:
64,192,13719,1,0,0:0:0:0:
448,192,13798,1,0,0:0:0:0:
192,192,13877,1,0,0:0:0:0:
64,192,13956,1,0,0:0:0:0:
192,192,14035,1,0,0:0:0:0:
448,192,14035,1,0,0:0:0:0:
320,192,14113,1,0,0:0:0:0:
64,192,14192,1,0,0:0:0:0:
448,192,14271,1,0,0:0:0:0:
320,192,14350,1,0,0:0:0:0:
192,192,14350,1,0,0:0:0:0:
64,192,14429,1,0,0:0:0:0:
448,192,14508,1,0,0:0:0:0:
320,192,14587,1,0,0:0:0:0:
448,192,14666,1,0,0:0:0:0:
64,192,14666,1,0,0:0:0:0:
192,192,14745,1,0,0:0:0:0:
320,192,14824,1,0,0:0:0:0:
64,192,14903,1,0,0:0:0:0:
320,192,14982,1,0,0:0:0:0:
448,192,14982,1,0,0:0:0:0:
192,192,15061,1,0,0:0:0:0:
64,192,15140,1,0,0:0:0:0:
320,192,15219,1,0,0:0:0:0:
192,192,15298,1,0,0:0:0:0:
448,192,15298,1,0,0:0:0:0:
320,192,15377,1,0,0:0:0:0:
64,192,15456,1,0,0:0:0:0:
448,192,15535,1,0,0:0:0:0:
320,192,15613,1,0,0:0:0:0:
192,192,15613,1,0,0:0:0:0:
64,192,15692,1,0,0:0:0:0:
448,192,15771,1,0,0:0:0:0:
192,192,15850,1,0,0:0:0:0:
64,192,15929,1,0,0:0:0:0:
320,192,15929,1,0,0:0:0:0:
192,192,16008,1,0,0:0:0:0:
448,192,16087,1,0,0:0:0:0:
64,192,16166,1,0,0:0:0:0:
320,192,16245,1,0,0:0:0:0:
448,192,16245,1,0,0:0:0:0:
192,192,16324,1,0,0:0:0:0:
64,192,16403,1,0,0:0:0:0:
448,192,16482,1,0,0:0:0:0:
320,192,16561,1,0,0:0:0:0:
64,192,16561,1,0,0:0:0:0:
448,192,16640,1,0,0:0:0:0:
192,192,16719,1,0,0:0:0:0:
320,192,16798,1,0,0:0:0:0:
64,192,16877,1,0,0:0:0:0:
448,192,16877,1,0,0:0:0:0:
192,192,16956,1,0,0:0:0:0:
320,192,17035,1,0,0:0:0:0:
64,192,17113,1,0,0:0:0:0:
192,192,17192,1,0,0:0:0:0:
448,192,17192,1,0,0:0:0:0:
64,192,17271,1,0,0:0:0:0:
320,192,17350,1,0,0:0:0:0:
448,192,17429,1,0,0:0:0:0:
192,192,17508,1,0,0:0:0:0:
64,192,17508,1,0,0:0:0:0:
320,192,17587,1,0,0:0:0:0:
448,192,17666,1,0,0:0:0:0:
192,192,17745,1,0,0:0:0:0:
64,192,17824,1,0,0:0:0:0:
448,192,17824,1,0,0:0:0:0:
192,192,17903,1,0,0:0:0:0:
320,192,17982,1,0,0:0:0:0:
448,192,18061,1,0,0:0:0:0:
192,192,18140,1,0,0:0:0:0:
64,192,18140,1,0,0:0:0:0:
320,192,18219,1,0,0:0:0:0:
192,192,18298,1,0,0:0:0:0:
320,192,18377,1,0,0:0:0:0:
64,192,18456,1,0,0:0:0:0:
448,192,18456,1,0,0:0:0:0:
320,192,18535,1,0,0:0:0:0:
192,192,18613,1,0,0:0:0:0:
448,192,18692,1,0,0:0:0:0:
320,192,18771,1,0,0:0:0:0:
64,192,18771,1,0,0:0:0:0:
192,192,18850,1,0,0:0:0:0:
448,192,18929,1,0,0:0:0:0:
64,192,19008,1,0,0:0:0:0:
192,192,19087,1,0,0:0:0:0:
320,192,19087,1,0,0:0:0:0:
64,192,19166,1,0,0:0:0:0:
448,192,19245,1,0,0:0:0:0:
192,192,19324,1,0,0:0:0:0:
64,192,19403,1,0,0:0:0:0:
448,192,19403,1,0,0:0:0:0:
320,192,19482,1,0,0:0:0:0:
192,192,19561,1,0,0:0:0:0:
448,192,19640,1,0,0:0:0:0:
320,192,19719,1,0,0:0:0:0:
192,192,19719,1,0,0:0:0:0:
448,192,19798,1,0,0:0:0:0:
64,192,19877,1,0,0:0:0:0:
320,192,19956,1,0,0:0:0:0:
192,192,20035,1,0,0:0:0:0:
448,192,20035,1,0,0:0:0:0:
64,192,20113,1,0,0:0:0:0:
320,192,20192,1,0,0:0:0:0:
192,192,20271,1,0,0:0:0:0:
320,192,20350,1,0,0:0:0:0:
448,192,20350,1,0,0:0:0:0:
64,192,20429,1,0,0:0:0:0:
192,192,20508,1,0,0:0:0:0:
448,192,20587,1,0,0:0:0:0:
320,192,20666,1,0,0:0:0:0:
64,192,20666,1,0,0:0:0:0:
192,192,20745,1,0,0:0:0:0:
448,192,20824,1,0,0:0:0:0:
64,192,20903,1,0,0:0:0:0:
192,192,20982,1,0,0:0:0:0:
320,192,20982,1,0,0:0:0:0:
448,192,21061,1,0,0:0:0:0:
64,192,21140,1,0,0:0:0:0:
192,192,21179,1,0,0:0:0:0:
320,192,21219,1,0,0:0:0:0:
448,192,21219,1,0,0:0:0:0:
192,192,21298,1,0,0:0:0:0:
64,192,21298,1,0,0:0:0:0:
320,192,21377,1,0,0:0:0:0:
64,192,21456,1,0,0:0:0:0:
448,192,21456,1,0,0:0:0:0:
192,192,21535,1,0,0:0:0:0:
320,192,21613,1,0,0:0:0:0:
448,192,21613,1,0,0:0:0:0:
192,192,21692,1,0,0:0:0:0:
64,192,21771,1,0,0:0:0:0:
320,192,21771,1,0,0:0:0:0:
192,192,21850,1,0,0:0:0:0:
320,192,21929,1,0,0:0:0:0:
448,192,21929,1,0,0:0:0:0:
64,192,22008,1,0,0:0:0:0:
192,192,22087,1,0,0:0:0:0:
320,192,22166,1,0,0:0:0:0:
192,192,22245,1,0,0:0:0:0:
64,192,22245,1,0,0:0:0:0:
448,192,22245,1,0,0:0:0:0:
320,192,22324,1,0,0:0:0:0:
192,192,22403,1,0,0:0:0:0:
64,192,22482,1,0,0:0:0:0:
448,192,22561,1,0,0:0:0:0:
320,192,22561,1,0,0:0:0:0:
192,192,22640,1,0,0:0:0:0:
448,192,22719,1,0,0:0:0:0:
64,192,22798,1,0,0:0:0:0:
192,192,22877,1,0,0:0:0:0:
320,192,22877,1,0,0:0:0:0:
448,192,22956,1,0,0:0:0:0:
320,192,23035,1,0,0:0:0:0:
64,192,23113,1,0,0:0:0:0:
192,192,23192,1,0,0:0:0:0:
448,192,23192,1,0,0:0:0:0:
320,192,23271,1,0,0:0:0:0:
64,192,23350,1,0,0:0:0:0:
192,192,23429,1,0,0:0:0:0:
64,192,23508,1,0,0:0:0:0:
448,192,23508,1,0,0:0:0:0:
320,192,23587,1,0,0:0:0:0:
192,192,23666,1,0,0:0:0:0:
448,192,23745,1,0,0:0:0:0:
192,192,23824,1,0,0:0:0:0:
64,192,23824,1,0,0:0:0:0:
320,192,23903,1,0,0:0:0:0:
448,192,23982,1,0,0:0:0:0:
192,192,24061,1,0,0:0:0:0:
320,192,24140,1,0,0:0:0:0:
64,192,24140,1,0,0:0:0:0:
448,192,24219,1,0,0:0:0:0:
320,192,24298,1,0,0:0:0:0:
192,192,24377,1,0,0:0:0:0:
64,192,24456,1,0,0:0:0:0:
448,192,24456,1,0,0:0:0:0:
320,192,24535,1,0,0:0:0:0:
192,192,24613,1,0,0:0:0:0:
64,192,24692,1,0,0:0:0:0:
192,192,24771,1,0,0:0:0:0:
448,192,24771,1,0,0:0:0:0:
320,192,24850,1,0,0:0:0:0:
64,192,24929,1,0,0:0:0:0:
448,192,25008,1,0,0:0:0:0:
320,192,25087,1,0,0:0:0:0:
192,192,25087,1,0,0:0:0:0:
64,192,25166,1,0,0:0:0:0:
448,192,25245,1,0,0:0:0:0:
320,192,25324,1,0,0:0:0:0:
192,192,25403,1,0,0:0:0:0:
64,192,25403,1,0,0:0:0:0:
320,192,25482,1,0,0:0:0:0:
448,192,25561,1,0,0:0:0:0:
64,192,25640,1,0,0:0:0:0:
192,192,25719,1,0,0:0:0:0:
320,192,25719,1,0,0:0:0:0:
64,192,25798,1,0,0:0:0:0:
448,192,25877,1,0,0:0:0:0:
320,192,25956,1,0,0:0:0:0:
192,192,26035,1,0,0:0:0:0:
64,192,26035,1,0,0:0:0:0:
448,192,26113,1,0,0:0:0:0:
192,192,26192,1,0,0:0:0:0:
320,192,26271,1,0,0:0:0:0:
64,192,26350,1,0,0:0:0:0:
448,192,26350,1,0,0:0:0:0:
320,192,26429,1,0,0:0:0:0:
192,192,26508,1,0,0:0:0:0:
448,192,26587,1,0,0:0:0:0:
320,192,26666,1,0,0:0:0:0:
192,192,26666,1,0,0:0:0:0:
64,192,26745,1,0,0:0:0:0:
448,192,26824,1,0,0:0:0:0:
192,192,26903,1,0,0:0:0:0:
64,192,26982,1,0,0:0:0:0:
320,192,26982,1,0,0:0:0:0:
448,192,27061,1,0,0:0:0:0:
192,192,27140,1,0,0:0:0:0:
320,192,27219,1,0,0:0:0:0:
64,192,27298,1,0,0:0:0:0:
448,192,27298,1,0,0:0:0:0:
320,192,27377,1,0,0:0:0:0:
192,192,27456,1,0,0:0:0:0:
64,192,27535,1,0,0:0:0:0:
192,192,27613,1,0,0:0:0:0:
320,192,27613,1,0,0:0:0:0:
448,192,27692,1,0,0:0:0:0:
64,192,27771,1,0,0:0:0:0:
320,192,27850,1,0,0:0:0:0:
192,192,27929,1,0,0:0:0:0:
448,192,27929,1,0,0:0:0:0:
64,192,28008,1,0,0:0:0:0:
448,192,28087,1,0,0:0:0:0:
320,192,28166,1,0,0:0:0:0:
448,192,28245,1,0,0:0:0:0:
64,192,28245,1,0,0:0:0:0:
192,192,28324,1,0,0:0:0:0:
320,192,28403,1,0,0:0:0:0:
448,192,28482,1,0,0:0:0:0:
192,192,28561,1,0,0:0:0:0:
64,192,28561,1,0,0:0:0:0:
320,192,28640,1,0,0:0:0:0:
448,192,28719,1,0,0:0:0:0:
192,192,28798,1,0,0:0:0:0:
64,192,28877,1,0,0:0:0:0:
320,192,28877,1,0,0:0:0:0:
192,192,28956,1,0,0:0:0:0:
448,192,29035,1,0,0:0:0:0:
64,192,29113,1,0,0:0:0:0:
192,192,29192,1,0,0:0:0:0:
320,192,29192,1,0,0:0:0:0:
448,192,29271,1,0,0:0:0:0:
64,192,29350,1,0,0:0:0:0:
320,192,29429,1,0,0:0:0:0:
192,192,29508,1,0,0:0:0:0:
448,192,29508,1,0,0:0:0:0:
64,192,29587,1,0,0:0:0:0:
320,192,29666,1,0,0:0:0:0:
448,192,29745,1,0,0:0:0:0:
320,192,29824,1,0,0:0:0:0:
192,192,29824,1,0,0:0:0:0:
64,192,29903,1,0,0:0:0:0:
448,192,29982,1,0,0:0:0:0:
192,192,30061,1,0,0:0:0:0:
320,192,30140,1,0,0:0:0:0:
448,192,30140,1,0,0:0:0:0:
64,192,30219,1,0,0:0:0:0:
320,192,30298,1,0,0:0:0:0:
192,192,30377,1,0,0:0:0:0:
64,192,30456,1,0,0:0:0:0:
448,192,30456,1,0,0:0:0:0:
192,192,30535,1,0,0:0:0:0:
320,192,30613,1,0,0:0:0:0:
448,192,30692,1,0,0:0:0:0:
192,192,30771,1,0,0:0:0:0:
64,192,30771,1,0,0:0:0:0:
320,192,30850,1,0,0:0:0:0:
448,192,30929,1,0,0:0:0:0:
320,192,31008,1,0,0:0:0:0:
192,192,31087,1,0,0:0:0:0:
64,192,31087,1,0,0:0:0:0:
448,192,31166,1,0,0:0:0:0:
320,192,31245,1,0,0:0:0:0:
192,192,31324,1,0,0:0:0:0:
64,192,31403,1,0,0:0:0:0:
320,192,31403,1,0,0:0:0:0:
448,192,31482,1,0,0:0:0:0:
320,192,31561,1,0,0:0:0:0:
192,192,31640,1,0,0:0:0:0:
64,192,31719,1,0,0:0:0:0:
448,192,31719,1,0,0:0:0:0:
192,192,31798,1,0,0:0:0:0:
320,192,31877,1,0,0:0:0:0:
448,192,31877,1,0,0:0:0:0:
192,192,31956,1,0,0:0:0:0:
64,192,31956,1,0,0:0:0:0:
320,192,32035,1,0,0:0:0:0:
448,192,32035,1,0,0:0:0:0:
192,192,32113,1,0,0:0:0:0:
64,192,32113,1,0,0:0:0:0:
320,192,32192,1,0,0:0:0:0:
448,192,32192,1,0,0:0:0:0:
192,192,32271,1,0,0:0:0:0:
64,192,32350,1,0,0:0:0:0:
320,192,32350,1,0,0:0:0:0:
448,192,32350,1,0,0:0:0:0:
192,192,32429,1,0,0:0:0:0:
64,192,32508,1,0,0:0:0:0:
320,192,32587,1,0,0:0:0:0:
192,192,32666,1,0,0:0:0:0:
448,192,32666,1,0,0:0:0:0:
320,192,32745,1,0,0:0:0:0:
64,192,32824,1,0,0:0:0:0:
192,192,32903,1,0,0:0:0:0:
320,192,32982,1,0,0:0:0:0:
448,192,32982,1,0,0:0:0:0:
64,192,33061,1,0,0:0:0:0:
448,192,33140,1,0,0:0:0:0:
320,192,33219,1,0,0:0:0:0:
192,192,33298,1,0,0:0:0:0:
448,192,33298,1,0,0:0:0:0:
64,192,33377,1,0,0:0:0:0:
320,192,33456,1,0,0:0:0:0:
192,192,33535,1,0,0:0:0:0:
64,192,33613,1,0,0:0:0:0:
448,192,33613,1,0,0:0:0:0:
192,192,33692,1,0,0:0:0:0:
320,192,33771,1,0,0:0:0:0:
448,192,33850,1,0,0:0:0:0:
64,192,33929,1,0,0:0:0:0:
192,192,33929,1,0,0:0:0:0:
320,192,34008,1,0,0:0:0:0:
448,192,34087,1,0,0:0:0:0:
320,192,34166,1,0,0:0:0:0:
192,192,34245,1,0,0:0:0:0:
448,192,34245,1,0,0:0:0:0:
64,192,34324,1,0,0:0:0:0:
320,192,34403,1,0,0:0:0:0:
192,192,34482,1,0,0:0:0:0:
64,192,34561,1,0,0:0:0:0:
448,192,34561,1,0,0:0:0:0:
192,192,34640,1,0,0:0:0:0:
320,192,34719,1,0,0:0:0:0:
64,192,34798,1,0,0:0:0:0:
192,192,34877,1,0,0:0:0:0:
448,192,34877,1,0,0:0:0:0:
64,192,34956,1,0,0:0:0:0:
320,192,35035,1,0,0:0:0:0:
192,192,35113,1,0,0:0:0:0:
64,192,35192,1,0,0:0:0:0:
448,192,35192,1,0,0:0:0:0:
320,192,35271,1,0,0:0:0:0:
448,192,35350,1,0,0:0:0:0:
192,192,35429,1,0,0:0:0:0:
320,192,35508,1,0,0:0:0:0:
64,192,35508,1,0,0:0:0:0:
448,192,35587,1,0,0:0:0:0:
192,192,35666,1,0,0:0:0:0:
320,192,35745,1,0,0:0:0:0:
64,192,35824,1,0,0:0:0:0:
448,192,35824,1,0,0:0:0:0:
192,192,35903,1,0,0:0:0:0:
320,192,35982,1,0,0:0:0:0:
64,192,36061,1,0,0:0:0:0:
192,192,36140,1,0,0:0:0:0:
448,192,36140,1,0,0:0:0:0:
64,192,36219,1,0,0:0:0:0:
320,192,36298,1,0,0:0:0:0:
192,192,36377,1,0,0:0:0:0:
64,192,36456,1,0,0:0:0:0:
448,192,36456,1,0,0:0:0:0:
320,192,36535,1,0,0:0:0:0:
448,192,36613,1,0,0:0:0:0:
192,192,36692,1,0,0:0:0:0:
64,192,36771,1,0,0:0:0:0:
320,192,36771,1,0,0:0:0:0:
448,192,36850,1,0,0:0:0:0:
192,192,36929,1,0,0:0:0:0:
64,192,37008,1,0,0:0:0:0:
192,192,37087,1,0,0:0:0:0:
320,192,37087,1,0,0:0:0:0:
448,192,37166,1,0,0:0:0:0:
64,192,37245,1,0,0:0:0:0:
192,192,37324,1,0,0:0:0:0:
320,192,37403,1,0,0:0:0:0:
448,192,37403,1,0,0:0:0:0:
192,192,37482,1,0,0:0:0:0:
64,192,37561,1,0,0:0:0:0:
448,192,37561,1,0,0:0:0:0:
192,192,37640,1,0,0:0:0:0:
320,192,37719,1,0,0:0:0:0:
448,192,37719,1,0,0:0:0:0:
192,192,37798,1,0,0:0:0:0:
64,192,37877,1,0,0:0:0:0:
320,192,37877,1,0,0:0:0:0:
192,192,37956,1,0,0:0:0:0:
320,192,38035,1,0,0:0:0:0:
448,192,38035,1,0,0:0:0:0:
64,192,38113,1,0,0:0:0:0:
192,192,38192,1,0,0:0:0:0:
448,192,38192,1,0,0:0:0:0:
320,192,38271,1,0,0:0:0:0:
448,192,38350,1,0,0:0:0:0:
64,192,38350,1,0,0:0:0:0:
192,192,38429,1,0,0:0:0:0:
64,192,38508,1,0,0:0:0:0:
320,192,38508,1,0,0:0:0:0:
448,192,38587,1,0,0:0:0:0:
64,192,38666,1,0,0:0:0:0:
192,192,38666,1,0,0:0:0:0:
320,192,38745,1,0,0:0:0:0:
448,192,38824,1,0,0:0:0:0:
192,192,38824,1,0,0:0:0:0:
320,192,38903,1,0,0:0:0:0:
192,192,38982,1,0,0:0:0:0:
64,192,38982,1,0,0:0:0:0:
320,192,39061,1,0,0:0:0:0:
448,192,39140,1,0,0:0:0:0:
64,192,39140,1,0,0:0:0:0:
320,192,39219,1,0,0:0:0:0:
192,192,39298,1,0,0:0:0:0:
64,192,39298,1,0,0:0:0:0:
448,192,39377,1,0,0:0:0:0:
320,192,39456,1,0,0:0:0:0:
64,192,39456,1,0,0:0:0:0:
192,192,39535,1,0,0:0:0:0:
64,192,39613,1,0,0:0:0:0:
448,192,39613,1,0,0:0:0:0:
320,192,39692,1,0,0:0:0:0:
192,192,39771,1,0,0:0:0:0:
448,192,39771,1,0,0:0:0:0:
64,192,39850,1,0,0:0:0:0:
320,192,39929,1,0,0:0:0:0:
448,192,39929,1,0,0:0:0:0:
192,192,40008,1,0,0:0:0:0:
64,192,40008,1,0,0:0:0:0:
448,192,40087,1,0,0:0:0:0:
320,192,40087,1,0,0:0:0:0:
192,192,40166,1,0,0:0:0:0:
64,192,40166,1,0,0:0:0:0:
320,192,40245,1,0,0:0:0:0:
448,192,40245,1,0,0:0:0:0:
64,192,40324,1,0,0:0:0:0:
192,192,40324,1,0,0:0:0:0:
448,192,40403,1,0,0:0:0:0:
320,192,40403,1,0,0:0:0:0:
192,192,40482,1,0,0:0:0:0:
64,192,40482,1,0,0:0:0:0:
320,192,40561,1,0,0:0:0:0:
448,192,40561,1,0,0:0:0:0:
64,192,40640,1,0,0:0:0:0:
192,192,40640,1,0,0:0:0:0:
448,192,40719,1,0,0:0:0:0:
320,192,40719,1,0,0:0:0:0:
192,192,40798,1,0,0:0:0:0:
64,192,40798,1,0,0:0:0:0:
320,192,40877,1,0,0:0:0:0:
448,192,40877,1,0,0:0:0:0:
64,192,40956,1,0,0:0:0:0:
192,192,40956,1,0,0:0:0:0:
448,192,41035,1,0,0:0:0:0:
320,192,41035,1,0,0:0:0:0:
192,192,41113,1,0,0:0:0:0:
64,192,41113,1,0,0:0:0:0:
320,192,41192,1,0,0:0:0:0:
448,192,41192,1,0,0:0:0:0:
192,192,41271,1,0,0:0:0:0:
64,192,41271,1,0,0:0:0:0:
320,192,41350,1,0,0:0:0:0:
448,192,41350,1,0,0:0:0:0:
192,192,41429,1,0,0:0:0:0:
64,192,41429,1,0,0:0:0:0:
320,192,41508,1,0,0:0:0:0:
448,192,41508,1,0,0:0:0:0:
64,192,41587,1,0,0:0:0:0:
320,192,41666,1,0,0:0:0:0:
448,192,41666,1,0,0:0:0:0:
64,192,41745,1,0,0:0:0:0:
192,192,41745,1,0,0:0:0:0:
320,192,41824,1,0,0:0:0:0:
448,192,41824,1,0,0:0:0:0:
192,192,41903,1,0,0:0:0:0:
64,192,41903,1,0,0:0:0:0:
320,192,41982,1,0,0:0:0:0:
448,192,41982,1,0,0:0:0:0:
192,192,42061,1,0,0:0:0:0:
448,192,42140,128,0,42219:0:0:0:0:
64,192,42140,128,0,42219:0:0:0:0:
192,192,42298,1,0,0:0:0:0:
320,192,42377,1,0,0:0:0:0:
448,192,42456,1,0,0:0:0:0:
192,192,42456,1,0,0:0:0:0:
64,192,42456,1,0,0:0:0:0:
320,192,42535,1,0,0:0:0:0:
192,192,42613,1,0,0:0:0:0:
64,192,42613,1,0,0:0:0:0:
448,192,42692,1,0,0:0:0:0:
320,192,42771,1,0,0:0:0:0:
64,192,42771,1,0,0:0:0:0:
192,192,42850,1,0,0:0:0:0:
320,192,42929,1,0,0:0:0:0:
448,192,42929,1,0,0:0:0:0:
64,192,43008,1,0,0:0:0:0:
192,192,43087,1,0,0:0:0:0:
320,192,43087,1,0,0:0:0:0:
448,192,43166,1,0,0:0:0:0:
320,192,43245,1,0,0:0:0:0:
64,192,43245,1,0,0:0:0:0:
192,192,43324,1,0,0:0:0:0:
448,192,43403,1,0,0:0:0:0:
320,192,43403,1,0,0:0:0:0:
64,192,43482,1,0,0:0:0:0:
192,192,43561,1,0,0:0:0:0:
448,192,43561,1,0,0:0:0:0:
320,192,43640,1,0,0:0:0:0:
192,192,43719,1,0,0:0:0:0:
64,192,43719,1,0,0:0:0:0:
448,192,43798,1,0,0:0:0:0:
320,192,43877,1,0,0:0:0:0:
192,192,43877,1,0,0:0:0:0:
64,192,43956,1,0,0:0:0:0:
320,192,44035,1,0,0:0:0:0:
448,192,44035,1,0,0:0:0:0:
192,192,44113,1,0,0:0:0:0:
64,192,44192,1,0,0:0:0:0:
320,192,44192,1,0,0:0:0:0:
448,192,44271,1,0,0:0:0:0:
192,192,44350,1,0,0:0:0:0:
64,192,44350,1,0,0:0:0:0:
320,192,44429,1,0,0:0:0:0:
192,192,44508,1,0,0:0:0:0:
448,192,44508,1,0,0:0:0:0:
320,192,44587,1,0,0:0:0:0:
192,192,44666,1,0,0:0:0:0:
64,192,44666,1,0,0:0:0:0:
448,192,44745,1,0,0:0:0:0:
320,192,44824,1,0,0:0:0:0:
192,192,44824,1,0,0:0:0:0:
64,192,44903,1,0,0:0:0:0:
320,192,44982,1,0,0:0:0:0:
448,192,44982,1,0,0:0:0:0:
64,192,45061,1,0,0:0:0:0:
192,192,45140,1,0,0:0:0:0:
448,192,45140,1,0,0:0:0:0:
320,192,45219,1,0,0:0:0:0:
192,192,45298,1,0,0:0:0:0:
64,192,45298,1,0,0:0:0:0:
448,192,45377,1,0,0:0:0:0:
320,192,45456,1,0,0:0:0:0:
64,192,45456,1,0,0:0:0:0:
192,192,45535,1,0,0:0:0:0:
448,192,45613,1,0,0:0:0:0:
320,192,45613,1,0,0:0:0:0:
64,192,45692,1,0,0:0:0:0:
192,192,45771,1,0,0:0:0:0:
448,192,45771,1,0,0:0:0:0:
64,192,45850,1,0,0:0:0:0:
320,192,45929,1,0,0:0:0:0:
448,192,45929,1,0,0:0:0:0:
192,192,46008,1,0,0:0:0:0:
64,192,46087,1,0,0:0:0:0:
320,192,46087,1,0,0:0:0:0:
448,192,46166,1,0,0:0:0:0:
192,192,46245,1,0,0:0:0:0:
320,192,46245,1,0,0:0:0:0:
64,192,46324,1,0,0:0:0:0:
320,192,46403,1,0,0:0:0:0:
448,192,46403,1,0,0:0:0:0:
192,192,46482,1,0,0:0:0:0:
64,192,46561,1,0,0:0:0:0:
448,192,46561,1,0,0:0:0:0:
320,192,46640,1,0,0:0:0:0:
192,192,46719,1,0,0:0:0:0:
64,192,46719,1,0,0:0:0:0:
448,192,46798,1,0,0:0:0:0:
320,192,46877,1,0,0:0:0:0:
64,192,46877,1,0,0:0:0:0:
192,192,46956,1,0,0:0:0:0:
64,192,47035,1,0,0:0:0:0:
448,192,47035,1,0,0:0:0:0:
320,192,47113,1,0,0:0:0:0:
192,192,47192,1,0,0:0:0:0:
64,192,47192,1,0,0:0:0:0:
448,192,47271,1,0,0:0:0:0:
192,192,47350,1,0,0:0:0:0:
320,192,47350,1,0,0:0:0:0:
448,192,47429,1,0,0:0:0:0:
64,192,47508,1,0,0:0:0:0:
192,192,47508,1,0,0:0:0:0:
448,192,47587,1,0,0:0:0:0:
64,192,47666,1,0,0:0:0:0:
320,192,47666,1,0,0:0:0:0:
192,192,47745,1,0,0:0:0:0:
320,192,47824,1,0,0:0:0:0:
448,192,47824,1,0,0:0:0:0:
192,192,47903,1,0,0:0:0:0:
64,192,47982,1,0,0:0:0:0:
448,192,47982,1,0,0:0:0:0:
320,192,48061,1,0,0:0:0:0:
192,192,48140,1,0,0:0:0:0:
64,192,48140,1,0,0:0:0:0:
448,192,48219,1,0,0:0:0:0:
320,192,48298,1,0,0:0:0:0:
192,192,48298,1,0,0:0:0:0:
64,192,48377,1,0,0:0:0:0:
192,192,48456,1,0,0:0:0:0:
448,192,48456,1,0,0:0:0:0:
320,192,48535,1,0,0:0:0:0:
192,192,48613,1,0,0:0:0:0:
64,192,48613,1,0,0:0:0:0:
448,192,48692,1,0,0:0:0:0:
320,192,48771,1,0,0:0:0:0:
192,192,48771,1,0,0:0:0:0:
64,192,48850,1,0,0:0:0:0:
320,192,48929,1,0,0:0:0:0:
448,192,48929,1,0,0:0:0:0:
192,192,49008,1,0,0:0:0:0:
64,192,49087,1,0,0:0:0:0:
320,192,49087,1,0,0:0:0:0:
448,192,49166,1,0,0:0:0:0:
192,192,49245,1,0,0:0:0:0:
64,192,49245,1,0,0:0:0:0:
320,192,49324,1,0,0:0:0:0:
448,192,49403,1,0,0:0:0:0:
64,192,49403,1,0,0:0:0:0:
192,192,49482,1,0,0:0:0:0:
320,192,49561,1,0,0:0:0:0:
448,192,49561,1,0,0:0:0:0:
192,192,49640,1,0,0:0:0:0:
64,192,49719,1,0,0:0:0:0:
448,192,49719,1,0,0:0:0:0:
192,192,49798,1,0,0:0:0:0:
320,192,49877,1,0,0:0:0:0:
448,192,49877,1,0,0:0:0:0:
64,192,49956,1,0,0:0:0:0:
192,192,50035,1,0,0:0:0:0:
320,192,50035,1,0,0:0:0:0:
448,192,50113,1,0,0:0:0:0:
192,192,50192,1,0,0:0:0:0:
64,192,50192,1,0,0:0:0:0:
320,192,50271,1,0,0:0:0:0:
64,192,50350,1,0,0:0:0:0:
448,192,50350,1,0,0:0:0:0:
192,192,50429,1,0,0:0:0:0:
320,192,50508,1,0,0:0:0:0:
448,192,50508,1,0,0:0:0:0:
192,192,50587,1,0,0:0:0:0:
64,192,50666,1,0,0:0:0:0:
320,192,50666,1,0,0:0:0:0:
448,192,50745,1,0,0:0:0:0:
192,192,50824,1,0,0:0:0:0:
320,192,50824,1,0,0:0:0:0:
64,192,50903,1,0,0:0:0:0:
320,192,50982,1,0,0:0:0:0:
448,192,50982,1,0,0:0:0:0:
64,192,51061,1,0,0:0:0:0:
192,192,51140,1,0,0:0:0:0:
448,192,51140,1,0,0:0:0:0:
320,192,51219,1,0,0:0:0:0:
192,192,51298,1,0,0:0:0:0:
64,192,51298,1,0,0:0:0:0:
448,192,51377,1,0,0:0:0:0:
64,192,51456,1,0,0:0:0:0:
448,192,51535,1,0,0:0:0:0:
64,192,51613,1,0,0:0:0:0:
320,192,51613,1,0,0:0:0:0:
448,192,51692,1,0,0:0:0:0:
64,192,51771,1,0,0:0:0:0:
448,192,51850,1,0,0:0:0:0:
320,192,51890,1,0,0:0:0:0:
64,192,51929,1,0,0:0:0:0:
192,192,51929,1,0,0:0:0:0:
448,192,52008,1,0,0:0:0:0:
320,192,52087,1,0,0:0:0:0:
64,192,52166,1,0,0:0:0:0:
192,192,52245,1,0,0:0:0:0:
448,192,52245,1,0,0:0:0:0:
320,192,52324,1,0,0:0:0:0:
192,192,52403,1,0,0:0:0:0:
320,192,52482,1,0,0:0:0:0:
448,192,52561,1,0,0:0:0:0:
64,192,52561,1,0,0:0:0:0:
192,192,52561,1,0,0:0:0:0:
320,192,52640,1,0,0:0:0:0:
192,192,52719,1,0,0:0:0:0:
64,192,52719,1,0,0:0:0:0:
448,192,52798,1,0,0:0:0:0:
64,192,52877,1,0,0:0:0:0:
320,192,52877,1,0,0:0:0:0:
192,192,52956,1,0,0:0:0:0:
320,192,53035,1,0,0:0:0:0:
448,192,53035,1,0,0:0:0:0:
192,192,53113,1,0,0:0:0:0:
320,192,53192,1,0,0:0:0:0:
64,192,53192,1,0,0:0:0:0:
448,192,53271,1,0,0:0:0:0:
192,192,53350,1,0,0:0:0:0:
64,192,53350,1,0,0:0:0:0:
320,192,53429,1,0,0:0:0:0:
64,192,53508,1,0,0:0:0:0:
448,192,53508,1,0,0:0:0:0:
320,192,53587,1,0,0:0:0:0:
192,192,53666,1,0,0:0:0:0:
64,192,53666,1,0,0:0:0:0:
448,192,53745,1,0,0:0:0:0:
320,192,53824,1,0,0:0:0:0:
192,192,53824,1,0,0:0:0:0:
64,192,53903,1,0,0:0:0:0:
320,192,53982,1,0,0:0:0:0:
448,192,53982,1,0,0:0:0:0:
192,192,54061,1,0,0:0:0:0:
64,192,54140,1,0,0:0:0:0:
320,192,54140,1,0,0:0:0:0:
448,192,54219,1,0,0:0:0:0:
192,192,54298,1,0,0:0:0:0:
64,192,54298,1,0,0:0:0:0:
320,192,54377,1,0,0:0:0:0:
192,192,54456,1,0,0:0:0:0:
448,192,54456,1,0,0:0:0:0:
64,192,54535,1,0,0:0:0:0:
320,192,54613,1,0,0:0:0:0:
192,192,54613,1,0,0:0:0:0:
448,192,54692,1,0,0:0:0:0:
192,192,54771,1,0,0:0:0:0:
64,192,54771,1,0,0:0:0:0:
320,192,54850,1,0,0:0:0:0:
64,192,54929,1,0,0:0:0:0:
448,192,54929,1,0,0:0:0:0:
192,192,55008,1,0,0:0:0:0:
320,192,55087,1,0,0:0:0:0:
448,192,55087,1,0,0:0:0:0:
64,192,55166,1,0,0:0:0:0:
192,192,55245,1,0,0:0:0:0:
448,192,55245,1,0,0:0:0:0:
320,192,55324,1,0,0:0:0:0:
192,192,55403,1,0,0:0:0:0:
64,192,55403,1,0,0:0:0:0:
448,192,55482,1,0,0:0:0:0:
320,192,55561,1,0,0:0:0:0:
192,192,55561,1,0,0:0:0:0:
64,192,55640,1,0,0:0:0:0:
320,192,55719,1,0,0:0:0:0:
448,192,55719,1,0,0:0:0:0:
64,192,55798,1,0,0:0:0:0:
192,192,55877,1,0,0:0:0:0:
448,192,55877,1,0,0:0:0:0:
320,192,55956,1,0,0:0:0:0:
448,192,56035,1,0,0:0:0:0:
64,192,56035,1,0,0:0:0:0:
192,192,56113,1,0,0:0:0:0:
320,192,56192,1,0,0:0:0:0:
448,192,56192,1,0,0:0:0:0:
192,192,56271,1,0,0:0:0:0:
64,192,56350,1,0,0:0:0:0:
448,192,56350,1,0,0:0:0:0:
320,192,56429,1,0,0:0:0:0:
192,192,56508,1,0,0:0:0:0:
64,192,56508,1,0,0:0:0:0:
320,192,56587,1,0,0:0:0:0:
448,192,56666,1,0,0:0:0:0:
192,192,56666,1,0,0:0:0:0:
64,192,56745,1,0,0:0:0:0:
320,192,56824,1,0,0:0:0:0:
448,192,56824,1,0,0:0:0:0:
192,192,56903,1,0,0:0:0:0:
64,192,56982,1,0,0:0:0:0:
320,192,56982,1,0,0:0:0:0:
448,192,57061,1,0,0:0:0:0:
320,192,57140,1,0,0:0:0:0:
192,192,57140,1,0,0:0:0:0:
64,192,57219,1,0,0:0:0:0:
320,192,57298,1,0,0:0:0:0:
448,192,57298,1,0,0:0:0:0:
192,192,57377,1,0,0:0:0:0:
64,192,57456,1,0,0:0:0:0:
448,192,57456,1,0,0:0:0:0:
320,192,57535,1,0,0:0:0:0:
192,192,57613,1,0,0:0:0:0:
64,192,57613,1,0,0:0:0:0:
448,192,57692,1,0,0:0:0:0:
320,192,57771,1,0,0:0:0:0:
64,192,57771,1,0,0:0:0:0:
192,192,57850,1,0,0:0:0:0:
320,192,57929,1,0,0:0:0:0:
448,192,57929,1,0,0:0:0:0:
64,192,58008,1,0,0:0:0:0:
192,192,58087,1,0,0:0:0:0:
320,192,58087,1,0,0:0:0:0:
448,192,58166,1,0,0:0:0:0:
64,192,58245,1,0,0:0:0:0:
192,192,58245,1,0,0:0:0:0:
320,192,58324,1,0,0:0:0:0:
64,192,58403,1,0,0:0:0:0:
448,192,58403,1,0,0:0:0:0:
192,192,58482,1,0,0:0:0:0:
64,192,58561,1,0,0:0:0:0:
320,192,58561,1,0,0:0:0:0:
448,192,58640,1,0,0:0:0:0:
192,192,58719,1,0,0:0:0:0:
64,192,58719,1,0,0:0:0:0:
320,192,58798,1,0,0:0:0:0:
192,192,58877,1,0,0:0:0:0:
448,192,58877,1,0,0:0:0:0:
64,192,58956,1,0,0:0:0:0:
320,192,59035,1,0,0:0:0:0:
448,192,59035,1,0,0:0:0:0:
192,192,59113,1,0,0:0:0:0:
64,192,59192,1,0,0:0:0:0:
448,192,59192,1,0,0:0:0:0:
320,192,59271,1,0,0:0:0:0:
192,192,59350,1,0,0:0:0:0:
64,192,59350,1,0,0:0:0:0:
320,192,59429,1,0,0:0:0:0:
448,192,59508,1,0,0:0:0:0:
64,192,59508,1,0,0:0:0:0:
192,192,59587,1,0,0:0:0:0:
320,192,59666,1,0,0:0:0:0:
448,192,59666,1,0,0:0:0:0:
192,192,59745,1,0,0:0:0:0:
64,192,59824,1,0,0:0:0:0:
320,192,59824,1,0,0:0:0:0:
192,192,59903,1,0,0:0:0:0:
320,192,59982,1,0,0:0:0:0:
448,192,59982,1,0,0:0:0:0:
64,192,60061,1,0,0:0:0:0:
192,192,60140,1,0,0:0:0:0:
320,192,60140,1,0,0:0:0:0:
448,192,60219,1,0,0:0:0:0:
64,192,60298,1,0,0:0:0:0:
192,192,60298,1,0,0:0:0:0:
320,192,60377,1,0,0:0:0:0:
64,192,60456,1,0,0:0:0:0:
448,192,60456,1,0,0:0:0:0:
192,192,60535,1,0,0:0:0:0:
320,192,60613,1,0,0:0:0:0:
448,192,60613,1,0,0:0:0:0:
192,192,60692,1,0,0:0:0:0:
64,192,60771,1,0,0:0:0:0:
320,192,60771,1,0,0:0:0:0:
448,192,60850,1,0,0:0:0:0:
320,192,60929,1,0,0:0:0:0:
192,192,60929,1,0,0:0:0:0:
64,192,61008,1,0,0:0:0:0:
320,192,61087,1,0,0:0:0:0:
448,192,61087,1,0,0:0:0:0:
192,192,61166,1,0,0:0:0:0:
64,192,61245,1,0,0:0:0:0:
320,192,61245,1,0,0:0:0:0:
448,192,61324,1,0,0:0:0:0:
192,192,61403,1,0,0:0:0:0:
64,192,61403,1,0,0:0:0:0:
320,192,61482,1,0,0:0:0:0:
448,192,61561,128,0,61719:0:0:0:0:
192,192,61719,1,0,0:0:0:0:
320,192,61798,1,0,0:0:0:0:
448,192,61877,128,0,62035:0:0:0:0:
192,192,62035,1,0,0:0:0:0:
320,192,62113,1,0,0:0:0:0:
448,192,62192,128,0,62350:0:0:0:0:
192,192,62350,1,0,0:0:0:0:
320,192,62429,1,0,0:0:0:0:
448,192,62508,128,0,62666:0:0:0:0:
64,192,62666,1,0,0:0:0:0:
192,192,62666,1,0,0:0:0:0:
320,192,62666,1,0,0:0:0:0:
448,192,62745,1,0,0:0:0:0:
192,192,62824,1,0,0:0:0:0:
64,192,62824,1,0,0:0:0:0:
320,192,62903,1,0,0:0:0:0:
192,192,62982,1,0,0:0:0:0:
448,192,62982,1,0,0:0:0:0:
64,192,63061,1,0,0:0:0:0:
320,192,63140,1,0,0:0:0:0:
448,192,63140,1,0,0:0:0:0:
192,192,63219,1,0,0:0:0:0:
64,192,63298,1,0,0:0:0:0:
448,192,63298,1,0,0:0:0:0:
320,192,63377,1,0,0:0:0:0:
192,192,63456,1,0,0:0:0:0:
64,192,63456,1,0,0:0:0:0:
320,192,63535,1,0,0:0:0:0:
192,192,63613,1,0,0:0:0:0:
448,192,63613,1,0,0:0:0:0:
64,192,63692,1,0,0:0:0:0:
192,192,63771,1,0,0:0:0:0:
320,192,63771,1,0,0:0:0:0:
448,192,63850,1,0,0:0:0:0:
64,192,63929,1,0,0:0:0:0:
192,192,63929,1,0,0:0:0:0:
320,192,64008,1,0,0:0:0:0:
64,192,64087,1,0,0:0:0:0:
448,192,64087,1,0,0:0:0:0:
192,192,64166,1,0,0:0:0:0:
320,192,64245,1,0,0:0:0:0:
448,192,64245,1,0,0:0:0:0:
192,192,64324,1,0,0:0:0:0:
64,192,64403,1,0,0:0:0:0:
320,192,64403,1,0,0:0:0:0:
448,192,64482,1,0,0:0:0:0:
192,192,64561,1,0,0:0:0:0:
64,192,64561,1,0,0:0:0:0:
320,192,64640,1,0,0:0:0:0:
192,192,64719,1,0,0:0:0:0:
448,192,64719,1,0,0:0:0:0:
320,192,64798,1,0,0:0:0:0:
192,192,64877,1,0,0:0:0:0:
64,192,64877,1,0,0:0:0:0:
448,192,64956,1,0,0:0:0:0:
320,192,65035,1,0,0:0:0:0:
64,192,65035,1,0,0:0:0:0:
192,192,65113,1,0,0:0:0:0:
320,192,65192,1,0,0:0:0:0:
448,192,65192,1,0,0:0:0:0:
64,192,65271,1,0,0:0:0:0:
192,192,65350,1,0,0:0:0:0:
448,192,65350,1,0,0:0:0:0:
320,192,65429,1,0,0:0:0:0:
192,192,65508,1,0,0:0:0:0:
64,192,65508,1,0,0:0:0:0:
448,192,65587,1,0,0:0:0:0:
320,192,65666,1,0,0:0:0:0:
192,192,65666,1,0,0:0:0:0:
64,192,65745,1,0,0:0:0:0:
320,192,65824,1,0,0:0:0:0:
448,192,65824,1,0,0:0:0:0:
192,192,65903,1,0,0:0:0:0:
64,192,65982,1,0,0:0:0:0:
448,192,65982,1,0,0:0:0:0:
192,192,66061,1,0,0:0:0:0:
320,192,66140,1,0,0:0:0:0:
448,192,66140,1,0,0:0:0:0:
64,192,66219,1,0,0:0:0:0:
192,192,66298,1,0,0:0:0:0:
320,192,66298,1,0,0:0:0:0:
448,192,66377,1,0,0:0:0:0:
192,192,66456,1,0,0:0:0:0:
64,192,66456,1,0,0:0:0:0:
320,192,66535,1,0,0:0:0:0:
64,192,66613,1,0,0:0:0:0:
448,192,66613,1,0,0:0:0:0:
192,192,66692,1,0,0:0:0:0:
320,192,66771,1,0,0:0:0:0:
448,192,66771,1,0,0:0:0:0:
192,192,66850,1,0,0:0:0:0:
64,192,66929,1,0,0:0:0:0:
448,192,66929,1,0,0:0:0:0:
320,192,67008,1,0,0:0:0:0:
192,192,67087,1,0,0:0:0:0:
64,192,67087,1,0,0:0:0:0:
448,192,67166,1,0,0:0:0:0:
320,192,67245,1,0,0:0:0:0:
192,192,67245,1,0,0:0:0:0:
448,192,67324,1,0,0:0:0:0:
64,192,67403,1,0,0:0:0:0:
192,192,67403,1,0,0:0:0:0:
320,192,67482,1,0,0:0:0:0:
64,192,67561,1,0,0:0:0:0:
448,192,67561,1,0,0:0:0:0:
192,192,67640,1,0,0:0:0:0:
320,192,67719,1,0,0:0:0:0:
448,192,67719,1,0,0:0:0:0:
64,192,67798,1,0,0:0:0:0:
192,192,67877,1,0,0:0:0:0:
320,192,67877,1,0,0:0:0:0:
448,192,67956,1,0,0:0:0:0:
64,192,68035,1,0,0:0:0:0:
192,192,68035,1,0,0:0:0:0:
320,192,68113,1,0,0:0:0:0:
64,192,68192,1,0,0:0:0:0:
448,192,68192,1,0,0:0:0:0:
192,192,68271,1,0,0:0:0:0:
320,192,68350,1,0,0:0:0:0:
448,192,68350,1,0,0:0:0:0:
64,192,68429,1,0,0:0:0:0:
192,192,68508,1,0,0:0:0:0:
320,192,68508,1,0,0:0:0:0:
64,192,68587,1,0,0:0:0:0:
448,192,68666,1,0,0:0:0:0:
320,192,68666,1,0,0:0:0:0:
192,192,68745,1,0,0:0:0:0:
64,192,68824,1,0,0:0:0:0:
320,192,68824,1,0,0:0:0:0:
448,192,68903,1,0,0:0:0:0:
192,192,68982,1,0,0:0:0:0:
64,192,68982,1,0,0:0:0:0:
320,192,69061,1,0,0:0:0:0:
192,192,69140,1,0,0:0:0:0:
448,192,69140,1,0,0:0:0:0:
64,192,69219,1,0,0:0:0:0:
320,192,69298,1,0,0:0:0:0:
448,192,69298,1,0,0:0:0:0:
64,192,69377,1,0,0:0:0:0:
192,192,69456,1,0,0:0:0:0:
320,192,69456,1,0,0:0:0:0:
448,192,69535,1,0,0:0:0:0:
192,192,69613,1,0,0:0:0:0:
64,192,69613,1,0,0:0:0:0:
320,192,69692,1,0,0:0:0:0:
448,192,69771,1,0,0:0:0:0:
64,192,69771,1,0,0:0:0:0:
320,192,69850,1,0,0:0:0:0:
192,192,69929,1,0,0:0:0:0:
64,192,69929,1,0,0:0:0:0:
448,192,70008,1,0,0:0:0:0:
320,192,70087,1,0,0:0:0:0:
192,192,70087,1,0,0:0:0:0:
64,192,70166,1,0,0:0:0:0:
320,192,70245,1,0,0:0:0:0:
448,192,70245,1,0,0:0:0:0:
192,192,70324,1,0,0:0:0:0:
64,192,70403,1,0,0:0:0:0:
448,192,70403,1,0,0:0:0:0:
320,192,70482,1,0,0:0:0:0:
192,192,70561,1,0,0:0:0:0:
64,192,70561,1,0,0:0:0:0:
320,192,70640,1,0,0:0:0:0:
448,192,70719,1,0,0:0:0:0:
192,192,70719,1,0,0:0:0:0:
64,192,70798,1,0,0:0:0:0:
320,192,70877,1,0,0:0:0:0:
448,192,70877,1,0,0:0:0:0:
192,192,70956,1,0,0:0:0:0:
64,192,71035,1,0,0:0:0:0:
320,192,71035,1,0,0:0:0:0:
192,192,71113,1,0,0:0:0:0:
320,192,71192,1,0,0:0:0:0:
448,192,71192,1,0,0:0:0:0:
192,192,71271,1,0,0:0:0:0:
64,192,71350,1,0,0:0:0:0:
448,192,71350,1,0,0:0:0:0:
320,192,71429,1,0,0:0:0:0:
192,192,71508,1,0,0:0:0:0:
64,192,71508,1,0,0:0:0:0:
448,192,71666,128,0,71824:0:0:0:0:
448,192,71982,128,0,72140:0:0:0:0:
448,192,72298,128,0,72456:0:0:0:0:
320,192,72456,1,0,0:0:0:0:
192,192,72456,1,0,0:0:0:0:
448,192,72613,128,0,72771:0:0:0:0:
64,192,72613,1,0,0:0:0:0:
64,192,72771,1,0,0:0:0:0:
192,192,72771,1,0,0:0:0:0:
320,192,72771,1,0,0:0:0:0:
448,192,72850,1,0,0:0:0:0:
192,192,72929,1,0,0:0:0:0:
64,192,72929,1,0,0:0:0:0:
320,192,73008,1,0,0:0:0:0:
192,192,73087,1,0,0:0:0:0:
448,192,73087,1,0,0:0:0:0:
320,192,73166,1,0,0:0:0:0:
64,192,73245,1,0,0:0:0:0:
192,192,73245,1,0,0:0:0:0:
448,192,73324,1,0,0:0:0:0:
320,192,73403,1,0,0:0:0:0:
64,192,73403,1,0,0:0:0:0:
192,192,73482,1,0,0:0:0:0:
64,192,73561,1,0,0:0:0:0:
448,192,73561,1,0,0:0:0:0:
320,192,73640,1,0,0:0:0:0:
192,192,73719,1,0,0:0:0:0:
64,192,73719,1,0,0:0:0:0:
320,192,73798,1,0,0:0:0:0:
192,192,73877,1,0,0:0:0:0:
448,192,73877,1,0,0:0:0:0:
64,192,73956,1,0,0:0:0:0:
320,192,74035,1,0,0:0:0:0:
448,192,74035,1,0,0:0:0:0:
192,192,74113,1,0,0:0:0:0:
64,192,74192,1,0,0:0:0:0:
320,192,74192,1,0,0:0:0:0:
448,192,74271,1,0,0:0:0:0:
320,192,74350,1,0,0:0:0:0:
192,192,74350,1,0,0:0:0:0:
64,192,74429,1,0,0:0:0:0:
320,192,74508,1,0,0:0:0:0:
448,192,74508,1,0,0:0:0:0:
192,192,74587,1,0,0:0:0:0:
64,192,74666,1,0,0:0:0:0:
448,192,74666,1,0,0:0:0:0:
320,192,74745,1,0,0:0:0:0:
192,192,74824,1,0,0:0:0:0:
64,192,74824,1,0,0:0:0:0:
320,192,74903,1,0,0:0:0:0:
448,192,74982,1,0,0:0:0:0:
192,192,74982,1,0,0:0:0:0:
64,192,75061,1,0,0:0:0:0:
320,192,75140,1,0,0:0:0:0:
192,192,75140,1,0,0:0:0:0:
448,192,75219,1,0,0:0:0:0:
64,192,75298,1,0,0:0:0:0:
192,192,75298,1,0,0:0:0:0:
320,192,75377,1,0,0:0:0:0:
448,192,75456,1,0,0:0:0:0:
64,192,75456,1,0,0:0:0:0:
320,192,75535,1,0,0:0:0:0:
192,192,75613,1,0,0:0:0:0:
64,192,75613,1,0,0:0:0:0:
448,192,75692,1,0,0:0:0:0:
320,192,75771,1,0,0:0:0:0:
192,192,75771,1,0,0:0:0:0:
64,192,75850,1,0,0:0:0:0:
320,192,75929,1,0,0:0:0:0:
448,192,75929,1,0,0:0:0:0:
64,192,76008,1,0,0:0:0:0:
192,192,76087,1,0,0:0:0:0:
448,192,76087,1,0,0:0:0:0:
64,192,76166,1,0,0:0:0:0:
448,192,76245,1,0,0:0:0:0:
320,192,76245,1,0,0:0:0:0:
192,192,76324,1,0,0:0:0:0:
64,192,76403,1,0,0:0:0:0:
320,192,76403,1,0,0:0:0:0:
448,192,76482,1,0,0:0:0:0:
192,192,76561,1,0,0:0:0:0:
320,192,76561,1,0,0:0:0:0:
64,192,76640,1,0,0:0:0:0:
320,192,76719,1,0,0:0:0:0:
448,192,76719,1,0,0:0:0:0:
192,192,76798,1,0,0:0:0:0:
64,192,76877,1,0,0:0:0:0:
320,192,76877,1,0,0:0:0:0:
448,192,76956,1,0,0:0:0:0:
192,192,77035,1,0,0:0:0:0:
64,192,77035,1,0,0:0:0:0:
320,192,77113,1,0,0:0:0:0:
192,192,77192,1,0,0:0:0:0:
448,192,77192,1,0,0:0:0:0:
64,192,77271,1,0,0:0:0:0:
192,192,77350,1,0,0:0:0:0:
320,192,77350,1,0,0:0:0:0:
448,192,77429,1,0,0:0:0:0:
64,192,77508,1,0,0:0:0:0:
192,192,77508,1,0,0:0:0:0:
320,192,77587,1,0,0:0:0:0:
448,192,77666,1,0,0:0:0:0:
192,192,77666,1,0,0:0:0:0:
320,192,77745,1,0,0:0:0:0:
192,192,77824,1,0,0:0:0:0:
64,192,77824,1,0,0:0:0:0:
448,192,77903,1,0,0:0:0:0:
320,192,77982,1,0,0:0:0:0:
64,192,77982,1,0,0:0:0:0:
192,192,78061,1,0,0:0:0:0:
64,192,78140,1,0,0:0:0:0:
448,192,78140,1,0,0:0:0:0:
320,192,78219,1,0,0:0:0:0:
192,192,78298,1,0,0:0:0:0:
64,192,78298,1,0,0:0:0:0:
320,192,78377,1,0,0:0:0:0:
192,192,78456,1,0,0:0:0:0:
448,192,78456,1,0,0:0:0:0:
64,192,78535,1,0,0:0:0:0:
320,192,78613,1,0,0:0:0:0:
448,192,78613,1,0,0:0:0:0:
64,192,78692,1,0,0:0:0:0:
320,192,78771,1,0,0:0:0:0:
192,192,78771,1,0,0:0:0:0:
448,192,78850,1,0,0:0:0:0:
320,192,78929,1,0,0:0:0:0:
64,192,78929,1,0,0:0:0:0:
192,192,79008,1,0,0:0:0:0:
320,192,79087,1,0,0:0:0:0:
448,192,79087,1,0,0:0:0:0:
192,192,79166,1,0,0:0:0:0:
320,192,79245,1,0,0:0:0:0:
64,192,79245,1,0,0:0:0:0:
448,192,79324,1,0,0:0:0:0:
192,192,79403,1,0,0:0:0:0:
64,192,79403,1,0,0:0:0:0:
448,192,79482,1,0,0:0:0:0:
320,192,79561,1,0,0:0:0:0:
192,192,79561,1,0,0:0:0:0:
64,192,79640,1,0,0:0:0:0:
192,192,79719,1,0,0:0:0:0:
448,192,79719,1,0,0:0:0:0:
320,192,79798,1,0,0:0:0:0:
192,192,79877,1,0,0:0:0:0:
64,192,79877,1,0,0:0:0:0:
448,192,79956,1,0,0:0:0:0:
320,192,80035,1,0,0:0:0:0:
64,192,80035,1,0,0:0:0:0:
448,192,80113,1,0,0:0:0:0:
192,192,80192,1,0,0:0:0:0:
64,192,80192,1,0,0:0:0:0:
320,192,80271,1,0,0:0:0:0:
192,192,80350,1,0,0:0:0:0:
448,192,80350,1,0,0:0:0:0:
64,192,80429,1,0,0:0:0:0:
320,192,80508,1,0,0:0:0:0:
448,192,80508,1,0,0:0:0:0:
192,192,80587,1,0,0:0:0:0:
64,192,80666,1,0,0:0:0:0:
320,192,80666,1,0,0:0:0:0:
448,192,80745,1,0,0:0:0:0:
320,192,80824,1,0,0:0:0:0:
192,192,80824,1,0,0:0:0:0:
64,192,80903,1,0,0:0:0:0:
320,192,80982,1,0,0:0:0:0:
448,192,80982,1,0,0:0:0:0:
192,192,81061,1,0,0:0:0:0:
64,192,81140,1,0,0:0:0:0:
320,192,81140,1,0,0:0:0:0:
448,192,81219,1,0,0:0:0:0:
192,192,81298,1,0,0:0:0:0:
64,192,81298,1,0,0:0:0:0:
320,192,81377,1,0,0:0:0:0:
192,192,81456,1,0,0:0:0:0:
448,192,81456,1,0,0:0:0:0:
320,192,81535,1,0,0:0:0:0:
192,192,81613,1,0,0:0:0:0:
64,192,81613,1,0,0:0:0:0:
320,192,81692,1,0,0:0:0:0:
448,192,81771,128,0,81929:0:0:0:0:
192,192,81929,1,0,0:0:0:0:
320,192,82008,1,0,0:0:0:0:
448,192,82087,128,0,82245:0:0:0:0:
192,192,82245,1,0,0:0:0:0:
320,192,82324,1,0,0:0:0:0:
448,192,82403,128,0,82561:0:0:0:0:
192,192,82561,1,0,0:0:0:0:
320,192,82640,1,0,0:0:0:0:
448,192,82719,128,0,82877:0:0:0:0:
64,192,82877,1,0,0:0:0:0:
192,192,82877,1,0,0:0:0:0:
320,192,82877,128,0,83035:0:0:0:0:
192,192,83035,1,0,0:0:0:0:
64,192,83192,128,0,83350:0:0:0:0:
192,192,83350,1,0,0:0:0:0:
448,192,83508,128,0,83666:0:0:0:0:
192,192,83666,1,0,0:0:0:0:
64,192,83824,128,0,83982:0:0:0:0:
448,192,83824,1,0,0:0:0:0:
192,192,83982,1,0,0:0:0:0:
320,192,84140,128,0,84298:0:0:0:0:
448,192,84140,1,0,0:0:0:0:
192,192,84298,1,0,0:0:0:0:
64,192,84456,128,0,84613:0:0:0:0:
192,192,84613,1,0,0:0:0:0:
448,192,84771,128,0,84929:0:0:0:0:
192,192,84929,1,0,0:0:0:0:
64,192,85087,128,0,85245:0:0:0:0:
192,192,85245,1,0,0:0:0:0:
320,192,85245,1,0,0:0:0:0:
448,192,85403,1,0,0:0:0:0:
192,192,85482,1,0,0:0:0:0:
448,192,85561,1,0,0:0:0:0:
192,192,85640,1,0,0:0:0:0:
64,192,85719,128,0,85877:0:0:0:0:
448,192,85719,1,0,0:0:0:0:
192,192,85877,1,0,0:0:0:0:
448,192,86035,128,0,86192:0:0:0:0:
192,192,86192,1,0,0:0:0:0:
64,192,86350,128,0,86508:0:0:0:0:
448,192,86350,1,0,0:0:0:0:
192,192,86508,1,0,0:0:0:0:
320,192,86666,128,0,86824:0:0:0:0:
192,192,86824,1,0,0:0:0:0:
64,192,86982,128,0,87140:0:0:0:0:
192,192,87140,1,0,0:0:0:0:
448,192,87298,128,0,87456:0:0:0:0:
192,192,87456,1,0,0:0:0:0:
64,192,87613,128,0,87771:0:0:0:0:
192,192,87771,1,0,0:0:0:0:
320,192,87929,1,0,0:0:0:0:
192,192,88008,1,0,0:0:0:0:
320,192,88087,1,0,0:0:0:0:
192,192,88166,1,0,0:0:0:0:
320,192,88245,1,0,0:0:0:0:
64,192,88245,128,0,88403:0:0:0:0:
192,192,88403,1,0,0:0:0:0:
448,192,88561,128,0,88719:0:0:0:0:
192,192,88719,1,0,0:0:0:0:
64,192,88877,128,0,89035:0:0:0:0:
448,192,88877,1,0,0:0:0:0:
192,192,89035,1,0,0:0:0:0:
320,192,89192,128,0,89350:0:0:0:0:
448,192,89192,1,0,0:0:0:0:
192,192,89350,1,0,0:0:0:0:
64,192,89508,128,0,89666:0:0:0:0:
192,192,89666,1,0,0:0:0:0:
448,192,89824,128,0,89982:0:0:0:0:
192,192,89982,1,0,0:0:0:0:
64,192,90140,128,0,90298:0:0:0:0:
192,192,90298,1,0,0:0:0:0:
320,192,90298,1,0,0:0:0:0:
64,192,90456,1,0,0:0:0:0:
448,192,90535,1,0,0:0:0:0:
64,192,90613,1,0,0:0:0:0:
448,192,90692,1,0,0:0:0:0:
320,192,90771,1,0,0:0:0:0:
64,192,90771,128,0,90929:0:0:0:0:
192,192,90929,1,0,0:0:0:0:
448,192,91087,128,0,91245:0:0:0:0:
192,192,91245,1,0,0:0:0:0:
448,192,91403,1,0,0:0:0:0:
64,192,91403,128,0,91561:0:0:0:0:
192,192,91561,1,0,0:0:0:0:
320,192,91719,128,0,91877:0:0:0:0:
448,192,91719,1,0,0:0:0:0:
192,192,91877,1,0,0:0:0:0:
64,192,92035,128,0,92192:0:0:0:0:
192,192,92192,1,0,0:0:0:0:
320,192,92192,1,0,0:0:0:0:
448,192,92350,128,0,92508:0:0:0:0:
320,192,92350,1,0,0:0:0:0:
192,192,92508,1,0,0:0:0:0:
64,192,92666,128,0,92824:0:0:0:0:
192,192,92824,1,0,0:0:0:0:
448,192,92903,1,0,0:0:0:0:
320,192,92982,1,0,0:0:0:0:
192,192,93061,1,0,0:0:0:0:
320,192,93140,1,0,0:0:0:0:
192,192,93219,1,0,0:0:0:0:
320,192,93298,1,0,0:0:0:0:
64,192,93298,128,0,93456:0:0:0:0:
192,192,93456,1,0,0:0:0:0:
448,192,93613,128,0,93771:0:0:0:0:
192,192,93771,1,0,0:0:0:0:
64,192,93929,128,0,94087:0:0:0:0:
448,192,93929,1,0,0:0:0:0:
192,192,94087,1,0,0:0:0:0:
320,192,94245,128,0,94403:0:0:0:0:
448,192,94245,1,0,0:0:0:0:
192,192,94403,1,0,0:0:0:0:
64,192,94561,128,0,94719:0:0:0:0:
192,192,94719,1,0,0:0:0:0:
448,192,94877,128,0,95035:0:0:0:0:
192,192,95035,1,0,0:0:0:0:
64,192,95192,128,0,95350:0:0:0:0:
192,192,95350,1,0,0:0:0:0:
320,192,95350,1,0,0:0:0:0:
448,192,95508,1,0,0:0:0:0:
192,192,95587,1,0,0:0:0:0:
448,192,95666,1,0,0:0:0:0:
192,192,95745,1,0,0:0:0:0:
448,192,95824,1,0,0:0:0:0:
64,192,95824,128,0,95982:0:0:0:0:
192,192,95982,1,0,0:0:0:0:
448,192,96140,128,0,96298:0:0:0:0:
192,192,96298,1,0,0:0:0:0:
64,192,96456,128,0,96613:0:0:0:0:
448,192,96456,1,0,0:0:0:0:
192,192,96613,1,0,0:0:0:0:
320,192,96771,128,0,96929:0:0:0:0:
192,192,96929,1,0,0:0:0:0:
64,192,97087,128,0,97245:0:0:0:0:
192,192,97245,1,0,0:0:0:0:
448,192,97403,128,0,97561:0:0:0:0:
192,192,97561,1,0,0:0:0:0:
64,192,97719,128,0,97877:0:0:0:0:
192,192,97877,1,0,0:0:0:0:
64,192,98035,1,0,0:0:0:0:
448,192,98113,1,0,0:0:0:0:
64,192,98192,1,0,0:0:0:0:
448,192,98271,1,0,0:0:0:0:
320,192,98350,1,0,0:0:0:0:
64,192,98350,128,0,98508:0:0:0:0:
192,192,98508,1,0,0:0:0:0:
448,192,98666,128,0,98824:0:0:0:0:
192,192,98824,1,0,0:0:0:0:
64,192,98982,128,0,99140:0:0:0:0:
448,192,98982,1,0,0:0:0:0:
192,192,99140,1,0,0:0:0:0:
320,192,99298,128,0,99456:0:0:0:0:
448,192,99298,1,0,0:0:0:0:
192,192,99456,1,0,0:0:0:0:
64,192,99613,128,0,99771:0:0:0:0:
192,192,99771,1,0,0:0:0:0:
448,192,99929,128,0,100087:0:0:0:0:
192,192,100087,1,0,0:0:0:0:
64,192,100245,128,0,100403:0:0:0:0:
192,192,100403,1,0,0:0:0:0:
320,192,100403,1,0,0:0:0:0:
448,192,100561,1,0,0:0:0:0:
64,192,100640,1,0,0:0:0:0:
320,192,100719,1,0,0:0:0:0:
192,192,100798,1,0,0:0:0:0:
448,192,100877,1,0,0:0:0:0:
64,192,100877,128,0,101035:0:0:0:0:
192,192,101035,1,0,0:0:0:0:
448,192,101192,128,0,101350:0:0:0:0:
192,192,101350,1,0,0:0:0:0:
448,192,101508,1,0,0:0:0:0:
64,192,101508,128,0,101666:0:0:0:0:
192,192,101666,1,0,0:0:0:0:
320,192,101824,128,0,101982:0:0:0:0:
448,192,101824,1,0,0:0:0:0:
192,192,101982,1,0,0:0:0:0:
64,192,102140,128,0,102298:0:0:0:0:
192,192,102298,1,0,0:0:0:0:
320,192,102298,1,0,0:0:0:0:
448,192,102456,128,0,102613:0:0:0:0:
320,192,102456,1,0,0:0:0:0:
192,192,102613,1,0,0:0:0:0:
64,192,102771,128,0,102929:0:0:0:0:
192,192,102929,1,0,0:0:0:0:
320,192,103008,1,0,0:0:0:0:
64,192,103087,1,0,0:0:0:0:
448,192,103087,1,0,0:0:0:0:
192,192,103087,1,0,0:0:0:0:
320,192,103166,1,0,0:0:0:0:
64,192,103245,1,0,0:0:0:0:
192,192,103324,1,0,0:0:0:0:
448,192,103403,1,0,0:0:0:0:
320,192,103403,1,0,0:0:0:0:
64,192,103482,1,0,0:0:0:0:
448,192,103561,1,0,0:0:0:0:
192,192,103640,1,0,0:0:0:0:
64,192,103719,1,0,0:0:0:0:
320,192,103719,1,0,0:0:0:0:
192,192,103798,1,0,0:0:0:0:
320,192,103877,1,0,0:0:0:0:
448,192,103956,1,0,0:0:0:0:
192,192,104035,1,0,0:0:0:0:
64,192,104035,1,0,0:0:0:0:
320,192,104113,1,0,0:0:0:0:
448,192,104192,1,0,0:0:0:0:
192,192,104271,1,0,0:0:0:0:
320,192,104350,1,0,0:0:0:0:
64,192,104350,1,0,0:0:0:0:
448,192,104429,1,0,0:0:0:0:
320,192,104508,1,0,0:0:0:0:
192,192,104587,1,0,0:0:0:0:
64,192,104666,1,0,0:0:0:0:
448,192,104666,1,0,0:0:0:0:
320,192,104745,1,0,0:0:0:0:
192,192,104824,1,0,0:0:0:0:
64,192,104903,1,0,0:0:0:0:
192,192,104982,1,0,0:0:0:0:
320,192,104982,1,0,0:0:0:0:
448,192,105061,1,0,0:0:0:0:
64,192,105140,1,0,0:0:0:0:
320,192,105219,1,0,0:0:0:0:
192,192,105298,1,0,0:0:0:0:
448,192,105298,1,0,0:0:0:0:
320,192,105377,1,0,0:0:0:0:
64,192,105456,1,0,0:0:0:0:
448,192,105535,1,0,0:0:0:0:
320,192,105613,1,0,0:0:0:0:
192,192,105613,1,0,0:0:0:0:
64,192,105692,1,0,0:0:0:0:
448,192,105771,1,0,0:0:0:0:
192,192,105850,1,0,0:0:0:0:
320,192,105929,1,0,0:0:0:0:
64,192,105929,1,0,0:0:0:0:
448,192,106008,1,0,0:0:0:0:
192,192,106087,1,0,0:0:0:0:
64,192,106166,1,0,0:0:0:0:
192,192,106245,1,0,0:0:0:0:
448,192,106245,1,0,0:0:0:0:
320,192,106324,1,0,0:0:0:0:
64,192,106403,1,0,0:0:0:0:
448,192,106482,1,0,0:0:0:0:
320,192,106561,1,0,0:0:0:0:
64,192,106561,1,0,0:0:0:0:
192,192,106640,1,0,0:0:0:0:
320,192,106719,1,0,0:0:0:0:
448,192,106798,1,0,0:0:0:0:
320,192,106877,1,0,0:0:0:0:
192,192,106877,1,0,0:0:0:0:
64,192,106956,1,0,0:0:0:0:
192,192,107035,1,0,0:0:0:0:
448,192,107113,1,0,0:0:0:0:
320,192,107192,1,0,0:0:0:0:
64,192,107192,1,0,0:0:0:0:
192,192,107271,1,0,0:0:0:0:
320,192,107350,1,0,0:0:0:0:
64,192,107429,1,0,0:0:0:0:
192,192,107508,1,0,0:0:0:0:
448,192,107508,1,0,0:0:0:0:
64,192,107587,1,0,0:0:0:0:
320,192,107666,1,0,0:0:0:0:
192,192,107745,1,0,0:0:0:0:
64,192,107824,1,0,0:0:0:0:
448,192,107824,1,0,0:0:0:0:
320,192,107903,1,0,0:0:0:0:
448,192,107982,1,0,0:0:0:0:
192,192,108061,1,0,0:0:0:0:
320,192,108140,1,0,0:0:0:0:
448,192,108140,1,0,0:0:0:0:
64,192,108219,1,0,0:0:0:0:
192,192,108298,1,0,0:0:0:0:
320,192,108377,1,0,0:0:0:0:
64,192,108456,1,0,0:0:0:0:
448,192,108456,1,0,0:0:0:0:
192,192,108535,1,0,0:0:0:0:
320,192,108613,1,0,0:0:0:0:
64,192,108692,1,0,0:0:0:0:
192,192,108771,1,0,0:0:0:0:
448,192,108771,1,0,0:0:0:0:
64,192,108850,1,0,0:0:0:0:
320,192,108929,1,0,0:0:0:0:
192,192,109008,1,0,0:0:0:0:
64,192,109087,1,0,0:0:0:0:
448,192,109087,1,0,0:0:0:0:
320,192,109166,1,0,0:0:0:0:
192,192,109245,1,0,0:0:0:0:
448,192,109324,1,0,0:0:0:0:
320,192,109403,1,0,0:0:0:0:
64,192,109403,1,0,0:0:0:0:
448,192,109482,1,0,0:0:0:0:
192,192,109561,1,0,0:0:0:0:
320,192,109640,1,0,0:0:0:0:
448,192,109719,1,0,0:0:0:0:
192,192,109719,1,0,0:0:0:0:
64,192,109798,1,0,0:0:0:0:
192,192,109877,1,0,0:0:0:0:
320,192,109956,1,0,0:0:0:0:
448,192,110035,1,0,0:0:0:0:
64,192,110035,1,0,0:0:0:0:
320,192,110113,1,0,0:0:0:0:
192,192,110192,1,0,0:0:0:0:
448,192,110271,1,0,0:0:0:0:
320,192,110350,1,0,0:0:0:0:
192,192,110350,1,0,0:0:0:0:
64,192,110429,1,0,0:0:0:0:
448,192,110508,1,0,0:0:0:0:
192,192,110587,1,0,0:0:0:0:
320,192,110666,1,0,0:0:0:0:
64,192,110666,1,0,0:0:0:0:
448,192,110745,1,0,0:0:0:0:
320,192,110824,1,0,0:0:0:0:
192,192,110903,1,0,0:0:0:0:
64,192,110982,1,0,0:0:0:0:
448,192,110982,1,0,0:0:0:0:
320,192,111061,1,0,0:0:0:0:
192,192,111140,1,0,0:0:0:0:
64,192,111219,1,0,0:0:0:0:
192,192,111298,1,0,0:0:0:0:
320,192,111298,1,0,0:0:0:0:
448,192,111377,1,0,0:0:0:0:
64,192,111456,1,0,0:0:0:0:
320,192,111535,1,0,0:0:0:0:
192,192,111613,1,0,0:0:0:0:
448,192,111613,1,0,0:0:0:0:
64,192,111692,1,0,0:0:0:0:
320,192,111771,1,0,0:0:0:0:
448,192,111850,1,0,0:0:0:0:
320,192,111929,1,0,0:0:0:0:
64,192,111929,1,0,0:0:0:0:
192,192,112008,1,0,0:0:0:0:
448,192,112087,1,0,0:0:0:0:
64,192,112166,1,0,0:0:0:0:
192,192,112245,1,0,0:0:0:0:
320,192,112245,1,0,0:0:0:0:
64,192,112324,1,0,0:0:0:0:
320,192,112403,1,0,0:0:0:0:
192,192,112482,1,0,0:0:0:0:
64,192,112561,1,0,0:0:0:0:
448,192,112561,1,0,0:0:0:0:
320,192,112640,1,0,0:0:0:0:
192,192,112719,1,0,0:0:0:0:
64,192,112719,1,0,0:0:0:0:
320,192,112798,1,0,0:0:0:0:
448,192,112798,1,0,0:0:0:0:
64,192,112877,1,0,0:0:0:0:
192,192,112877,1,0,0:0:0:0:
448,192,112956,1,0,0:0:0:0:
320,192,112956,1,0,0:0:0:0:
192,192,113035,1,0,0:0:0:0:
64,192,113035,1,0,0:0:0:0:
320,192,113113,1,0,0:0:0:0:
448,192,113192,1,0,0:0:0:0:
64,192,113192,1,0,0:0:0:0:
192,192,113271,1,0,0:0:0:0:
320,192,113350,1,0,0:0:0:0:
448,192,113429,1,0,0:0:0:0:
64,192,113508,1,0,0:0:0:0:
192,192,113508,1,0,0:0:0:0:
320,192,113587,1,0,0:0:0:0:
448,192,113666,1,0,0:0:0:0:
192,192,113745,1,0,0:0:0:0:
64,192,113824,1,0,0:0:0:0:
320,192,113824,1,0,0:0:0:0:
448,192,113903,1,0,0:0:0:0:
192,192,113982,1,0,0:0:0:0:
320,192,114061,1,0,0:0:0:0:
448,192,114140,1,0,0:0:0:0:
64,192,114140,1,0,0:0:0:0:
192,192,114219,1,0,0:0:0:0:
320,192,114298,1,0,0:0:0:0:
192,192,114377,1,0,0:0:0:0:
64,192,114456,1,0,0:0:0:0:
448,192,114456,1,0,0:0:0:0:
320,192,114535,1,0,0:0:0:0:
192,192,114613,1,0,0:0:0:0:
64,192,114692,1,0,0:0:0:0:
320,192,114771,1,0,0:0:0:0:
448,192,114771,1,0,0:0:0:0:
192,192,114850,1,0,0:0:0:0:
64,192,114929,1,0,0:0:0:0:
320,192,115008,1,0,0:0:0:0:
448,192,115087,1,0,0:0:0:0:
192,192,115087,1,0,0:0:0:0:
64,192,115166,1,0,0:0:0:0:
320,192,115245,1,0,0:0:0:0:
192,192,115324,1,0,0:0:0:0:
64,192,115403,1,0,0:0:0:0:
448,192,115403,1,0,0:0:0:0:
320,192,115482,1,0,0:0:0:0:
192,192,115561,1,0,0:0:0:0:
64,192,115640,1,0,0:0:0:0:
320,192,115719,1,0,0:0:0:0:
448,192,115719,1,0,0:0:0:0:
192,192,115798,1,0,0:0:0:0:
64,192,115877,1,0,0:0:0:0:
192,192,115956,1,0,0:0:0:0:
64,192,116035,1,0,0:0:0:0:
448,192,116035,1,0,0:0:0:0:
320,192,116113,1,0,0:0:0:0:
192,192,116192,1,0,0:0:0:0:
320,192,116271,1,0,0:0:0:0:
448,192,116350,1,0,0:0:0:0:
192,192,116350,1,0,0:0:0:0:
320,192,116429,1,0,0:0:0:0:
64,192,116508,1,0,0:0:0:0:
192,192,116587,1,0,0:0:0:0:
320,192,116666,1,0,0:0:0:0:
448,192,116666,1,0,0:0:0:0:
64,192,116745,1,0,0:0:0:0:
192,192,116824,1,0,0:0:0:0:
448,192,116903,1,0,0:0:0:0:
320,192,116982,1,0,0:0:0:0:
64,192,116982,1,0,0:0:0:0:
448,192,117061,1,0,0:0:0:0:
320,192,117140,1,0,0:0:0:0:
192,192,117219,1,0,0:0:0:0:
64,192,117298,1,0,0:0:0:0:
448,192,117298,1,0,0:0:0:0:
320,192,117377,1,0,0:0:0:0:
192,192,117456,1,0,0:0:0:0:
64,192,117535,1,0,0:0:0:0:
192,192,117613,1,0,0:0:0:0:
320,192,117613,1,0,0:0:0:0:
448,192,117692,1,0,0:0:0:0:
64,192,117771,1,0,0:0:0:0:
320,192,117850,1,0,0:0:0:0:
64,192,117929,1,0,0:0:0:0:
448,192,117929,1,0,0:0:0:0:
192,192,118008,1,0,0:0:0:0:
320,192,118087,1,0,0:0:0:0:
192,192,118166,1,0,0:0:0:0:
320,192,118245,1,0,0:0:0:0:
448,192,118245,1,0,0:0:0:0:
64,192,118324,1,0,0:0:0:0:
448,192,118403,1,0,0:0:0:0:
192,192,118403,1,0,0:0:0:0:
64,192,118482,1,0,0:0:0:0:
320,192,118561,1,0,0:0:0:0:
448,192,118561,1,0,0:0:0:0:
64,192,118640,1,0,0:0:0:0:
192,192,118719,1,0,0:0:0:0:
320,192,118719,1,0,0:0:0:0:
64,192,118798,1,0,0:0:0:0:
320,192,118877,1,0,0:0:0:0:
448,192,118877,1,0,0:0:0:0:
192,192,118956,1,0,0:0:0:0:
64,192,119035,1,0,0:0:0:0:
320,192,119035,1,0,0:0:0:0:
448,192,119113,1,0,0:0:0:0:
320,192,119192,1,0,0:0:0:0:
192,192,119192,1,0,0:0:0:0:
64,192,119271,1,0,0:0:0:0:
192,192,119350,1,0,0:0:0:0:
448,192,119350,1,0,0:0:0:0:
320,192,119429,1,0,0:0:0:0:
192,192,119508,1,0,0:0:0:0:
64,192,119508,1,0,0:0:0:0:
448,192,119587,1,0,0:0:0:0:
320,192,119666,1,0,0:0:0:0:
192,192,119666,1,0,0:0:0:0:
448,192,119745,1,0,0:0:0:0:
192,192,119824,1,0,0:0:0:0:
64,192,119824,1,0,0:0:0:0:
448,192,119903,1,0,0:0:0:0:
320,192,119982,1,0,0:0:0:0:
64,192,119982,1,0,0:0:0:0:
448,192,120061,1,0,0:0:0:0:
192,192,120140,1,0,0:0:0:0:
64,192,120140,1,0,0:0:0:0:
320,192,120219,1,0,0:0:0:0:
192,192,120298,1,0,0:0:0:0:
448,192,120298,1,0,0:0:0:0:
64,192,120377,1,0,0:0:0:0:
192,192,120456,1,0,0:0:0:0:
320,192,120456,1,0,0:0:0:0:
448,192,120535,1,0,0:0:0:0:
320,192,120613,1,0,0:0:0:0:
64,192,120613,1,0,0:0:0:0:
192,192,120692,1,0,0:0:0:0:
320,192,120771,1,0,0:0:0:0:
448,192,120771,1,0,0:0:0:0:
192,192,120850,1,0,0:0:0:0:
64,192,120850,1,0,0:0:0:0:
448,192,120929,1,0,0:0:0:0:
320,192,120929,1,0,0:0:0:0:
192,192,121008,1,0,0:0:0:0:
64,192,121008,1,0,0:0:0:0:
320,192,121087,1,0,0:0:0:0:
448,192,121087,1,0,0:0:0:0:
64,192,121166,1,0,0:0:0:0:
192,192,121166,1,0,0:0:0:0:
448,192,121245,1,0,0:0:0:0:
320,192,121245,1,0,0:0:0:0:
192,192,121324,1,0,0:0:0:0:
64,192,121324,1,0,0:0:0:0:
320,192,121403,1,0,0:0:0:0:
448,192,121403,1,0,0:0:0:0:
64,192,121482,1,0,0:0:0:0:
192,192,121482,1,0,0:0:0:0:
448,192,121561,1,0,0:0:0:0:
320,192,121561,1,0,0:0:0:0:
192,192,121640,1,0,0:0:0:0:
64,192,121640,1,0,0:0:0:0:
320,192,121719,1,0,0:0:0:0:
448,192,121719,1,0,0:0:0:0:
64,192,121798,1,0,0:0:0:0:
192,192,121798,1,0,0:0:0:0:
448,192,121877,1,0,0:0:0:0:
320,192,121877,1,0,0:0:0:0:
192,192,121956,1,0,0:0:0:0:
64,192,121956,1,0,0:0:0:0:
320,192,122035,1,0,0:0:0:0:
448,192,122035,128,0,122192:0:0:0:0:
64,192,122192,1,0,0:0:0:0:
192,192,122271,1,0,0:0:0:0:
320,192,122350,128,0,122508:0:0:0:0:
448,192,122508,1,0,0:0:0:0:
320,192,122587,1,0,0:0:0:0:
64,192,122666,1,0,0:0:0:0:
448,192,122745,1,0,0:0:0:0:
192,192,122824,1,0,0:0:0:0:
64,192,122824,1,0,0:0:0:0:
320,192,122903,1,0,0:0:0:0:
448,192,122903,1,0,0:0:0:0:
192,192,122982,1,0,0:0:0:0:
64,192,122982,1,0,0:0:0:0:
320,192,123061,1,0,0:0:0:0:
448,192,123140,128,0,123298:0:0:0:0:
192,192,123298,1,0,0:0:0:0:
64,192,123298,1,0,0:0:0:0:
320,192,123298,1,0,0:0:0:0:
448,192,123377,1,0,0:0:0:0:
64,192,123456,1,0,0:0:0:0:
192,192,123456,1,0,0:0:0:0:
320,192,123535,1,0,0:0:0:0:
448,192,123535,1,0,0:0:0:0:
64,192,123613,1,0,0:0:0:0:
192,192,123613,1,0,0:0:0:0:
320,192,123692,1,0,0:0:0:0:
448,192,123771,1,0,0:0:0:0:
64,192,123771,1,0,0:0:0:0:
192,192,123850,1,0,0:0:0:0:
320,192,123929,1,0,0:0:0:0:
448,192,123929,1,0,0:0:0:0:
64,192,124008,1,0,0:0:0:0:
320,192,124087,1,0,0:0:0:0:
448,192,124087,1,0,0:0:0:0:
192,192,124166,1,0,0:0:0:0:
64,192,124245,1,0,0:0:0:0:
448,192,124245,1,0,0:0:0:0:
320,192,124324,1,0,0:0:0:0:
192,192,124403,1,0,0:0:0:0:
448,192,124403,1,0,0:0:0:0:
64,192,124482,1,0,0:0:0:0:
320,192,124561,1,0,0:0:0:0:
448,192,124561,1,0,0:0:0:0:
64,192,124640,1,0,0:0:0:0:
192,192,124719,1,0,0:0:0:0:
320,192,124719,1,0,0:0:0:0:
64,192,124798,1,0,0:0:0:0:
448,192,124798,1,0,0:0:0:0:
320,192,124877,1,0,0:0:0:0:
192,192,124877,1,0,0:0:0:0:
448,192,124956,1,0,0:0:0:0:
64,192,125035,1,0,0:0:0:0:
192,192,125035,1,0,0:0:0:0:
320,192,125113,1,0,0:0:0:0:
64,192,125192,1,0,0:0:0:0:
448,192,125192,1,0,0:0:0:0:
192,192,125271,1,0,0:0:0:0:
64,192,125350,1,0,0:0:0:0:
320,192,125350,1,0,0:0:0:0:
448,192,125429,1,0,0:0:0:0:
192,192,125508,1,0,0:0:0:0:
64,192,125508,1,0,0:0:0:0:
320,192,125587,1,0,0:0:0:0:
448,192,125666,1,0,0:0:0:0:
192,192,125666,1,0,0:0:0:0:
320,192,125745,1,0,0:0:0:0:
192,192,125824,1,0,0:0:0:0:
64,192,125824,1,0,0:0:0:0:
448,192,125903,1,0,0:0:0:0:
320,192,125982,1,0,0:0:0:0:
64,192,125982,1,0,0:0:0:0:
192,192,126061,1,0,0:0:0:0:
448,192,126061,1,0,0:0:0:0:
320,192,126140,1,0,0:0:0:0:
64,192,126140,1,0,0:0:0:0:
192,192,126219,1,0,0:0:0:0:
320,192,126298,1,0,0:0:0:0:
448,192,126298,1,0,0:0:0:0:
64,192,126377,1,0,0:0:0:0:
192,192,126456,1,0,0:0:0:0:
448,192,126456,1,0,0:0:0:0:
64,192,126535,1,0,0:0:0:0:
320,192,126613,1,0,0:0:0:0:
448,192,126613,1,0,0:0:0:0:
192,192,126692,1,0,0:0:0:0:
64,192,126771,1,0,0:0:0:0:
320,192,126771,1,0,0:0:0:0:
448,192,126850,1,0,0:0:0:0:
320,192,126929,1,0,0:0:0:0:
192,192,126929,1,0,0:0:0:0:
64,192,127008,1,0,0:0:0:0:
320,192,127087,1,0,0:0:0:0:
448,192,127087,1,0,0:0:0:0:
192,192,127166,1,0,0:0:0:0:
64,192,127245,1,0,0:0:0:0:
448,192,127245,1,0,0:0:0:0:
320,192,127324,1,0,0:0:0:0:
192,192,127324,1,0,0:0:0:0:
64,192,127403,1,0,0:0:0:0:
448,192,127403,1,0,0:0:0:0:
320,192,127482,1,0,0:0:0:0:
192,192,127561,1,0,0:0:0:0:
64,192,127561,1,0,0:0:0:0:
320,192,127640,1,0,0:0:0:0:
448,192,127640,1,0,0:0:0:0:
192,192,127719,1,0,0:0:0:0:
64,192,127719,1,0,0:0:0:0:
320,192,127798,1,0,0:0:0:0:
448,192,127798,1,0,0:0:0:0:
192,192,127877,1,0,0:0:0:0:
64,192,127877,1,0,0:0:0:0:
448,192,127956,1,0,0:0:0:0:
320,192,128035,1,0,0:0:0:0:
64,192,128035,1,0,0:0:0:0:
192,192,128113,1,0,0:0:0:0:
64,192,128192,1,0,0:0:0:0:
320,192,128192,1,0,0:0:0:0:
448,192,128271,1,0,0:0:0:0:
320,192,128350,1,0,0:0:0:0:
192,192,128350,1,0,0:0:0:0:
64,192,128350,1,0,0:0:0:0:
448,192,128429,1,0,0:0:0:0:
192,192,128508,1,0,0:0:0:0:
64,192,128508,1,0,0:0:0:0:
320,192,128587,1,0,0:0:0:0:
448,192,128587,1,0,0:0:0:0:
192,192,128666,1,0,0:0:0:0:
64,192,128666,1,0,0:0:0:0:
320,192,128745,1,0,0:0:0:0:
448,192,128824,1,0,0:0:0:0:
64,192,128824,1,0,0:0:0:0:
192,192,128903,1,0,0:0:0:0:
320,192,128982,1,0,0:0:0:0:
448,192,128982,1,0,0:0:0:0:
64,192,129061,1,0,0:0:0:0:
320,192,129140,1,0,0:0:0:0:
448,192,129140,1,0,0:0:0:0:
192,192,129219,1,0,0:0:0:0:
64,192,129298,1,0,0:0:0:0:
320,192,129298,1,0,0:0:0:0:
448,192,129377,1,0,0:0:0:0:
320,192,129456,1,0,0:0:0:0:
192,192,129456,1,0,0:0:0:0:
64,192,129535,1,0,0:0:0:0:
320,192,129613,1,0,0:0:0:0:
448,192,129613,1,0,0:0:0:0:
192,192,129692,1,0,0:0:0:0:
64,192,129771,1,0,0:0:0:0:
448,192,129771,1,0,0:0:0:0:
320,192,129850,1,0,0:0:0:0:
192,192,129850,1,0,0:0:0:0:
64,192,129929,1,0,0:0:0:0:
448,192,129929,1,0,0:0:0:0:
320,192,130008,1,0,0:0:0:0:
192,192,130087,1,0,0:0:0:0:
64,192,130087,1,0,0:0:0:0:
448,192,130166,1,0,0:0:0:0:
320,192,130245,1,0,0:0:0:0:
192,192,130245,1,0,0:0:0:0:
64,192,130324,1,0,0:0:0:0:
448,192,130403,1,0,0:0:0:0:
192,192,130403,1,0,0:0:0:0:
320,192,130482,1,0,0:0:0:0:
192,192,130561,1,0,0:0:0:0:
64,192,130561,1,0,0:0:0:0:
448,192,130640,1,0,0:0:0:0:
320,192,130719,1,0,0:0:0:0:
64,192,130719,1,0,0:0:0:0:
448,192,130798,1,0,0:0:0:0:
192,192,130877,1,0,0:0:0:0:
64,192,130877,1,0,0:0:0:0:
320,192,130956,1,0,0:0:0:0:
192,192,131035,1,0,0:0:0:0:
448,192,131035,1,0,0:0:0:0:
64,192,131113,1,0,0:0:0:0:
320,192,131113,1,0,0:0:0:0:
448,192,131192,1,0,0:0:0:0:
192,192,131192,1,0,0:0:0:0:
64,192,131271,1,0,0:0:0:0:
320,192,131350,1,0,0:0:0:0:
448,192,131350,1,0,0:0:0:0:
192,192,131429,1,0,0:0:0:0:
64,192,131508,1,0,0:0:0:0:
320,192,131508,1,0,0:0:0:0:
448,192,131587,1,0,0:0:0:0:
192,192,131666,1,0,0:0:0:0:
320,192,131666,1,0,0:0:0:0:
64,192,131745,1,0,0:0:0:0:
320,192,131824,1,0,0:0:0:0:
448,192,131824,1,0,0:0:0:0:
192,192,131903,1,0,0:0:0:0:
64,192,131982,1,0,0:0:0:0:
448,192,131982,1,0,0:0:0:0:
192,192,132061,1,0,0:0:0:0:
320,192,132140,1,0,0:0:0:0:
448,192,132140,1,0,0:0:0:0:
192,192,132219,1,0,0:0:0:0:
64,192,132219,1,0,0:0:0:0:
320,192,132298,1,0,0:0:0:0:
448,192,132298,1,0,0:0:0:0:
192,192,132377,1,0,0:0:0:0:
64,192,132377,1,0,0:0:0:0:
320,192,132456,1,0,0:0:0:0:
448,192,132456,1,0,0:0:0:0:
64,192,132535,1,0,0:0:0:0:
320,192,132613,1,0,0:0:0:0:
448,192,132613,1,0,0:0:0:0:
192,192,132692,1,0,0:0:0:0:
64,192,132692,1,0,0:0:0:0:
320,192,132771,1,0,0:0:0:0:
448,192,132771,1,0,0:0:0:0:
64,192,132850,1,0,0:0:0:0:
192,192,132850,1,0,0:0:0:0:
320,192,132929,1,0,0:0:0:0:
448,192,132929,1,0,0:0:0:0:
192,192,133008,1,0,0:0:0:0:
64,192,133087,128,0,133166:0:0:0:0:
448,192,133087,128,0,133166:0:0:0:0:
192,192,133245,1,0,0:0:0:0:
320,192,133245,1,0,0:0:0:0:
64,192,133324,1,0,0:0:0:0:
448,192,133403,1,0,0:0:0:0:
320,192,133403,1,0,0:0:0:0:
64,192,133482,1,0,0:0:0:0:
192,192,133561,1,0,0:0:0:0:
448,192,133561,1,0,0:0:0:0:
320,192,133640,1,0,0:0:0:0:
192,192,133719,1,0,0:0:0:0:
448,192,133719,1,0,0:0:0:0:
64,192,133719,1,0,0:0:0:0:
320,192,133798,1,0,0:0:0:0:
192,192,133877,1,0,0:0:0:0:
64,192,133877,1,0,0:0:0:0:
448,192,133956,1,0,0:0:0:0:
320,192,134035,1,0,0:0:0:0:
64,192,134035,1,0,0:0:0:0:
192,192,134113,1,0,0:0:0:0:
64,192,134192,1,0,0:0:0:0:
448,192,134192,1,0,0:0:0:0:
320,192,134271,1,0,0:0:0:0:
192,192,134350,1,0,0:0:0:0:
64,192,134350,1,0,0:0:0:0:
320,192,134429,1,0,0:0:0:0:
448,192,134508,1,0,0:0:0:0:
192,192,134508,1,0,0:0:0:0:
320,192,134587,1,0,0:0:0:0:
192,192,134666,1,0,0:0:0:0:
64,192,134666,1,0,0:0:0:0:
448,192,134745,1,0,0:0:0:0:
192,192,134824,1,0,0:0:0:0:
320,192,134824,1,0,0:0:0:0:
448,192,134903,1,0,0:0:0:0:
64,192,134903,1,0,0:0:0:0:
192,192,134982,1,0,0:0:0:0:
320,192,134982,1,0,0:0:0:0:
64,192,135061,1,0,0:0:0:0:
320,192,135140,1,0,0:0:0:0:
448,192,135140,1,0,0:0:0:0:
192,192,135219,1,0,0:0:0:0:
64,192,135298,1,0,0:0:0:0:
320,192,135298,1,0,0:0:0:0:
448,192,135377,1,0,0:0:0:0:
320,192,135456,1,0,0:0:0:0:
192,192,135456,1,0,0:0:0:0:
64,192,135535,1,0,0:0:0:0:
320,192,135613,1,0,0:0:0:0:
448,192,135613,1,0,0:0:0:0:
64,192,135692,1,0,0:0:0:0:
192,192,135771,1,0,0:0:0:0:
448,192,135771,1,0,0:0:0:0:
64,192,135850,1,0,0:0:0:0:
320,192,135929,1,0,0:0:0:0:
448,192,135929,1,0,0:0:0:0:
192,192,136008,1,0,0:0:0:0:
64,192,136087,1,0,0:0:0:0:
320,192,136087,1,0,0:0:0:0:
448,192,136166,1,0,0:0:0:0:
192,192,136166,1,0,0:0:0:0:
320,192,136245,1,0,0:0:0:0:
64,192,136245,1,0,0:0:0:0:
448,192,136324,1,0,0:0:0:0:
192,192,136403,1,0,0:0:0:0:
64,192,136403,1,0,0:0:0:0:
320,192,136482,1,0,0:0:0:0:
448,192,136561,1,0,0:0:0:0:
192,192,136561,1,0,0:0:0:0:
64,192,136640,1,0,0:0:0:0:
192,192,136719,1,0,0:0:0:0:
448,192,136719,1,0,0:0:0:0:
320,192,136798,1,0,0:0:0:0:
192,192,136877,1,0,0:0:0:0:
64,192,136877,1,0,0:0:0:0:
320,192,136956,1,0,0:0:0:0:
64,192,137035,1,0,0:0:0:0:
448,192,137035,1,0,0:0:0:0:
320,192,137113,1,0,0:0:0:0:
64,192,137192,1,0,0:0:0:0:
192,192,137192,1,0,0:0:0:0:
448,192,137271,1,0,0:0:0:0:
320,192,137350,1,0,0:0:0:0:
192,192,137350,1,0,0:0:0:0:
64,192,137429,1,0,0:0:0:0:
448,192,137429,1,0,0:0:0:0:
320,192,137508,1,0,0:0:0:0:
192,192,137508,1,0,0:0:0:0:
64,192,137587,1,0,0:0:0:0:
320,192,137666,1,0,0:0:0:0:
448,192,137666,1,0,0:0:0:0:
192,192,137745,1,0,0:0:0:0:
64,192,137745,1,0,0:0:0:0:
320,192,137824,1,0,0:0:0:0:
448,192,137824,1,0,0:0:0:0:
192,192,137903,1,0,0:0:0:0:
64,192,137903,1,0,0:0:0:0:
320,192,137982,1,0,0:0:0:0:
448,192,137982,1,0,0:0:0:0:
192,192,138061,1,0,0:0:0:0:
64,192,138140,1,0,0:0:0:0:
448,192,138140,1,0,0:0:0:0:
320,192,138219,1,0,0:0:0:0:
448,192,138298,1,0,0:0:0:0:
192,192,138298,1,0,0:0:0:0:
64,192,138377,1,0,0:0:0:0:
192,192,138456,1,0,0:0:0:0:
320,192,138456,1,0,0:0:0:0:
448,192,138456,1,0,0:0:0:0:
64,192,138535,1,0,0:0:0:0:
320,192,138613,1,0,0:0:0:0:
448,192,138613,1,0,0:0:0:0:
192,192,138692,1,0,0:0:0:0:
64,192,138692,1,0,0:0:0:0:
320,192,138771,1,0,0:0:0:0:
448,192,138771,1,0,0:0:0:0:
192,192,138850,1,0,0:0:0:0:
64,192,138929,1,0,0:0:0:0:
448,192,138929,1,0,0:0:0:0:
320,192,139008,1,0,0:0:0:0:
192,192,139087,1,0,0:0:0:0:
64,192,139087,1,0,0:0:0:0:
448,192,139166,1,0,0:0:0:0:
192,192,139245,1,0,0:0:0:0:
64,192,139245,1,0,0:0:0:0:
320,192,139324,1,0,0:0:0:0:
192,192,139403,1,0,0:0:0:0:
448,192,139403,1,0,0:0:0:0:
64,192,139482,1,0,0:0:0:0:
192,192,139561,1,0,0:0:0:0:
320,192,139561,1,0,0:0:0:0:
448,192,139640,1,0,0:0:0:0:
192,192,139719,1,0,0:0:0:0:
64,192,139719,1,0,0:0:0:0:
320,192,139798,1,0,0:0:0:0:
64,192,139877,1,0,0:0:0:0:
448,192,139877,1,0,0:0:0:0:
320,192,139956,1,0,0:0:0:0:
192,192,139956,1,0,0:0:0:0:
64,192,140035,1,0,0:0:0:0:
448,192,140035,1,0,0:0:0:0:
192,192,140113,1,0,0:0:0:0:
320,192,140192,1,0,0:0:0:0:
448,192,140192,1,0,0:0:0:0:
64,192,140271,1,0,0:0:0:0:
192,192,140350,1,0,0:0:0:0:
320,192,140350,1,0,0:0:0:0:
448,192,140429,1,0,0:0:0:0:
320,192,140508,1,0,0:0:0:0:
64,192,140508,1,0,0:0:0:0:
192,192,140587,1,0,0:0:0:0:
448,192,140666,1,0,0:0:0:0:
64,192,140666,1,0,0:0:0:0:
320,192,140745,1,0,0:0:0:0:
192,192,140824,1,0,0:0:0:0:
448,192,140824,1,0,0:0:0:0:
64,192,140903,1,0,0:0:0:0:
320,192,140982,1,0,0:0:0:0:
448,192,140982,1,0,0:0:0:0:
192,192,141061,1,0,0:0:0:0:
64,192,141140,1,0,0:0:0:0:
320,192,141140,1,0,0:0:0:0:
448,192,141219,1,0,0:0:0:0:
192,192,141219,1,0,0:0:0:0:
320,192,141298,1,0,0:0:0:0:
64,192,141298,1,0,0:0:0:0:
448,192,141377,1,0,0:0:0:0:
192,192,141456,1,0,0:0:0:0:
64,192,141456,1,0,0:0:0:0:
320,192,141535,1,0,0:0:0:0:
448,192,141613,1,0,0:0:0:0:
192,192,141613,1,0,0:0:0:0:
64,192,141692,1,0,0:0:0:0:
320,192,141771,1,0,0:0:0:0:
192,192,141771,1,0,0:0:0:0:
448,192,141850,1,0,0:0:0:0:
192,192,141929,1,0,0:0:0:0:
64,192,141929,1,0,0:0:0:0:
320,192,142008,1,0,0:0:0:0:
448,192,142087,1,0,0:0:0:0:
64,192,142087,1,0,0:0:0:0:
320,192,142166,1,0,0:0:0:0:
192,192,142245,1,0,0:0:0:0:
64,192,142245,1,0,0:0:0:0:
320,192,142324,1,0,0:0:0:0:
448,192,142324,1,0,0:0:0:0:
192,192,142403,1,0,0:0:0:0:
64,192,142403,1,0,0:0:0:0:
320,192,142482,1,0,0:0:0:0:
448,192,142482,1,0,0:0:0:0:
192,192,142561,1,0,0:0:0:0:
64,192,142561,1,0,0:0:0:0:
448,192,142640,1,0,0:0:0:0:
192,192,142719,1,0,0:0:0:0:
64,192,142719,1,0,0:0:0:0:
448,192,142798,1,0,0:0:0:0:
320,192,142798,1,0,0:0:0:0:
64,192,142877,1,0,0:0:0:0:
192,192,142877,1,0,0:0:0:0:
448,192,142956,1,0,0:0:0:0:
320,192,142956,1,0,0:0:0:0:
192,192,143035,1,0,0:0:0:0:
64,192,143035,1,0,0:0:0:0:
320,192,143113,1,0,0:0:0:0:
192,192,143192,128,0,143271:0:0:0:0:
64,192,143192,128,0,143271:0:0:0:0:
320,192,143271,1,0,0:0:0:0:
448,192,143271,1,0,0:0:0:0:
192,192,143350,1,0,0:0:0:0:
64,192,143350,1,0,0:0:0:0:
320,192,143429,1,0,0:0:0:0:
448,192,143429,1,0,0:0:0:0:
192,192,143508,1,0,0:0:0:0:
64,192,143508,1,0,0:0:0:0:
320,192,143587,1,0,0:0:0:0:
448,192,143587,1,0,0:0:0:0:
192,192,143666,1,0,0:0:0:0:
64,192,143666,1,0,0:0:0:0:
320,192,143745,1,0,0:0:0:0:
448,192,143824,1,0,0:0:0:0:
192,192,143824,1,0,0:0:0:0:
64,192,143824,1,0,0:0:0:0:
320,192,143903,1,0,0:0:0:0:
192,192,143982,1,0,0:0:0:0:
64,192,143982,1,0,0:0:0:0:
320,192,144061,1,0,0:0:0:0:
64,192,144140,1,0,0:0:0:0:
448,192,144140,1,0,0:0:0:0:
192,192,144219,1,0,0:0:0:0:
320,192,144298,1,0,0:0:0:0:
448,192,144298,1,0,0:0:0:0:
64,192,144377,1,0,0:0:0:0:
192,192,144456,1,0,0:0:0:0:
448,192,144456,1,0,0:0:0:0:
320,192,144535,1,0,0:0:0:0:
192,192,144613,1,0,0:0:0:0:
64,192,144613,1,0,0:0:0:0:
448,192,144692,1,0,0:0:0:0:
320,192,144692,1,0,0:0:0:0:
64,192,144771,1,0,0:0:0:0:
192,192,144771,1,0,0:0:0:0:
448,192,144850,1,0,0:0:0:0:
192,192,144929,1,0,0:0:0:0:
320,192,144929,1,0,0:0:0:0:
448,192,145008,1,0,0:0:0:0:
64,192,145008,1,0,0:0:0:0:
192,192,145087,1,0,0:0:0:0:
320,192,145087,1,0,0:0:0:0:
64,192,145166,1,0,0:0:0:0:
448,192,145245,1,0,0:0:0:0:
320,192,145245,1,0,0:0:0:0:
192,192,145324,1,0,0:0:0:0:
64,192,145403,1,0,0:0:0:0:
448,192,145403,1,0,0:0:0:0:
192,192,145482,1,0,0:0:0:0:
320,192,145561,1,0,0:0:0:0:
448,192,145561,1,0,0:0:0:0:
64,192,145640,1,0,0:0:0:0:
192,192,145719,1,0,0:0:0:0:
320,192,145719,1,0,0:0:0:0:
448,192,145798,1,0,0:0:0:0:
192,192,145877,1,0,0:0:0:0:
64,192,145877,1,0,0:0:0:0:
448,192,145956,1,0,0:0:0:0:
320,192,145956,1,0,0:0:0:0:
192,192,146035,1,0,0:0:0:0:
64,192,146035,1,0,0:0:0:0:
320,192,146113,1,0,0:0:0:0:
448,192,146192,1,0,0:0:0:0:
192,192,146192,1,0,0:0:0:0:
320,192,146271,1,0,0:0:0:0:
64,192,146271,1,0,0:0:0:0:
192,192,146350,1,0,0:0:0:0:
448,192,146350,1,0,0:0:0:0:
64,192,146429,1,0,0:0:0:0:
320,192,146508,1,0,0:0:0:0:
448,192,146508,1,0,0:0:0:0:
192,192,146587,1,0,0:0:0:0:
64,192,146666,1,0,0:0:0:0:
320,192,146666,1,0,0:0:0:0:
448,192,146745,1,0,0:0:0:0:
320,192,146824,1,0,0:0:0:0:
192,192,146824,1,0,0:0:0:0:
64,192,146903,1,0,0:0:0:0:
320,192,146982,1,0,0:0:0:0:
448,192,146982,1,0,0:0:0:0:
192,192,147061,1,0,0:0:0:0:
64,192,147140,1,0,0:0:0:0:
448,192,147140,1,0,0:0:0:0:
320,192,147219,1,0,0:0:0:0:
192,192,147219,1,0,0:0:0:0:
64,192,147298,1,0,0:0:0:0:
448,192,147298,1,0,0:0:0:0:
320,192,147377,1,0,0:0:0:0:
192,192,147456,1,0,0:0:0:0:
64,192,147456,1,0,0:0:0:0:
320,192,147535,1,0,0:0:0:0:
448,192,147535,1,0,0:0:0:0:
192,192,147613,1,0,0:0:0:0:
64,192,147613,1,0,0:0:0:0:
448,192,147692,1,0,0:0:0:0:
320,192,147771,1,0,0:0:0:0:
192,192,147771,1,0,0:0:0:0:
64,192,147850,1,0,0:0:0:0:
448,192,147850,1,0,0:0:0:0:
192,192,147929,1,0,0:0:0:0:
320,192,147929,1,0,0:0:0:0:
64,192,148008,1,0,0:0:0:0:
448,192,148008,1,0,0:0:0:0:
320,192,148087,1,0,0:0:0:0:
192,192,148087,1,0,0:0:0:0:
64,192,148166,1,0,0:0:0:0:
320,192,148245,1,0,0:0:0:0:
448,192,148245,1,0,0:0:0:0:
192,192,148324,1,0,0:0:0:0:
64,192,148403,1,0,0:0:0:0:
320,192,148403,1,0,0:0:0:0:
448,192,148482,1,0,0:0:0:0:
320,192,148561,1,0,0:0:0:0:
192,192,148561,1,0,0:0:0:0:
64,192,148561,1,0,0:0:0:0:
448,192,148640,1,0,0:0:0:0:
192,192,148719,1,0,0:0:0:0:
64,192,148719,1,0,0:0:0:0:
320,192,148798,1,0,0:0:0:0:
448,192,148798,1,0,0:0:0:0:
192,192,148877,1,0,0:0:0:0:
64,192,148877,1,0,0:0:0:0:
320,192,148956,1,0,0:0:0:0:
192,192,149035,1,0,0:0:0:0:
448,192,149035,1,0,0:0:0:0:
64,192,149113,1,0,0:0:0:0:
320,192,149192,1,0,0:0:0:0:
448,192,149192,1,0,0:0:0:0:
192,192,149271,1,0,0:0:0:0:
64,192,149350,1,0,0:0:0:0:
320,192,149350,1,0,0:0:0:0:
448,192,149429,1,0,0:0:0:0:
192,192,149508,1,0,0:0:0:0:
320,192,149508,1,0,0:0:0:0:
64,192,149587,1,0,0:0:0:0:
320,192,149666,1,0,0:0:0:0:
448,192,149666,1,0,0:0:0:0:
192,192,149745,1,0,0:0:0:0:
64,192,149745,1,0,0:0:0:0:
320,192,149824,1,0,0:0:0:0:
448,192,149824,1,0,0:0:0:0:
192,192,149903,1,0,0:0:0:0:
64,192,149982,1,0,0:0:0:0:
448,192,149982,1,0,0:0:0:0:
320,192,150061,1,0,0:0:0:0:
192,192,150061,1,0,0:0:0:0:
64,192,150140,1,0,0:0:0:0:
448,192,150140,1,0,0:0:0:0:
320,192,150219,1,0,0:0:0:0:
192,192,150298,1,0,0:0:0:0:
64,192,150298,1,0,0:0:0:0:
448,192,150377,1,0,0:0:0:0:
320,192,150456,1,0,0:0:0:0:
192,192,150456,1,0,0:0:0:0:
448,192,150535,1,0,0:0:0:0:
192,192,150613,1,0,0:0:0:0:
64,192,150613,1,0,0:0:0:0:
320,192,150692,1,0,0:0:0:0:
64,192,150771,1,0,0:0:0:0:
448,192,150771,1,0,0:0:0:0:
192,192,150850,1,0,0:0:0:0:
320,192,150929,1,0,0:0:0:0:
448,192,150929,1,0,0:0:0:0:
192,192,151008,1,0,0:0:0:0:
64,192,151008,1,0,0:0:0:0:
320,192,151087,1,0,0:0:0:0:
448,192,151087,1,0,0:0:0:0:
64,192,151166,1,0,0:0:0:0:
192,192,151245,1,0,0:0:0:0:
448,192,151245,1,0,0:0:0:0:
320,192,151324,1,0,0:0:0:0:
64,192,151324,1,0,0:0:0:0:
192,192,151403,1,0,0:0:0:0:
448,192,151403,1,0,0:0:0:0:
320,192,151482,1,0,0:0:0:0:
192,192,151561,1,0,0:0:0:0:
64,192,151561,1,0,0:0:0:0:
448,192,151640,1,0,0:0:0:0:
320,192,151719,1,0,0:0:0:0:
64,192,151719,1,0,0:0:0:0:
192,192,151798,1,0,0:0:0:0:
320,192,151877,1,0,0:0:0:0:
448,192,151877,1,0,0:0:0:0:
64,192,151956,1,0,0:0:0:0:
448,192,152035,1,0,0:0:0:0:
192,192,152035,1,0,0:0:0:0:
64,192,152113,1,0,0:0:0:0:
320,192,152192,1,0,0:0:0:0:
448,192,152192,1,0,0:0:0:0:
192,192,152271,1,0,0:0:0:0:
64,192,152271,1,0,0:0:0:0:
320,192,152350,1,0,0:0:0:0:
448,192,152350,1,0,0:0:0:0:
192,192,152429,1,0,0:0:0:0:
64,192,152429,1,0,0:0:0:0:
320,192,152508,1,0,0:0:0:0:
448,192,152508,1,0,0:0:0:0:
192,192,152587,1,0,0:0:0:0:
64,192,152587,1,0,0:0:0:0:
320,192,152666,1,0,0:0:0:0:
448,192,152666,1,0,0:0:0:0:
192,192,152745,1,0,0:0:0:0:
320,192,152824,1,0,0:0:0:0:
448,192,152824,1,0,0:0:0:0:
192,192,152903,1,0,0:0:0:0:
64,192,152903,1,0,0:0:0:0:
320,192,152982,1,0,0:0:0:0:
448,192,152982,1,0,0:0:0:0:
192,192,153061,1,0,0:0:0:0:
64,192,153061,1,0,0:0:0:0:
320,192,153140,1,0,0:0:0:0:
448,192,153140,1,0,0:0:0:0:
64,192,153219,1,0,0:0:0:0:
192,192,153298,128,0,153377:0:0:0:0:
320,192,153298,128,0,153377:0:0:0:0:
64,192,153456,1,0,0:0:0:0:
448,192,153456,1,0,0:0:0:0:
320,192,153535,1,0,0:0:0:0:
192,192,153613,1,0,0:0:0:0:
64,192,153613,1,0,0:0:0:0:
448,192,153613,1,0,0:0:0:0:
320,192,153692,1,0,0:0:0:0:
192,192,153771,1,0,0:0:0:0:
64,192,153771,1,0,0:0:0:0:
320,192,153850,1,0,0:0:0:0:
448,192,153850,1,0,0:0:0:0:
192,192,153929,1,0,0:0:0:0:
64,192,153929,1,0,0:0:0:0:
448,192,154008,1,0,0:0:0:0:
320,192,154087,1,0,0:0:0:0:
192,192,154087,1,0,0:0:0:0:
64,192,154166,1,0,0:0:0:0:
448,192,154245,1,0,0:0:0:0:
192,192,154245,1,0,0:0:0:0:
320,192,154324,1,0,0:0:0:0:
64,192,154403,1,0,0:0:0:0:
192,192,154403,1,0,0:0:0:0:
448,192,154482,1,0,0:0:0:0:
320,192,154561,1,0,0:0:0:0:
192,192,154561,1,0,0:0:0:0:
64,192,154640,1,0,0:0:0:0:
320,192,154719,1,0,0:0:0:0:
448,192,154719,1,0,0:0:0:0:
192,192,154798,1,0,0:0:0:0:
64,192,154798,1,0,0:0:0:0:
320,192,154877,1,0,0:0:0:0:
448,192,154877,1,0,0:0:0:0:
192,192,154956,1,0,0:0:0:0:
64,192,155035,1,0,0:0:0:0:
448,192,155035,1,0,0:0:0:0:
320,192,155113,1,0,0:0:0:0:
192,192,155113,1,0,0:0:0:0:
64,192,155192,1,0,0:0:0:0:
448,192,155192,1,0,0:0:0:0:
320,192,155271,1,0,0:0:0:0:
192,192,155350,1,0,0:0:0:0:
64,192,155350,1,0,0:0:0:0:
448,192,155429,1,0,0:0:0:0:
320,192,155508,1,0,0:0:0:0:
64,192,155508,1,0,0:0:0:0:
192,192,155587,1,0,0:0:0:0:
448,192,155666,1,0,0:0:0:0:
64,192,155666,1,0,0:0:0:0:
320,192,155745,1,0,0:0:0:0:
192,192,155824,1,0,0:0:0:0:
448,192,155824,1,0,0:0:0:0:
64,192,155903,1,0,0:0:0:0:
320,192,155982,1,0,0:0:0:0:
448,192,155982,1,0,0:0:0:0:
192,192,156061,1,0,0:0:0:0:
64,192,156061,1,0,0:0:0:0:
320,192,156140,1,0,0:0:0:0:
448,192,156140,1,0,0:0:0:0:
192,192,156219,1,0,0:0:0:0:
64,192,156298,1,0,0:0:0:0:
320,192,156298,1,0,0:0:0:0:
192,192,156377,1,0,0:0:0:0:
448,192,156377,1,0,0:0:0:0:
64,192,156456,1,0,0:0:0:0:
320,192,156456,1,0,0:0:0:0:
448,192,156535,1,0,0:0:0:0:
192,192,156613,1,0,0:0:0:0:
64,192,156613,1,0,0:0:0:0:
320,192,156692,1,0,0:0:0:0:
192,192,156771,1,0,0:0:0:0:
448,192,156771,1,0,0:0:0:0:
64,192,156850,1,0,0:0:0:0:
192,192,156929,1,0,0:0:0:0:
320,192,156929,1,0,0:0:0:0:
448,192,157008,1,0,0:0:0:0:
192,192,157087,1,0,0:0:0:0:
64,192,157087,1,0,0:0:0:0:
320,192,157166,1,0,0:0:0:0:
448,192,157245,1,0,0:0:0:0:
64,192,157245,1,0,0:0:0:0:
320,192,157324,1,0,0:0:0:0:
192,192,157324,1,0,0:0:0:0:
64,192,157403,1,0,0:0:0:0:
448,192,157403,1,0,0:0:0:0:
192,192,157482,1,0,0:0:0:0:
320,192,157561,1,0,0:0:0:0:
448,192,157561,1,0,0:0:0:0:
192,192,157640,1,0,0:0:0:0:
64,192,157640,1,0,0:0:0:0:
320,192,157719,1,0,0:0:0:0:
448,192,157719,1,0,0:0:0:0:
64,192,157798,1,0,0:0:0:0:
192,192,157877,1,0,0:0:0:0:
320,192,157877,1,0,0:0:0:0:
448,192,157956,1,0,0:0:0:0:
64,192,157956,1,0,0:0:0:0:
320,192,158035,1,0,0:0:0:0:
192,192,158035,1,0,0:0:0:0:
64,192,158113,1,0,0:0:0:0:
448,192,158113,1,0,0:0:0:0:
320,192,158192,1,0,0:0:0:0:
192,192,158192,1,0,0:0:0:0:
448,192,158271,1,0,0:0:0:0:
192,192,158350,1,0,0:0:0:0:
64,192,158350,1,0,0:0:0:0:
320,192,158429,1,0,0:0:0:0:
64,192,158508,1,0,0:0:0:0:
448,192,158508,1,0,0:0:0:0:
192,192,158587,1,0,0:0:0:0:
64,192,158666,1,0,0:0:0:0:
320,192,158666,1,0,0:0:0:0:
448,192,158666,1,0,0:0:0:0:
192,192,158745,1,0,0:0:0:0:
320,192,158824,1,0,0:0:0:0:
448,192,158824,1,0,0:0:0:0:
192,192,158903,1,0,0:0:0:0:
64,192,158903,1,0,0:0:0:0:
320,192,158982,1,0,0:0:0:0:
448,192,158982,1,0,0:0:0:0:
192,192,159061,1,0,0:0:0:0:
320,192,159140,1,0,0:0:0:0:
64,192,159140,1,0,0:0:0:0:
448,192,159219,1,0,0:0:0:0:
320,192,159298,1,0,0:0:0:0:
192,192,159298,1,0,0:0:0:0:
64,192,159377,1,0,0:0:0:0:
320,192,159456,1,0,0:0:0:0:
448,192,159456,1,0,0:0:0:0:
192,192,159535,1,0,0:0:0:0:
320,192,159613,1,0,0:0:0:0:
64,192,159613,1,0,0:0:0:0:
192,192,159692,1,0,0:0:0:0:
320,192,159771,1,0,0:0:0:0:
448,192,159771,1,0,0:0:0:0:
64,192,159850,1,0,0:0:0:0:
192,192,159850,1,0,0:0:0:0:
320,192,159929,1,0,0:0:0:0:
448,192,159929,1,0,0:0:0:0:
64,192,160008,1,0,0:0:0:0:
192,192,160087,1,0,0:0:0:0:
320,192,160087,1,0,0:0:0:0:
448,192,160166,1,0,0:0:0:0:
64,192,160166,1,0,0:0:0:0:
192,192,160245,1,0,0:0:0:0:
320,192,160245,1,0,0:0:0:0:
448,192,160324,1,0,0:0:0:0:
192,192,160403,1,0,0:0:0:0:
64,192,160403,1,0,0:0:0:0:
320,192,160482,1,0,0:0:0:0:
192,192,160561,1,0,0:0:0:0:
448,192,160561,1,0,0:0:0:0:
320,192,160640,1,0,0:0:0:0:
192,192,160719,1,0,0:0:0:0:
64,192,160719,1,0,0:0:0:0:
448,192,160798,1,0,0:0:0:0:
192,192,160877,1,0,0:0:0:0:
320,192,160877,1,0,0:0:0:0:
64,192,160956,1,0,0:0:0:0:
192,192,161035,1,0,0:0:0:0:
448,192,161035,1,0,0:0:0:0:
320,192,161113,1,0,0:0:0:0:
192,192,161192,1,0,0:0:0:0:
64,192,161192,1,0,0:0:0:0:
320,192,161271,1,0,0:0:0:0:
448,192,161271,1,0,0:0:0:0:
192,192,161350,1,0,0:0:0:0:
64,192,161350,1,0,0:0:0:0:
448,192,161429,1,0,0:0:0:0:
320,192,161429,1,0,0:0:0:0:
64,192,161508,1,0,0:0:0:0:
192,192,161508,1,0,0:0:0:0:
320,192,161587,1,0,0:0:0:0:
448,192,161587,1,0,0:0:0:0:
192,192,161666,1,0,0:0:0:0:
64,192,161666,1,0,0:0:0:0:
448,192,161745,1,0,0:0:0:0:
320,192,161745,1,0,0:0:0:0:
64,192,161824,1,0,0:0:0:0:
192,192,161824,1,0,0:0:0:0:
320,192,161903,1,0,0:0:0:0:
448,192,161903,1,0,0:0:0:0:
192,192,161982,1,0,0:0:0:0:
64,192,161982,1,0,0:0:0:0:
448,192,162061,1,0,0:0:0:0:
320,192,162061,1,0,0:0:0:0:
64,192,162140,1,0,0:0:0:0:
192,192,162140,1,0,0:0:0:0:
320,192,162219,1,0,0:0:0:0:
448,192,162219,1,0,0:0:0:0:
192,192,162298,1,0,0:0:0:0:
64,192,162298,1,0,0:0:0:0:
448,192,162377,1,0,0:0:0:0:
320,192,162377,1,0,0:0:0:0:
192,192,162456,1,0,0:0:0:0:
64,192,162456,1,0,0:0:0:0:
320,192,162535,1,0,0:0:0:0:
448,192,162535,1,0,0:0:0:0:
64,192,162613,1,0,0:0:0:0:
192,192,162613,1,0,0:0:0:0:
320,192,162692,1,0,0:0:0:0:
448,192,162692,1,0,0:0:0:0:
192,192,162771,1,0,0:0:0:0:
64,192,162771,1,0,0:0:0:0:
448,192,162850,1,0,0:0:0:0:
192,192,162929,1,0,0:0:0:0:
64,192,162929,1,0,0:0:0:0:
320,192,163008,1,0,0:0:0:0:
448,192,163008,1,0,0:0:0:0:
192,192,163087,1,0,0:0:0:0:
64,192,163087,1,0,0:0:0:0:
320,192,163166,1,0,0:0:0:0:
448,192,163166,1,0,0:0:0:0:
192,192,163245,1,0,0:0:0:0:
64,192,163245,1,0,0:0:0:0:
320,192,163324,1,0,0:0:0:0:
64,192,163403,128,0,163482:0:0:0:0:
448,192,163403,128,0,163482:0:0:0:0:
320,192,163561,1,0,0:0:0:0:
192,192,163640,1,0,0:0:0:0:
320,192,163719,1,0,0:0:0:0:
448,192,163719,1,0,0:0:0:0:
64,192,163719,128,0,164192:0:0:0:0:
192,192,163877,1,0,0:0:0:0:
448,192,164035,1,0,0:0:0:0:
192,192,164192,128,0,164508:0:0:0:0:
320,192,164350,1,0,0:0:0:0:
64,192,164508,128,0,164666:0:0:0:0:
320,192,164666,128,0,164982:0:0:0:0:
448,192,164666,1,0,0:0:0:0:
192,192,164824,1,0,0:0:0:0:
64,192,164982,1,0,0:0:0:0:
448,192,164982,1,0,0:0:0:0:
192,192,165140,1,0,0:0:0:0:
320,192,165298,1,0,0:0:0:0:
192,192,165456,1,0,0:0:0:0:
448,192,165613,1,0,0:0:0:0:
192,192,165771,1,0,0:0:0:0:
320,192,165929,1,0,0:0:0:0:
192,192,166087,1,0,0:0:0:0:
64,192,166087,1,0,0:0:0:0:
320,192,166245,128,0,166403:0:0:0:0:
448,192,166245,1,0,0:0:0:0:
64,192,166324,1,0,0:0:0:0:
192,192,166403,128,0,166561:0:0:0:0:
320,192,166482,1,0,0:0:0:0:
448,192,166561,128,0,166719:0:0:0:0:
64,192,166561,1,0,0:0:0:0:
320,192,166719,128,0,167035:0:0:0:0:
64,192,166877,1,0,0:0:0:0:
192,192,167035,128,0,167192:0:0:0:0:
64,192,167192,128,0,167508:0:0:0:0:
448,192,167192,1,0,0:0:0:0:
320,192,167350,1,0,0:0:0:0:
192,192,167508,1,0,0:0:0:0:
448,192,167666,1,0,0:0:0:0:
320,192,167824,1,0,0:0:0:0:
448,192,167982,1,0,0:0:0:0:
64,192,168140,1,0,0:0:0:0:
448,192,168298,1,0,0:0:0:0:
320,192,168456,1,0,0:0:0:0:
448,192,168613,1,0,0:0:0:0:
64,192,168771,128,0,169245:0:0:0:0:
192,192,168771,1,0,0:0:0:0:
320,192,168850,1,0,0:0:0:0:
448,192,168929,1,0,0:0:0:0:
192,192,169008,1,0,0:0:0:0:
320,192,169087,1,0,0:0:0:0:
448,192,169087,1,0,0:0:0:0:
192,192,169245,128,0,169561:0:0:0:0:
448,192,169403,1,0,0:0:0:0:
64,192,169561,128,0,169719:0:0:0:0:
320,192,169719,128,0,170035:0:0:0:0:
448,192,169719,1,0,0:0:0:0:
192,192,169877,1,0,0:0:0:0:
64,192,170035,1,0,0:0:0:0:
448,192,170035,1,0,0:0:0:0:
192,192,170192,1,0,0:0:0:0:
320,192,170350,1,0,0:0:0:0:
192,192,170508,1,0,0:0:0:0:
448,192,170666,1,0,0:0:0:0:
192,192,170824,1,0,0:0:0:0:
320,192,170982,1,0,0:0:0:0:
192,192,171140,1,0,0:0:0:0:
320,192,171298,128,0,171456:0:0:0:0:
64,192,171298,1,0,0:0:0:0:
448,192,171377,1,0,0:0:0:0:
192,192,171456,128,0,171613:0:0:0:0:
64,192,171535,1,0,0:0:0:0:
448,192,171613,128,0,171771:0:0:0:0:
320,192,171613,1,0,0:0:0:0:
320,192,171771,128,0,172087:0:0:0:0:
64,192,171929,1,0,0:0:0:0:
192,192,172087,128,0,172245:0:0:0:0:
64,192,172245,128,0,172561:0:0:0:0:
448,192,172245,1,0,0:0:0:0:
320,192,172403,1,0,0:0:0:0:
192,192,172561,1,0,0:0:0:0:
448,192,172561,1,0,0:0:0:0:
320,192,172719,1,0,0:0:0:0:
64,192,172877,1,0,0:0:0:0:
320,192,173035,1,0,0:0:0:0:
448,192,173192,1,0,0:0:0:0:
320,192,173350,1,0,0:0:0:0:
64,192,173508,1,0,0:0:0:0:
320,192,173666,1,0,0:0:0:0:
448,192,173745,1,0,0:0:0:0:
64,192,173824,128,0,174298:0:0:0:0:
192,192,173824,1,0,0:0:0:0:
320,192,173903,1,0,0:0:0:0:
448,192,173982,1,0,0:0:0:0:
192,192,174061,1,0,0:0:0:0:
320,192,174140,1,0,0:0:0:0:
448,192,174140,1,0,0:0:0:0:
192,192,174298,128,0,174613:0:0:0:0:
448,192,174456,1,0,0:0:0:0:
64,192,174613,128,0,174771:0:0:0:0:
320,192,174771,128,0,175087:0:0:0:0:
192,192,174929,1,0,0:0:0:0:
64,192,175087,1,0,0:0:0:0:
448,192,175087,1,0,0:0:0:0:
192,192,175245,1,0,0:0:0:0:
320,192,175403,1,0,0:0:0:0:
192,192,175561,1,0,0:0:0:0:
448,192,175719,1,0,0:0:0:0:
192,192,175877,1,0,0:0:0:0:
320,192,176035,1,0,0:0:0:0:
192,192,176192,1,0,0:0:0:0:
64,192,176192,1,0,0:0:0:0:
320,192,176350,128,0,176508:0:0:0:0:
448,192,176350,1,0,0:0:0:0:
64,192,176429,1,0,0:0:0:0:
192,192,176508,128,0,176666:0:0:0:0:
320,192,176587,1,0,0:0:0:0:
448,192,176666,128,0,176824:0:0:0:0:
64,192,176666,1,0,0:0:0:0:
320,192,176824,128,0,177140:0:0:0:0:
64,192,176982,1,0,0:0:0:0:
192,192,177140,128,0,177298:0:0:0:0:
64,192,177298,128,0,177613:0:0:0:0:
448,192,177298,1,0,0:0:0:0:
320,192,177456,1,0,0:0:0:0:
192,192,177613,1,0,0:0:0:0:
448,192,177771,1,0,0:0:0:0:
320,192,177929,1,0,0:0:0:0:
448,192,178087,1,0,0:0:0:0:
64,192,178245,1,0,0:0:0:0:
448,192,178403,1,0,0:0:0:0:
320,192,178561,1,0,0:0:0:0:
448,192,178719,1,0,0:0:0:0:
64,192,178877,128,0,179350:0:0:0:0:
192,192,178877,1,0,0:0:0:0:
320,192,178956,1,0,0:0:0:0:
448,192,179035,1,0,0:0:0:0:
192,192,179113,1,0,0:0:0:0:
320,192,179192,1,0,0:0:0:0:
448,192,179192,1,0,0:0:0:0:
192,192,179350,128,0,179666:0:0:0:0:
448,192,179508,1,0,0:0:0:0:
64,192,179666,128,0,179824:0:0:0:0:
320,192,179824,128,0,180140:0:0:0:0:
448,192,179824,1,0,0:0:0:0:
192,192,179982,1,0,0:0:0:0:
64,192,180140,1,0,0:0:0:0:
448,192,180140,1,0,0:0:0:0:
192,192,180298,1,0,0:0:0:0:
320,192,180456,1,0,0:0:0:0:
192,192,180613,1,0,0:0:0:0:
448,192,180771,1,0,0:0:0:0:
192,192,180929,1,0,0:0:0:0:
320,192,181087,1,0,0:0:0:0:
192,192,181245,1,0,0:0:0:0:
320,192,181403,128,0,181561:0:0:0:0:
64,192,181403,1,0,0:0:0:0:
448,192,181482,1,0,0:0:0:0:
192,192,181561,128,0,181719:0:0:0:0:
64,192,181640,1,0,0:0:0:0:
448,192,181719,128,0,181877:0:0:0:0:
320,192,181719,1,0,0:0:0:0:
320,192,181877,128,0,182192:0:0:0:0:
64,192,182035,1,0,0:0:0:0:
192,192,182192,128,0,182350:0:0:0:0:
64,192,182350,128,0,182666:0:0:0:0:
448,192,182350,1,0,0:0:0:0:
320,192,182508,1,0,0:0:0:0:
192,192,182666,1,0,0:0:0:0:
448,192,182666,1,0,0:0:0:0:
320,192,182824,1,0,0:0:0:0:
64,192,182982,1,0,0:0:0:0:
320,192,183140,1,0,0:0:0:0:
448,192,183298,1,0,0:0:0:0:
320,192,183456,1,0,0:0:0:0:
64,192,183613,1,0,0:0:0:0:
320,192,183771,1,0,0:0:0:0:
192,192,183850,1,0,0:0:0:0:
320,192,183929,1,0,0:0:0:0:
448,192,183929,1,0,0:0:0:0:
64,192,183929,1,0,0:0:0:0:
192,192,184008,1,0,0:0:0:0:
448,192,184087,1,0,0:0:0:0:
64,192,184166,1,0,0:0:0:0:
192,192,184245,1,0,0:0:0:0:
320,192,184245,1,0,0:0:0:0:
448,192,184324,1,0,0:0:0:0:
64,192,184403,1,0,0:0:0:0:
320,192,184482,1,0,0:0:0:0:
192,192,184561,1,0,0:0:0:0:
448,192,184561,1,0,0:0:0:0:
64,192,184640,1,0,0:0:0:0:
320,192,184719,1,0,0:0:0:0:
192,192,184798,1,0,0:0:0:0:
64,192,184877,1,0,0:0:0:0:
448,192,184877,1,0,0:0:0:0:
320,192,184956,1,0,0:0:0:0:
192,192,185035,1,0,0:0:0:0:
448,192,185113,1,0,0:0:0:0:
320,192,185192,1,0,0:0:0:0:
64,192,185192,1,0,0:0:0:0:
192,192,185271,1,0,0:0:0:0:
448,192,185350,1,0,0:0:0:0:
64,192,185429,1,0,0:0:0:0:
192,192,185508,1,0,0:0:0:0:
320,192,185508,1,0,0:0:0:0:
448,192,185587,1,0,0:0:0:0:
64,192,185666,1,0,0:0:0:0:
320,192,185745,1,0,0:0:0:0:
192,192,185824,1,0,0:0:0:0:
448,192,185824,1,0,0:0:0:0:
64,192,185903,1,0,0:0:0:0:
320,192,185982,1,0,0:0:0:0:
448,192,186061,1,0,0:0:0:0:
64,192,186140,1,0,0:0:0:0:
320,192,186140,1,0,0:0:0:0:
192,192,186219,1,0,0:0:0:0:
448,192,186298,1,0,0:0:0:0:
64,192,186377,1,0,0:0:0:0:
320,192,186456,1,0,0:0:0:0:
192,192,186456,1,0,0:0:0:0:
448,192,186535,1,0,0:0:0:0:
64,192,186613,1,0,0:0:0:0:
320,192,186692,1,0,0:0:0:0:
192,192,186771,1,0,0:0:0:0:
448,192,186771,1,0,0:0:0:0:
64,192,186850,1,0,0:0:0:0:
320,192,186929,1,0,0:0:0:0:
448,192,187008,1,0,0:0:0:0:
192,192,187087,1,0,0:0:0:0:
64,192,187087,1,0,0:0:0:0:
320,192,187166,1,0,0:0:0:0:
64,192,187245,1,0,0:0:0:0:
448,192,187324,1,0,0:0:0:0:
320,192,187403,1,0,0:0:0:0:
192,192,187403,1,0,0:0:0:0:
64,192,187482,1,0,0:0:0:0:
448,192,187561,1,0,0:0:0:0:
320,192,187640,1,0,0:0:0:0:
192,192,187719,1,0,0:0:0:0:
64,192,187719,1,0,0:0:0:0:
320,192,187798,1,0,0:0:0:0:
448,192,187877,1,0,0:0:0:0:
192,192,187956,1,0,0:0:0:0:
64,192,188035,1,0,0:0:0:0:
448,192,188035,1,0,0:0:0:0:
320,192,188113,1,0,0:0:0:0:
192,192,188192,1,0,0:0:0:0:
64,192,188271,1,0,0:0:0:0:
320,192,188350,1,0,0:0:0:0:
448,192,188350,1,0,0:0:0:0:
192,192,188429,1,0,0:0:0:0:
448,192,188508,1,0,0:0:0:0:
64,192,188587,1,0,0:0:0:0:
192,192,188666,1,0,0:0:0:0:
320,192,188666,1,0,0:0:0:0:
448,192,188745,1,0,0:0:0:0:
320,192,188824,1,0,0:0:0:0:
192,192,188903,1,0,0:0:0:0:
64,192,188982,1,0,0:0:0:0:
448,192,188982,1,0,0:0:0:0:
320,192,189061,1,0,0:0:0:0:
192,192,189140,1,0,0:0:0:0:
448,192,189219,1,0,0:0:0:0:
320,192,189298,1,0,0:0:0:0:
64,192,189298,1,0,0:0:0:0:
192,192,189377,1,0,0:0:0:0:
448,192,189456,1,0,0:0:0:0:
64,192,189535,1,0,0:0:0:0:
192,192,189613,1,0,0:0:0:0:
320,192,189613,1,0,0:0:0:0:
448,192,189692,1,0,0:0:0:0:
64,192,189771,1,0,0:0:0:0:
320,192,189850,1,0,0:0:0:0:
192,192,189929,1,0,0:0:0:0:
448,192,189929,1,0,0:0:0:0:
64,192,190008,1,0,0:0:0:0:
448,192,190087,1,0,0:0:0:0:
320,192,190166,1,0,0:0:0:0:
192,192,190245,1,0,0:0:0:0:
64,192,190245,1,0,0:0:0:0:
320,192,190324,1,0,0:0:0:0:
448,192,190403,1,0,0:0:0:0:
64,192,190482,1,0,0:0:0:0:
192,192,190561,1,0,0:0:0:0:
448,192,190561,1,0,0:0:0:0:
320,192,190640,1,0,0:0:0:0:
192,192,190719,1,0,0:0:0:0:
64,192,190798,1,0,0:0:0:0:
320,192,190877,1,0,0:0:0:0:
448,192,190877,1,0,0:0:0:0:
192,192,190956,1,0,0:0:0:0:
448,192,191035,1,0,0:0:0:0:
64,192,191113,1,0,0:0:0:0:
192,192,191192,1,0,0:0:0:0:
320,192,191192,1,0,0:0:0:0:
64,192,191271,1,0,0:0:0:0:
448,192,191350,1,0,0:0:0:0:
192,192,191429,1,0,0:0:0:0:
64,192,191508,1,0,0:0:0:0:
448,192,191508,1,0,0:0:0:0:
320,192,191587,1,0,0:0:0:0:
192,192,191666,1,0,0:0:0:0:
448,192,191745,1,0,0:0:0:0:
320,192,191824,1,0,0:0:0:0:
64,192,191824,1,0,0:0:0:0:
192,192,191903,1,0,0:0:0:0:
448,192,191982,1,0,0:0:0:0:
320,192,192061,1,0,0:0:0:0:
64,192,192140,1,0,0:0:0:0:
192,192,192140,1,0,0:0:0:0:
448,192,192219,1,0,0:0:0:0:
64,192,192298,1,0,0:0:0:0:
320,192,192377,1,0,0:0:0:0:
192,192,192456,1,0,0:0:0:0:
448,192,192456,1,0,0:0:0:0:
64,192,192535,1,0,0:0:0:0:
320,192,192613,1,0,0:0:0:0:
448,192,192692,1,0,0:0:0:0:
192,192,192771,1,0,0:0:0:0:
64,192,192771,1,0,0:0:0:0:
320,192,192850,1,0,0:0:0:0:
192,192,192929,1,0,0:0:0:0:
64,192,193008,1,0,0:0:0:0:
320,192,193087,1,0,0:0:0:0:
448,192,193087,1,0,0:0:0:0:
192,192,193166,1,0,0:0:0:0:
448,192,193245,1,0,0:0:0:0:
64,192,193324,1,0,0:0:0:0:
192,192,193403,1,0,0:0:0:0:
320,192,193403,1,0,0:0:0:0:
64,192,193482,1,0,0:0:0:0:
320,192,193561,1,0,0:0:0:0:
448,192,193561,1,0,0:0:0:0:
192,192,193640,1,0,0:0:0:0:
64,192,193640,1,0,0:0:0:0:
320,192,193719,1,0,0:0:0:0:
448,192,193719,1,0,0:0:0:0:
192,192,193798,1,0,0:0:0:0:
64,192,193798,1,0,0:0:0:0:
320,192,193877,1,0,0:0:0:0:
448,192,193877,1,0,0:0:0:0:
192,192,193956,1,0,0:0:0:0:
64,192,194035,1,0,0:0:0:0:
448,192,194035,1,0,0:0:0:0:
320,192,194113,1,0,0:0:0:0:
192,192,194192,1,0,0:0:0:0:
320,192,194271,1,0,0:0:0:0:
448,192,194350,1,0,0:0:0:0:
64,192,194350,1,0,0:0:0:0:
320,192,194429,1,0,0:0:0:0:
192,192,194508,1,0,0:0:0:0:
320,192,194587,1,0,0:0:0:0:
448,192,194666,1,0,0:0:0:0:
64,192,194666,1,0,0:0:0:0:
320,192,194745,1,0,0:0:0:0:
192,192,194824,1,0,0:0:0:0:
320,192,194903,1,0,0:0:0:0:
448,192,194982,1,0,0:0:0:0:
64,192,194982,1,0,0:0:0:0:
320,192,195061,1,0,0:0:0:0:
192,192,195140,1,0,0:0:0:0:
320,192,195219,1,0,0:0:0:0:
64,192,195298,1,0,0:0:0:0:
448,192,195298,1,0,0:0:0:0:
192,192,195377,1,0,0:0:0:0:
320,192,195456,1,0,0:0:0:0:
192,192,195535,1,0,0:0:0:0:
64,192,195613,1,0,0:0:0:0:
448,192,195613,1,0,0:0:0:0:
192,192,195692,1,0,0:0:0:0:
320,192,195771,1,0,0:0:0:0:
192,192,195850,1,0,0:0:0:0:
64,192,195929,1,0,0:0:0:0:
448,192,195929,1,0,0:0:0:0:
192,192,196008,1,0,0:0:0:0:
320,192,196087,1,0,0:0:0:0:
192,192,196166,1,0,0:0:0:0:
64,192,196245,1,0,0:0:0:0:
448,192,196245,1,0,0:0:0:0:
192,192,196324,1,0,0:0:0:0:
320,192,196403,1,0,0:0:0:0:
192,192,196482,1,0,0:0:0:0:
64,192,196561,1,0,0:0:0:0:
448,192,196561,1,0,0:0:0:0:
320,192,196640,1,0,0:0:0:0:
192,192,196719,1,0,0:0:0:0:
448,192,196798,1,0,0:0:0:0:
320,192,196877,1,0,0:0:0:0:
64,192,196877,1,0,0:0:0:0:
448,192,196956,1,0,0:0:0:0:
192,192,197035,1,0,0:0:0:0:
320,192,197113,1,0,0:0:0:0:
448,192,197192,1,0,0:0:0:0:
64,192,197192,1,0,0:0:0:0:
192,192,197271,1,0,0:0:0:0:
320,192,197350,1,0,0:0:0:0:
64,192,197429,1,0,0:0:0:0:
192,192,197508,1,0,0:0:0:0:
448,192,197508,1,0,0:0:0:0:
64,192,197587,1,0,0:0:0:0:
320,192,197666,1,0,0:0:0:0:
192,192,197745,1,0,0:0:0:0:
64,192,197824,1,0,0:0:0:0:
448,192,197824,1,0,0:0:0:0:
320,192,197903,1,0,0:0:0:0:
192,192,197982,1,0,0:0:0:0:
64,192,198061,1,0,0:0:0:0:
192,192,198140,1,0,0:0:0:0:
320,192,198140,1,0,0:0:0:0:
448,192,198219,1,0,0:0:0:0:
320,192,198298,1,0,0:0:0:0:
192,192,198377,1,0,0:0:0:0:
64,192,198456,1,0,0:0:0:0:
448,192,198456,1,0,0:0:0:0:
192,192,198535,1,0,0:0:0:0:
320,192,198613,1,0,0:0:0:0:
448,192,198692,1,0,0:0:0:0:
320,192,198771,1,0,0:0:0:0:
192,192,198771,1,0,0:0:0:0:
64,192,198850,1,0,0:0:0:0:
192,192,198929,1,0,0:0:0:0:
320,192,199008,1,0,0:0:0:0:
448,192,199087,1,0,0:0:0:0:
64,192,199087,1,0,0:0:0:0:
192,192,199166,1,0,0:0:0:0:
320,192,199245,1,0,0:0:0:0:
448,192,199245,1,0,0:0:0:0:
64,192,199324,1,0,0:0:0:0:
448,192,199403,1,0,0:0:0:0:
192,192,199403,1,0,0:0:0:0:
64,192,199482,1,0,0:0:0:0:
320,192,199561,1,0,0:0:0:0:
448,192,199561,1,0,0:0:0:0:
192,192,199640,1,0,0:0:0:0:
64,192,199719,1,0,0:0:0:0:
320,192,199719,1,0,0:0:0:0:
192,192,199798,1,0,0:0:0:0:
320,192,199877,1,0,0:0:0:0:
448,192,199877,1,0,0:0:0:0:
64,192,199956,1,0,0:0:0:0:
192,192,200035,1,0,0:0:0:0:
448,192,200035,1,0,0:0:0:0:
64,192,200113,1,0,0:0:0:0:
320,192,200192,1,0,0:0:0:0:
192,192,200192,1,0,0:0:0:0:
448,192,200271,1,0,0:0:0:0:
320,192,200350,1,0,0:0:0:0:
64,192,200350,1,0,0:0:0:0:
448,192,200429,1,0,0:0:0:0:
192,192,200508,1,0,0:0:0:0:
64,192,200508,1,0,0:0:0:0:
320,192,200587,1,0,0:0:0:0:
448,192,200666,1,0,0:0:0:0:
192,192,200666,1,0,0:0:0:0:
320,192,200745,1,0,0:0:0:0:
192,192,200824,1,0,0:0:0:0:
64,192,200824,1,0,0:0:0:0:
448,192,200903,1,0,0:0:0:0:
320,192,200982,1,0,0:0:0:0:
64,192,200982,1,0,0:0:0:0:
448,192,201061,1,0,0:0:0:0:
192,192,201140,1,0,0:0:0:0:
64,192,201140,1,0,0:0:0:0:
320,192,201219,1,0,0:0:0:0:
192,192,201298,1,0,0:0:0:0:
448,192,201298,1,0,0:0:0:0:
64,192,201377,1,0,0:0:0:0:
192,192,201456,1,0,0:0:0:0:
320,192,201456,1,0,0:0:0:0:
448,192,201535,1,0,0:0:0:0:
192,192,201613,1,0,0:0:0:0:
64,192,201613,1,0,0:0:0:0:
320,192,201692,1,0,0:0:0:0:
448,192,201692,1,0,0:0:0:0:
64,192,201771,1,0,0:0:0:0:
192,192,201771,1,0,0:0:0:0:
320,192,201850,1,0,0:0:0:0:
448,192,201850,1,0,0:0:0:0:
192,192,201929,1,0,0:0:0:0:
64,192,201929,1,0,0:0:0:0:
448,192,202008,1,0,0:0:0:0:
320,192,202008,1,0,0:0:0:0:
64,192,202087,1,0,0:0:0:0:
192,192,202087,1,0,0:0:0:0:
320,192,202166,1,0,0:0:0:0:
448,192,202166,1,0,0:0:0:0:
192,192,202245,1,0,0:0:0:0:
64,192,202245,1,0,0:0:0:0:
448,192,202324,1,0,0:0:0:0:
320,192,202324,1,0,0:0:0:0:
64,192,202403,1,0,0:0:0:0:
192,192,202403,1,0,0:0:0:0:
320,192,202482,1,0,0:0:0:0:
448,192,202482,1,0,0:0:0:0:
192,192,202561,1,0,0:0:0:0:
64,192,202561,1,0,0:0:0:0:
448,192,202640,1,0,0:0:0:0:
320,192,202640,1,0,0:0:0:0:
64,192,202719,1,0,0:0:0:0:
192,192,202719,1,0,0:0:0:0:
320,192,202798,1,0,0:0:0:0:
448,192,202798,1,0,0:0:0:0:
192,192,202877,1,0,0:0:0:0:
64,192,202877,1,0,0:0:0:0:
320,192,203035,128,0,203192:0:0:0:0:
192,192,203113,1,0,0:0:0:0:
448,192,203192,128,0,203350:0:0:0:0:
320,192,203350,1,0,0:0:0:0:
64,192,203429,1,0,0:0:0:0:
448,192,203508,1,0,0:0:0:0:
192,192,203587,1,0,0:0:0:0:
320,192,203666,1,0,0:0:0:0:
448,192,203666,1,0,0:0:0:0:
192,192,203745,1,0,0:0:0:0:
64,192,203745,1,0,0:0:0:0:
448,192,203824,1,0,0:0:0:0:
320,192,203824,128,0,203982:0:0:0:0:
192,192,203982,128,0,204140:0:0:0:0:
64,192,204140,1,0,0:0:0:0:
320,192,204140,1,0,0:0:0:0:
448,192,204140,1,0,0:0:0:0:
192,192,204219,1,0,0:0:0:0:
320,192,204298,1,0,0:0:0:0:
448,192,204298,1,0,0:0:0:0:
192,192,204377,1,0,0:0:0:0:
64,192,204377,1,0,0:0:0:0:
320,192,204456,1,0,0:0:0:0:
448,192,204456,1,0,0:0:0:0:
64,192,204535,1,0,0:0:0:0:
192,192,204613,1,0,0:0:0:0:
448,192,204613,1,0,0:0:0:0:
320,192,204692,1,0,0:0:0:0:
448,192,204771,1,0,0:0:0:0:
64,192,204771,1,0,0:0:0:0:
192,192,204850,1,0,0:0:0:0:
320,192,204929,1,0,0:0:0:0:
448,192,204929,1,0,0:0:0:0:
192,192,205008,1,0,0:0:0:0:
64,192,205008,1,0,0:0:0:0:
320,192,205087,1,0,0:0:0:0:
448,192,205087,1,0,0:0:0:0:
64,192,205166,1,0,0:0:0:0:
192,192,205245,1,0,0:0:0:0:
320,192,205245,1,0,0:0:0:0:
64,192,205324,1,0,0:0:0:0:
320,192,205403,1,0,0:0:0:0:
448,192,205403,1,0,0:0:0:0:
192,192,205482,1,0,0:0:0:0:
64,192,205561,1,0,0:0:0:0:
448,192,205561,1,0,0:0:0:0:
320,192,205640,1,0,0:0:0:0:
192,192,205640,1,0,0:0:0:0:
64,192,205719,1,0,0:0:0:0:
448,192,205719,1,0,0:0:0:0:
320,192,205798,1,0,0:0:0:0:
192,192,205877,1,0,0:0:0:0:
64,192,205877,1,0,0:0:0:0:
320,192,205956,1,0,0:0:0:0:
64,192,206035,1,0,0:0:0:0:
448,192,206035,1,0,0:0:0:0:
192,192,206113,1,0,0:0:0:0:
320,192,206192,1,0,0:0:0:0:
448,192,206192,1,0,0:0:0:0:
192,192,206271,1,0,0:0:0:0:
64,192,206271,1,0,0:0:0:0:
320,192,206350,1,0,0:0:0:0:
448,192,206350,1,0,0:0:0:0:
64,192,206429,1,0,0:0:0:0:
192,192,206508,1,0,0:0:0:0:
320,192,206508,1,0,0:0:0:0:
448,192,206587,1,0,0:0:0:0:
64,192,206666,1,0,0:0:0:0:
192,192,206666,1,0,0:0:0:0:
320,192,206745,1,0,0:0:0:0:
448,192,206824,1,0,0:0:0:0:
192,192,206824,1,0,0:0:0:0:
64,192,206903,1,0,0:0:0:0:
320,192,206903,1,0,0:0:0:0:
448,192,206982,1,0,0:0:0:0:
192,192,206982,1,0,0:0:0:0:
64,192,207061,1,0,0:0:0:0:
320,192,207140,1,0,0:0:0:0:
448,192,207140,1,0,0:0:0:0:
192,192,207219,1,0,0:0:0:0:
64,192,207298,1,0,0:0:0:0:
320,192,207298,1,0,0:0:0:0:
192,192,207377,1,0,0:0:0:0:
320,192,207456,1,0,0:0:0:0:
448,192,207456,1,0,0:0:0:0:
192,192,207535,1,0,0:0:0:0:
64,192,207535,1,0,0:0:0:0:
320,192,207613,1,0,0:0:0:0:
448,192,207613,1,0,0:0:0:0:
64,192,207692,1,0,0:0:0:0:
192,192,207771,1,0,0:0:0:0:
320,192,207771,1,0,0:0:0:0:
448,192,207850,1,0,0:0:0:0:
320,192,207929,1,0,0:0:0:0:
64,192,207929,1,0,0:0:0:0:
192,192,208008,1,0,0:0:0:0:
320,192,208087,1,0,0:0:0:0:
448,192,208087,1,0,0:0:0:0:
192,192,208166,1,0,0:0:0:0:
64,192,208166,1,0,0:0:0:0:
320,192,208245,1,0,0:0:0:0:
448,192,208245,1,0,0:0:0:0:
64,192,208324,1,0,0:0:0:0:
192,192,208403,1,0,0:0:0:0:
320,192,208403,1,0,0:0:0:0:
448,192,208482,1,0,0:0:0:0:
64,192,208482,1,0,0:0:0:0:
320,192,208561,1,0,0:0:0:0:
192,192,208561,1,0,0:0:0:0:
448,192,208640,1,0,0:0:0:0:
64,192,208640,1,0,0:0:0:0:
320,192,208719,1,0,0:0:0:0:
192,192,208719,1,0,0:0:0:0:
448,192,208798,1,0,0:0:0:0:
192,192,208877,1,0,0:0:0:0:
64,192,208877,1,0,0:0:0:0:
320,192,208956,1,0,0:0:0:0:
64,192,209035,1,0,0:0:0:0:
448,192,209035,1,0,0:0:0:0:
192,192,209113,1,0,0:0:0:0:
64,192,209192,1,0,0:0:0:0:
320,192,209192,1,0,0:0:0:0:
448,192,209192,1,0,0:0:0:0:
192,192,209271,1,0,0:0:0:0:
320,192,209350,1,0,0:0:0:0:
448,192,209350,1,0,0:0:0:0:
192,192,209429,1,0,0:0:0:0:
64,192,209429,1,0,0:0:0:0:
320,192,209508,1,0,0:0:0:0:
448,192,209508,1,0,0:0:0:0:
64,192,209587,1,0,0:0:0:0:
192,192,209666,1,0,0:0:0:0:
320,192,209666,1,0,0:0:0:0:
448,192,209745,1,0,0:0:0:0:
64,192,209824,1,0,0:0:0:0:
320,192,209824,1,0,0:0:0:0:
192,192,209903,1,0,0:0:0:0:
320,192,209982,1,0,0:0:0:0:
448,192,209982,1,0,0:0:0:0:
192,192,210061,1,0,0:0:0:0:
64,192,210061,1,0,0:0:0:0:
320,192,210140,1,0,0:0:0:0:
448,192,210140,1,0,0:0:0:0:
192,192,210219,1,0,0:0:0:0:
64,192,210298,1,0,0:0:0:0:
448,192,210298,1,0,0:0:0:0:
192,192,210377,1,0,0:0:0:0:
320,192,210456,1,0,0:0:0:0:
448,192,210456,1,0,0:0:0:0:
64,192,210535,1,0,0:0:0:0:
192,192,210613,1,0,0:0:0:0:
320,192,210613,1,0,0:0:0:0:
448,192,210692,1,0,0:0:0:0:
64,192,210692,1,0,0:0:0:0:
320,192,210771,1,0,0:0:0:0:
192,192,210771,1,0,0:0:0:0:
448,192,210850,1,0,0:0:0:0:
192,192,210929,1,0,0:0:0:0:
64,192,210929,1,0,0:0:0:0:
320,192,211008,1,0,0:0:0:0:
192,192,211087,1,0,0:0:0:0:
448,192,211087,1,0,0:0:0:0:
320,192,211166,1,0,0:0:0:0:
192,192,211245,1,0,0:0:0:0:
64,192,211245,1,0,0:0:0:0:
320,192,211324,1,0,0:0:0:0:
448,192,211324,1,0,0:0:0:0:
192,192,211403,1,0,0:0:0:0:
64,192,211403,1,0,0:0:0:0:
448,192,211482,1,0,0:0:0:0:
320,192,211561,1,0,0:0:0:0:
64,192,211561,1,0,0:0:0:0:
192,192,211640,1,0,0:0:0:0:
64,192,211719,1,0,0:0:0:0:
448,192,211719,1,0,0:0:0:0:
320,192,211798,1,0,0:0:0:0:
192,192,211877,1,0,0:0:0:0:
448,192,211877,1,0,0:0:0:0:
64,192,211956,1,0,0:0:0:0:
320,192,211956,1,0,0:0:0:0:
448,192,212035,1,0,0:0:0:0:
192,192,212035,1,0,0:0:0:0:
64,192,212113,1,0,0:0:0:0:
320,192,212192,1,0,0:0:0:0:
448,192,212192,1,0,0:0:0:0:
192,192,212271,1,0,0:0:0:0:
64,192,212350,1,0,0:0:0:0:
320,192,212350,1,0,0:0:0:0:
448,192,212429,1,0,0:0:0:0:
320,192,212508,1,0,0:0:0:0:
192,192,212508,1,0,0:0:0:0:
64,192,212587,1,0,0:0:0:0:
320,192,212666,1,0,0:0:0:0:
448,192,212666,1,0,0:0:0:0:
192,192,212745,1,0,0:0:0:0:
64,192,212824,1,0,0:0:0:0:
448,192,212824,1,0,0:0:0:0:
192,192,212903,1,0,0:0:0:0:
320,192,212982,1,0,0:0:0:0:
448,192,212982,1,0,0:0:0:0:
192,192,213061,1,0,0:0:0:0:
64,192,213061,1,0,0:0:0:0:
320,192,213140,1,0,0:0:0:0:
448,192,213140,1,0,0:0:0:0:
192,192,213219,1,0,0:0:0:0:
64,192,213219,1,0,0:0:0:0:
320,192,213298,1,0,0:0:0:0:
448,192,213298,1,0,0:0:0:0:
64,192,213377,1,0,0:0:0:0:
320,192,213456,1,0,0:0:0:0:
448,192,213456,1,0,0:0:0:0:
192,192,213535,1,0,0:0:0:0:
64,192,213535,1,0,0:0:0:0:
320,192,213613,1,0,0:0:0:0:
448,192,213613,1,0,0:0:0:0:
192,192,213692,1,0,0:0:0:0:
64,192,213692,1,0,0:0:0:0:
320,192,213771,1,0,0:0:0:0:
448,192,213771,1,0,0:0:0:0:
192,192,213850,1,0,0:0:0:0:
64,192,213929,128,0,214008:0:0:0:0:
448,192,213929,128,0,214008:0:0:0:0:
320,192,214087,1,0,0:0:0:0:
192,192,214087,1,0,0:0:0:0:
448,192,214166,1,0,0:0:0:0:
64,192,214245,1,0,0:0:0:0:
320,192,214245,1,0,0:0:0:0:
192,192,214324,1,0,0:0:0:0:
64,192,214403,1,0,0:0:0:0:
448,192,214403,1,0,0:0:0:0:
320,192,214482,1,0,0:0:0:0:
192,192,214561,1,0,0:0:0:0:
64,192,214561,1,0,0:0:0:0:
448,192,214561,1,0,0:0:0:0:
320,192,214640,1,0,0:0:0:0:
192,192,214719,1,0,0:0:0:0:
64,192,214719,1,0,0:0:0:0:
448,192,214798,1,0,0:0:0:0:
320,192,214877,1,0,0:0:0:0:
64,192,214877,1,0,0:0:0:0:
192,192,214956,1,0,0:0:0:0:
320,192,215035,1,0,0:0:0:0:
448,192,215035,1,0,0:0:0:0:
192,192,215113,1,0,0:0:0:0:
64,192,215113,1,0,0:0:0:0:
320,192,215192,1,0,0:0:0:0:
448,192,215192,1,0,0:0:0:0:
64,192,215271,1,0,0:0:0:0:
192,192,215350,1,0,0:0:0:0:
448,192,215350,1,0,0:0:0:0:
64,192,215429,1,0,0:0:0:0:
320,192,215508,1,0,0:0:0:0:
448,192,215508,1,0,0:0:0:0:
64,192,215587,1,0,0:0:0:0:
192,192,215666,1,0,0:0:0:0:
320,192,215666,1,0,0:0:0:0:
448,192,215745,1,0,0:0:0:0:
64,192,215745,1,0,0:0:0:0:
192,192,215824,1,0,0:0:0:0:
320,192,215824,1,0,0:0:0:0:
448,192,215903,1,0,0:0:0:0:
192,192,215982,1,0,0:0:0:0:
64,192,215982,1,0,0:0:0:0:
320,192,216061,1,0,0:0:0:0:
64,192,216140,1,0,0:0:0:0:
448,192,216140,1,0,0:0:0:0:
320,192,216219,1,0,0:0:0:0:
192,192,216298,1,0,0:0:0:0:
64,192,216298,1,0,0:0:0:0:
320,192,216377,1,0,0:0:0:0:
448,192,216377,1,0,0:0:0:0:
192,192,216456,1,0,0:0:0:0:
64,192,216456,1,0,0:0:0:0:
448,192,216535,1,0,0:0:0:0:
320,192,216613,1,0,0:0:0:0:
64,192,216613,1,0,0:0:0:0:
192,192,216692,1,0,0:0:0:0:
320,192,216771,1,0,0:0:0:0:
448,192,216771,1,0,0:0:0:0:
64,192,216850,1,0,0:0:0:0:
192,192,216929,1,0,0:0:0:0:
448,192,216929,1,0,0:0:0:0:
320,192,217008,1,0,0:0:0:0:
64,192,217008,1,0,0:0:0:0:
192,192,217087,1,0,0:0:0:0:
448,192,217087,1,0,0:0:0:0:
320,192,217166,1,0,0:0:0:0:
192,192,217245,1,0,0:0:0:0:
64,192,217245,1,0,0:0:0:0:
448,192,217324,1,0,0:0:0:0:
320,192,217403,1,0,0:0:0:0:
64,192,217403,1,0,0:0:0:0:
192,192,217482,1,0,0:0:0:0:
320,192,217561,1,0,0:0:0:0:
448,192,217561,1,0,0:0:0:0:
192,192,217640,1,0,0:0:0:0:
64,192,217640,1,0,0:0:0:0:
320,192,217719,1,0,0:0:0:0:
448,192,217719,1,0,0:0:0:0:
64,192,217798,1,0,0:0:0:0:
192,192,217877,1,0,0:0:0:0:
448,192,217877,1,0,0:0:0:0:
320,192,217956,1,0,0:0:0:0:
64,192,218035,1,0,0:0:0:0:
448,192,218035,1,0,0:0:0:0:
192,192,218113,1,0,0:0:0:0:
320,192,218192,1,0,0:0:0:0:
448,192,218192,1,0,0:0:0:0:
192,192,218271,1,0,0:0:0:0:
64,192,218271,1,0,0:0:0:0:
320,192,218350,1,0,0:0:0:0:
448,192,218350,1,0,0:0:0:0:
64,192,218429,1,0,0:0:0:0:
192,192,218508,1,0,0:0:0:0:
320,192,218508,1,0,0:0:0:0:
448,192,218587,1,0,0:0:0:0:
64,192,218587,1,0,0:0:0:0:
192,192,218666,1,0,0:0:0:0:
320,192,218666,1,0,0:0:0:0:
448,192,218745,1,0,0:0:0:0:
64,192,218745,1,0,0:0:0:0:
192,192,218824,1,0,0:0:0:0:
320,192,218824,1,0,0:0:0:0:
448,192,218903,1,0,0:0:0:0:
192,192,218982,1,0,0:0:0:0:
64,192,218982,1,0,0:0:0:0:
320,192,219061,1,0,0:0:0:0:
64,192,219140,1,0,0:0:0:0:
448,192,219140,1,0,0:0:0:0:
320,192,219219,1,0,0:0:0:0:
192,192,219298,1,0,0:0:0:0:
64,192,219298,1,0,0:0:0:0:
448,192,219298,1,0,0:0:0:0:
320,192,219377,1,0,0:0:0:0:
192,192,219456,1,0,0:0:0:0:
64,192,219456,1,0,0:0:0:0:
320,192,219535,1,0,0:0:0:0:
448,192,219535,1,0,0:0:0:0:
192,192,219613,1,0,0:0:0:0:
64,192,219613,1,0,0:0:0:0:
448,192,219692,1,0,0:0:0:0:
320,192,219771,1,0,0:0:0:0:
192,192,219771,1,0,0:0:0:0:
64,192,219850,1,0,0:0:0:0:
192,192,219929,1,0,0:0:0:0:
448,192,219929,1,0,0:0:0:0:
320,192,220008,1,0,0:0:0:0:
192,192,220087,1,0,0:0:0:0:
64,192,220087,1,0,0:0:0:0:
320,192,220166,1,0,0:0:0:0:
448,192,220166,1,0,0:0:0:0:
64,192,220245,1,0,0:0:0:0:
192,192,220245,1,0,0:0:0:0:
448,192,220324,1,0,0:0:0:0:
320,192,220403,1,0,0:0:0:0:
64,192,220403,1,0,0:0:0:0:
448,192,220482,1,0,0:0:0:0:
192,192,220561,1,0,0:0:0:0:
64,192,220561,1,0,0:0:0:0:
448,192,220640,1,0,0:0:0:0:
192,192,220719,1,0,0:0:0:0:
320,192,220719,1,0,0:0:0:0:
64,192,220798,1,0,0:0:0:0:
448,192,220798,1,0,0:0:0:0:
320,192,220877,1,0,0:0:0:0:
192,192,220877,1,0,0:0:0:0:
64,192,220956,1,0,0:0:0:0:
320,192,221035,1,0,0:0:0:0:
448,192,221035,1,0,0:0:0:0:
192,192,221113,1,0,0:0:0:0:
64,192,221192,1,0,0:0:0:0:
448,192,221192,1,0,0:0:0:0:
320,192,221271,1,0,0:0:0:0:
192,192,221350,1,0,0:0:0:0:
64,192,221350,1,0,0:0:0:0:
320,192,221429,1,0,0:0:0:0:
448,192,221429,1,0,0:0:0:0:
192,192,221508,1,0,0:0:0:0:
64,192,221508,1,0,0:0:0:0:
320,192,221587,1,0,0:0:0:0:
192,192,221666,1,0,0:0:0:0:
448,192,221666,1,0,0:0:0:0:
320,192,221745,1,0,0:0:0:0:
192,192,221824,1,0,0:0:0:0:
64,192,221824,1,0,0:0:0:0:
448,192,221903,1,0,0:0:0:0:
320,192,221982,1,0,0:0:0:0:
64,192,221982,1,0,0:0:0:0:
192,192,222061,1,0,0:0:0:0:
448,192,222061,1,0,0:0:0:0:
64,192,222140,1,0,0:0:0:0:
320,192,222140,1,0,0:0:0:0:
192,192,222219,1,0,0:0:0:0:
320,192,222298,1,0,0:0:0:0:
448,192,222298,1,0,0:0:0:0:
64,192,222377,1,0,0:0:0:0:
192,192,222456,1,0,0:0:0:0:
448,192,222456,1,0,0:0:0:0:
64,192,222535,1,0,0:0:0:0:
320,192,222613,1,0,0:0:0:0:
448,192,222613,1,0,0:0:0:0:
192,192,222692,1,0,0:0:0:0:
64,192,222692,1,0,0:0:0:0:
320,192,222771,1,0,0:0:0:0:
448,192,222771,1,0,0:0:0:0:
192,192,222850,1,0,0:0:0:0:
64,192,222929,1,0,0:0:0:0:
320,192,222929,1,0,0:0:0:0:
448,192,223008,1,0,0:0:0:0:
192,192,223087,1,0,0:0:0:0:
64,192,223087,1,0,0:0:0:0:
448,192,223166,1,0,0:0:0:0:
320,192,223166,1,0,0:0:0:0:
192,192,223245,1,0,0:0:0:0:
64,192,223245,1,0,0:0:0:0:
320,192,223324,1,0,0:0:0:0:
448,192,223324,1,0,0:0:0:0:
192,192,223403,1,0,0:0:0:0:
64,192,223403,1,0,0:0:0:0:
320,192,223482,1,0,0:0:0:0:
192,192,223561,1,0,0:0:0:0:
64,192,223561,1,0,0:0:0:0:
320,192,223640,1,0,0:0:0:0:
448,192,223640,1,0,0:0:0:0:
192,192,223719,1,0,0:0:0:0:
64,192,223719,1,0,0:0:0:0:
320,192,223798,1,0,0:0:0:0:
448,192,223798,1,0,0:0:0:0:
192,192,223877,1,0,0:0:0:0:
64,192,223877,1,0,0:0:0:0:
448,192,223956,1,0,0:0:0:0:
320,192,224035,128,0,224113:0:0:0:0:
192,192,224035,128,0,224113:0:0:0:0:
64,192,224192,1,0,0:0:0:0:
448,192,224192,1,0,0:0:0:0:
320,192,224271,1,0,0:0:0:0:
64,192,224350,1,0,0:0:0:0:
192,192,224350,1,0,0:0:0:0:
320,192,224429,1,0,0:0:0:0:
448,192,224429,1,0,0:0:0:0:
192,192,224508,1,0,0:0:0:0:
64,192,224508,1,0,0:0:0:0:
320,192,224587,1,0,0:0:0:0:
448,192,224666,1,0,0:0:0:0:
192,192,224666,1,0,0:0:0:0:
64,192,224666,1,0,0:0:0:0:
320,192,224745,1,0,0:0:0:0:
192,192,224824,1,0,0:0:0:0:
64,192,224824,1,0,0:0:0:0:
448,192,224903,1,0,0:0:0:0:
320,192,224982,1,0,0:0:0:0:
192,192,224982,1,0,0:0:0:0:
64,192,225061,1,0,0:0:0:0:
192,192,225140,1,0,0:0:0:0:
448,192,225140,1,0,0:0:0:0:
320,192,225219,1,0,0:0:0:0:
64,192,225219,1,0,0:0:0:0:
448,192,225298,1,0,0:0:0:0:
192,192,225298,1,0,0:0:0:0:
320,192,225377,1,0,0:0:0:0:
192,192,225456,1,0,0:0:0:0:
64,192,225456,1,0,0:0:0:0:
320,192,225535,1,0,0:0:0:0:
448,192,225535,1,0,0:0:0:0:
192,192,225613,1,0,0:0:0:0:
64,192,225613,1,0,0:0:0:0:
448,192,225692,1,0,0:0:0:0:
320,192,225771,1,0,0:0:0:0:
192,192,225771,1,0,0:0:0:0:
64,192,225850,1,0,0:0:0:0:
448,192,225850,1,0,0:0:0:0:
320,192,225929,1,0,0:0:0:0:
192,192,225929,1,0,0:0:0:0:
64,192,226008,1,0,0:0:0:0:
320,192,226087,1,0,0:0:0:0:
448,192,226087,1,0,0:0:0:0:
192,192,226166,1,0,0:0:0:0:
64,192,226245,1,0,0:0:0:0:
448,192,226245,1,0,0:0:0:0:
320,192,226324,1,0,0:0:0:0:
448,192,226403,1,0,0:0:0:0:
192,192,226403,1,0,0:0:0:0:
64,192,226482,1,0,0:0:0:0:
320,192,226482,1,0,0:0:0:0:
448,192,226561,1,0,0:0:0:0:
192,192,226561,1,0,0:0:0:0:
64,192,226640,1,0,0:0:0:0:
320,192,226719,1,0,0:0:0:0:
448,192,226719,1,0,0:0:0:0:
64,192,226798,1,0,0:0:0:0:
192,192,226798,1,0,0:0:0:0:
320,192,226877,1,0,0:0:0:0:
448,192,226877,1,0,0:0:0:0:
64,192,226956,1,0,0:0:0:0:
192,192,227035,1,0,0:0:0:0:
448,192,227035,1,0,0:0:0:0:
320,192,227113,1,0,0:0:0:0:
64,192,227113,1,0,0:0:0:0:
192,192,227192,1,0,0:0:0:0:
448,192,227192,1,0,0:0:0:0:
320,192,227271,1,0,0:0:0:0:
192,192,227350,1,0,0:0:0:0:
64,192,227350,1,0,0:0:0:0:
320,192,227429,1,0,0:0:0:0:
448,192,227508,1,0,0:0:0:0:
64,192,227508,1,0,0:0:0:0:
320,192,227587,1,0,0:0:0:0:
192,192,227666,1,0,0:0:0:0:
64,192,227666,1,0,0:0:0:0:
320,192,227745,1,0,0:0:0:0:
448,192,227745,1,0,0:0:0:0:
192,192,227824,1,0,0:0:0:0:
64,192,227824,1,0,0:0:0:0:
448,192,227903,1,0,0:0:0:0:
320,192,227982,1,0,0:0:0:0:
192,192,227982,1,0,0:0:0:0:
64,192,228061,1,0,0:0:0:0:
448,192,228061,1,0,0:0:0:0:
320,192,228140,1,0,0:0:0:0:
192,192,228140,1,0,0:0:0:0:
64,192,228219,1,0,0:0:0:0:
320,192,228298,1,0,0:0:0:0:
448,192,228298,1,0,0:0:0:0:
192,192,228377,1,0,0:0:0:0:
64,192,228377,1,0,0:0:0:0:
320,192,228456,1,0,0:0:0:0:
448,192,228456,1,0,0:0:0:0:
192,192,228535,1,0,0:0:0:0:
64,192,228613,1,0,0:0:0:0:
448,192,228613,1,0,0:0:0:0:
320,192,228692,1,0,0:0:0:0:
192,192,228692,1,0,0:0:0:0:
64,192,228771,1,0,0:0:0:0:
448,192,228771,1,0,0:0:0:0:
320,192,228850,1,0,0:0:0:0:
192,192,228850,1,0,0:0:0:0:
64,192,228929,1,0,0:0:0:0:
448,192,228929,1,0,0:0:0:0:
320,192,229008,1,0,0:0:0:0:
192,192,229087,1,0,0:0:0:0:
64,192,229087,1,0,0:0:0:0:
320,192,229166,1,0,0:0:0:0:
448,192,229245,1,0,0:0:0:0:
192,192,229245,1,0,0:0:0:0:
64,192,229324,1,0,0:0:0:0:
192,192,229403,1,0,0:0:0:0:
320,192,229403,1,0,0:0:0:0:
448,192,229403,1,0,0:0:0:0:
64,192,229482,1,0,0:0:0:0:
320,192,229561,1,0,0:0:0:0:
448,192,229561,1,0,0:0:0:0:
192,192,229640,1,0,0:0:0:0:
64,192,229640,1,0,0:0:0:0:
320,192,229719,1,0,0:0:0:0:
448,192,229719,1,0,0:0:0:0:
192,192,229798,1,0,0:0:0:0:
64,192,229877,1,0,0:0:0:0:
448,192,229877,1,0,0:0:0:0:
320,192,229956,1,0,0:0:0:0:
192,192,230035,1,0,0:0:0:0:
64,192,230035,1,0,0:0:0:0:
448,192,230113,1,0,0:0:0:0:
320,192,230192,1,0,0:0:0:0:
192,192,230192,1,0,0:0:0:0:
64,192,230271,1,0,0:0:0:0:
448,192,230271,1,0,0:0:0:0:
320,192,230350,1,0,0:0:0:0:
192,192,230350,1,0,0:0:0:0:
64,192,230429,1,0,0:0:0:0:
320,192,230508,1,0,0:0:0:0:
448,192,230508,1,0,0:0:0:0:
192,192,230587,1,0,0:0:0:0:
64,192,230587,1,0,0:0:0:0:
320,192,230666,1,0,0:0:0:0:
448,192,230666,1,0,0:0:0:0:
192,192,230745,1,0,0:0:0:0:
64,192,230824,1,0,0:0:0:0:
448,192,230824,1,0,0:0:0:0:
320,192,230903,1,0,0:0:0:0:
192,192,230903,1,0,0:0:0:0:
64,192,230982,1,0,0:0:0:0:
448,192,230982,1,0,0:0:0:0:
320,192,231061,1,0,0:0:0:0:
192,192,231140,1,0,0:0:0:0:
64,192,231140,1,0,0:0:0:0:
320,192,231219,1,0,0:0:0:0:
64,192,231298,1,0,0:0:0:0:
448,192,231298,1,0,0:0:0:0:
192,192,231377,1,0,0:0:0:0:
64,192,231456,1,0,0:0:0:0:
320,192,231456,1,0,0:0:0:0:
448,192,231535,1,0,0:0:0:0:
192,192,231535,1,0,0:0:0:0:
64,192,231613,1,0,0:0:0:0:
320,192,231613,1,0,0:0:0:0:
448,192,231692,1,0,0:0:0:0:
192,192,231771,1,0,0:0:0:0:
64,192,231771,1,0,0:0:0:0:
448,192,231850,1,0,0:0:0:0:
320,192,231850,1,0,0:0:0:0:
192,192,231929,1,0,0:0:0:0:
64,192,231929,1,0,0:0:0:0:
320,192,232008,1,0,0:0:0:0:
192,192,232087,1,0,0:0:0:0:
448,192,232087,1,0,0:0:0:0:
320,192,232166,1,0,0:0:0:0:
64,192,232166,1,0,0:0:0:0:
192,192,232245,1,0,0:0:0:0:
448,192,232245,1,0,0:0:0:0:
64,192,232324,1,0,0:0:0:0:
320,192,232403,1,0,0:0:0:0:
448,192,232403,1,0,0:0:0:0:
192,192,232482,1,0,0:0:0:0:
64,192,232561,1,0,0:0:0:0:
320,192,232561,1,0,0:0:0:0:
192,192,232640,1,0,0:0:0:0:
320,192,232719,1,0,0:0:0:0:
448,192,232719,1,0,0:0:0:0:
64,192,232798,1,0,0:0:0:0:
192,192,232798,1,0,0:0:0:0:
320,192,232877,1,0,0:0:0:0:
448,192,232877,1,0,0:0:0:0:
64,192,232956,1,0,0:0:0:0:
320,192,233035,1,0,0:0:0:0:
448,192,233035,1,0,0:0:0:0:
64,192,233113,1,0,0:0:0:0:
192,192,233113,1,0,0:0:0:0:
320,192,233192,1,0,0:0:0:0:
448,192,233192,1,0,0:0:0:0:
192,192,233271,1,0,0:0:0:0:
64,192,233271,1,0,0:0:0:0:
320,192,233350,1,0,0:0:0:0:
448,192,233350,1,0,0:0:0:0:
192,192,233429,1,0,0:0:0:0:
64,192,233429,1,0,0:0:0:0:
320,192,233508,1,0,0:0:0:0:
448,192,233508,1,0,0:0:0:0:
192,192,233587,1,0,0:0:0:0:
320,192,233666,1,0,0:0:0:0:
448,192,233666,1,0,0:0:0:0:
192,192,233745,1,0,0:0:0:0:
64,192,233745,1,0,0:0:0:0:
320,192,233824,1,0,0:0:0:0:
448,192,233824,1,0,0:0:0:0:
192,192,233903,1,0,0:0:0:0:
64,192,233903,1,0,0:0:0:0:
320,192,233982,1,0,0:0:0:0:
448,192,233982,1,0,0:0:0:0:
64,192,234061,1,0,0:0:0:0:
192,192,234140,128,0,234219:0:0:0:0:
320,192,234140,128,0,234219:0:0:0:0:
64,192,234298,1,0,0:0:0:0:
448,192,234298,1,0,0:0:0:0:
320,192,234377,1,0,0:0:0:0:
448,192,234456,1,0,0:0:0:0:
192,192,234456,1,0,0:0:0:0:
64,192,234456,1,0,0:0:0:0:
320,192,234535,1,0,0:0:0:0:
192,192,234613,1,0,0:0:0:0:
64,192,234613,1,0,0:0:0:0:
320,192,234692,1,0,0:0:0:0:
448,192,234692,1,0,0:0:0:0:
192,192,234771,1,0,0:0:0:0:
64,192,234771,1,0,0:0:0:0:
448,192,234850,1,0,0:0:0:0:
320,192,234929,1,0,0:0:0:0:
192,192,234929,1,0,0:0:0:0:
64,192,235008,1,0,0:0:0:0:
192,192,235087,1,0,0:0:0:0:
448,192,235087,1,0,0:0:0:0:
320,192,235166,1,0,0:0:0:0:
192,192,235245,1,0,0:0:0:0:
64,192,235245,1,0,0:0:0:0:
320,192,235324,1,0,0:0:0:0:
448,192,235324,1,0,0:0:0:0:
192,192,235403,1,0,0:0:0:0:
64,192,235403,1,0,0:0:0:0:
448,192,235482,1,0,0:0:0:0:
320,192,235561,1,0,0:0:0:0:
192,192,235561,1,0,0:0:0:0:
64,192,235640,1,0,0:0:0:0:
448,192,235640,1,0,0:0:0:0:
320,192,235719,1,0,0:0:0:0:
192,192,235719,1,0,0:0:0:0:
64,192,235798,1,0,0:0:0:0:
320,192,235877,1,0,0:0:0:0:
448,192,235877,1,0,0:0:0:0:
192,192,235956,1,0,0:0:0:0:
64,192,235956,1,0,0:0:0:0:
320,192,236035,1,0,0:0:0:0:
448,192,236035,1,0,0:0:0:0:
192,192,236113,1,0,0:0:0:0:
64,192,236192,1,0,0:0:0:0:
448,192,236192,1,0,0:0:0:0:
192,192,236271,1,0,0:0:0:0:
320,192,236350,1,0,0:0:0:0:
448,192,236350,1,0,0:0:0:0:
64,192,236429,1,0,0:0:0:0:
192,192,236508,1,0,0:0:0:0:
448,192,236508,1,0,0:0:0:0:
64,192,236587,1,0,0:0:0:0:
320,192,236587,1,0,0:0:0:0:
192,192,236666,1,0,0:0:0:0:
448,192,236666,1,0,0:0:0:0:
320,192,236745,1,0,0:0:0:0:
64,192,236824,1,0,0:0:0:0:
192,192,236824,1,0,0:0:0:0:
320,192,236903,1,0,0:0:0:0:
448,192,236903,1,0,0:0:0:0:
192,192,236982,1,0,0:0:0:0:
64,192,236982,1,0,0:0:0:0:
320,192,237061,1,0,0:0:0:0:
64,192,237140,1,0,0:0:0:0:
448,192,237140,1,0,0:0:0:0:
320,192,237219,1,0,0:0:0:0:
192,192,237219,1,0,0:0:0:0:
64,192,237298,1,0,0:0:0:0:
448,192,237298,1,0,0:0:0:0:
192,192,237377,1,0,0:0:0:0:
320,192,237456,1,0,0:0:0:0:
448,192,237456,1,0,0:0:0:0:
64,192,237535,1,0,0:0:0:0:
192,192,237613,1,0,0:0:0:0:
320,192,237613,1,0,0:0:0:0:
64,192,237692,1,0,0:0:0:0:
320,192,237771,1,0,0:0:0:0:
448,192,237771,1,0,0:0:0:0:
192,192,237850,1,0,0:0:0:0:
64,192,237850,1,0,0:0:0:0:
320,192,237929,1,0,0:0:0:0:
448,192,237929,1,0,0:0:0:0:
192,192,238008,1,0,0:0:0:0:
64,192,238087,1,0,0:0:0:0:
448,192,238087,1,0,0:0:0:0:
320,192,238166,1,0,0:0:0:0:
192,192,238166,1,0,0:0:0:0:
64,192,238245,1,0,0:0:0:0:
448,192,238245,1,0,0:0:0:0:
320,192,238324,1,0,0:0:0:0:
192,192,238403,1,0,0:0:0:0:
64,192,238403,1,0,0:0:0:0:
320,192,238482,1,0,0:0:0:0:
448,192,238482,1,0,0:0:0:0:
192,192,238561,1,0,0:0:0:0:
64,192,238561,1,0,0:0:0:0:
320,192,238640,1,0,0:0:0:0:
448,192,238719,1,0,0:0:0:0:
64,192,238719,1,0,0:0:0:0:
320,192,238798,1,0,0:0:0:0:
192,192,238798,1,0,0:0:0:0:
64,192,238877,1,0,0:0:0:0:
448,192,238877,1,0,0:0:0:0:
320,192,238956,1,0,0:0:0:0:
192,192,238956,1,0,0:0:0:0:
448,192,239035,1,0,0:0:0:0:
64,192,239035,1,0,0:0:0:0:
192,192,239113,1,0,0:0:0:0:
320,192,239192,1,0,0:0:0:0:
448,192,239192,1,0,0:0:0:0:
192,192,239271,1,0,0:0:0:0:
64,192,239350,1,0,0:0:0:0:
448,192,239350,1,0,0:0:0:0:
320,192,239429,1,0,0:0:0:0:
192,192,239508,1,0,0:0:0:0:
64,192,239508,1,0,0:0:0:0:
448,192,239508,1,0,0:0:0:0:
320,192,239587,1,0,0:0:0:0:
192,192,239666,1,0,0:0:0:0:
64,192,239666,1,0,0:0:0:0:
320,192,239745,1,0,0:0:0:0:
448,192,239745,1,0,0:0:0:0:
192,192,239824,1,0,0:0:0:0:
64,192,239824,1,0,0:0:0:0:
448,192,239903,1,0,0:0:0:0:
64,192,239982,1,0,0:0:0:0:
320,192,239982,1,0,0:0:0:0:
192,192,240061,1,0,0:0:0:0:
64,192,240140,1,0,0:0:0:0:
448,192,240140,1,0,0:0:0:0:
320,192,240219,1,0,0:0:0:0:
64,192,240298,1,0,0:0:0:0:
192,192,240298,1,0,0:0:0:0:
320,192,240377,1,0,0:0:0:0:
448,192,240377,1,0,0:0:0:0:
64,192,240456,1,0,0:0:0:0:
192,192,240456,1,0,0:0:0:0:
320,192,240535,1,0,0:0:0:0:
64,192,240613,1,0,0:0:0:0:
448,192,240613,1,0,0:0:0:0:
192,192,240692,1,0,0:0:0:0:
320,192,240692,1,0,0:0:0:0:
64,192,240771,1,0,0:0:0:0:
448,192,240771,1,0,0:0:0:0:
192,192,240850,1,0,0:0:0:0:
448,192,240929,1,0,0:0:0:0:
320,192,240929,1,0,0:0:0:0:
192,192,241008,1,0,0:0:0:0:
64,192,241008,1,0,0:0:0:0:
448,192,241087,1,0,0:0:0:0:
320,192,241087,1,0,0:0:0:0:
192,192,241166,1,0,0:0:0:0:
448,192,241245,1,0,0:0:0:0:
64,192,241245,1,0,0:0:0:0:
192,192,241324,1,0,0:0:0:0:
448,192,241403,1,0,0:0:0:0:
320,192,241403,1,0,0:0:0:0:
64,192,241482,1,0,0:0:0:0:
448,192,241561,1,0,0:0:0:0:
320,192,241561,1,0,0:0:0:0:
64,192,241640,1,0,0:0:0:0:
192,192,241640,1,0,0:0:0:0:
448,192,241719,1,0,0:0:0:0:
320,192,241719,1,0,0:0:0:0:
192,192,241798,1,0,0:0:0:0:
448,192,241877,1,0,0:0:0:0:
320,192,241877,1,0,0:0:0:0:
192,192,241956,1,0,0:0:0:0:
64,192,241956,1,0,0:0:0:0:
320,192,242035,1,0,0:0:0:0:
448,192,242035,1,0,0:0:0:0:
192,192,242113,1,0,0:0:0:0:
64,192,242113,1,0,0:0:0:0:
320,192,242192,1,0,0:0:0:0:
448,192,242192,1,0,0:0:0:0:
192,192,242271,1,0,0:0:0:0:
64,192,242271,1,0,0:0:0:0:
320,192,242350,1,0,0:0:0:0:
448,192,242350,1,0,0:0:0:0:
192,192,242429,1,0,0:0:0:0:
64,192,242429,1,0,0:0:0:0:
320,192,242508,1,0,0:0:0:0:
448,192,242508,1,0,0:0:0:0:
192,192,242587,1,0,0:0:0:0:
64,192,242587,1,0,0:0:0:0:
320,192,242666,1,0,0:0:0:0:
448,192,242666,1,0,0:0:0:0:
192,192,242745,1,0,0:0:0:0:
64,192,242745,1,0,0:0:0:0:
320,192,242824,1,0,0:0:0:0:
448,192,242824,1,0,0:0:0:0:
192,192,242903,1,0,0:0:0:0:
64,192,242903,1,0,0:0:0:0:
320,192,242982,1,0,0:0:0:0:
448,192,242982,1,0,0:0:0:0:
64,192,243061,1,0,0:0:0:0:
192,192,243061,1,0,0:0:0:0:
448,192,243140,1,0,0:0:0:0:
320,192,243140,1,0,0:0:0:0:
192,192,243219,1,0,0:0:0:0:
64,192,243219,1,0,0:0:0:0:
320,192,243298,1,0,0:0:0:0:
448,192,243298,1,0,0:0:0:0:
192,192,243377,1,0,0:0:0:0:
64,192,243377,1,0,0:0:0:0:
320,192,243456,1,0,0:0:0:0:
448,192,243456,1,0,0:0:0:0:
192,192,243535,1,0,0:0:0:0:
64,192,243535,1,0,0:0:0:0:
320,192,243613,1,0,0:0:0:0:
448,192,243613,1,0,0:0:0:0:
192,192,243692,1,0,0:0:0:0:
320,192,243771,1,0,0:0:0:0:
448,192,243771,1,0,0:0:0:0:
64,192,243850,1,0,0:0:0:0:
192,192,243850,1,0,0:0:0:0:
320,192,243929,1,0,0:0:0:0:
448,192,243929,1,0,0:0:0:0:
64,192,244008,1,0,0:0:0:0:
192,192,244008,1,0,0:0:0:0:
320,192,244087,1,0,0:0:0:0:
448,192,244087,1,0,0:0:0:0:
64,192,244166,1,0,0:0:0:0:
320,192,244245,1,0,0:0:0:0:
448,192,244245,1,0,0:0:0:0:
192,192,244324,1,0,0:0:0:0:
64,192,244324,1,0,0:0:0:0:
320,192,244403,1,0,0:0:0:0:
448,192,244403,1,0,0:0:0:0:
192,192,244482,1,0,0:0:0:0:
64,192,244561,1,0,0:0:0:0:
320,192,244561,1,0,0:0:0:0:
448,192,244561,1,0,0:0:0:0:
192,192,244640,1,0,0:0:0:0:
320,192,244719,1,0,0:0:0:0:
448,192,244719,1,0,0:0:0:0:
64,192,244798,1,0,0:0:0:0:
192,192,244877,1,0,0:0:0:0:
448,192,244877,1,0,0:0:0:0:
320,192,244956,1,0,0:0:0:0:
448,192,245035,1,0,0:0:0:0:
64,192,245035,1,0,0:0:0:0:
192,192,245113,1,0,0:0:0:0:
320,192,245192,1,0,0:0:0:0:
448,192,245192,1,0,0:0:0:0:
192,192,245271,1,0,0:0:0:0:
320,192,245350,1,0,0:0:0:0:
64,192,245350,1,0,0:0:0:0:
192,192,245429,1,0,0:0:0:0:
448,192,245508,1,0,0:0:0:0:
320,192,245508,1,0,0:0:0:0:
64,192,245587,1,0,0:0:0:0:
192,192,245666,1,0,0:0:0:0:
448,192,245666,1,0,0:0:0:0:
320,192,245745,1,0,0:0:0:0:
192,192,245824,1,0,0:0:0:0:
64,192,245824,1,0,0:0:0:0:
448,192,245903,1,0,0:0:0:0:
320,192,245982,1,0,0:0:0:0:
192,192,245982,1,0,0:0:0:0:
64,192,246061,1,0,0:0:0:0:
320,192,246140,1,0,0:0:0:0:
448,192,246140,1,0,0:0:0:0:
192,192,246219,1,0,0:0:0:0:
64,192,246298,1,0,0:0:0:0:
448,192,246298,1,0,0:0:0:0:
192,192,246377,1,0,0:0:0:0:
320,192,246456,1,0,0:0:0:0:
448,192,246456,1,0,0:0:0:0:
64,192,246535,1,0,0:0:0:0:
192,192,246613,1,0,0:0:0:0:
320,192,246613,1,0,0:0:0:0:
448,192,246692,1,0,0:0:0:0:
192,192,246771,1,0,0:0:0:0:
64,192,246771,1,0,0:0:0:0:
320,192,246850,1,0,0:0:0:0:
448,192,246929,1,0,0:0:0:0:
64,192,246929,1,0,0:0:0:0:
320,192,247008,1,0,0:0:0:0:
192,192,247087,1,0,0:0:0:0:
64,192,247087,1,0,0:0:0:0:
448,192,247166,1,0,0:0:0:0:
320,192,247245,1,0,0:0:0:0:
192,192,247245,1,0,0:0:0:0:
64,192,247324,1,0,0:0:0:0:
448,192,247403,1,0,0:0:0:0:
320,192,247403,1,0,0:0:0:0:
192,192,247482,1,0,0:0:0:0:
64,192,247561,1,0,0:0:0:0:
448,192,247561,1,0,0:0:0:0:
320,192,247640,1,0,0:0:0:0:
192,192,247719,1,0,0:0:0:0:
64,192,247719,1,0,0:0:0:0:
320,192,247798,1,0,0:0:0:0:
192,192,247877,1,0,0:0:0:0:
448,192,247877,1,0,0:0:0:0:
320,192,247956,1,0,0:0:0:0:
192,192,248035,1,0,0:0:0:0:
64,192,248035,1,0,0:0:0:0:
448,192,248113,1,0,0:0:0:0:
320,192,248192,1,0,0:0:0:0:
64,192,248192,1,0,0:0:0:0:
192,192,248271,1,0,0:0:0:0:
64,192,248350,1,0,0:0:0:0:
448,192,248350,1,0,0:0:0:0:
320,192,248429,1,0,0:0:0:0:
192,192,248508,1,0,0:0:0:0:
64,192,248508,1,0,0:0:0:0:
320,192,248587,1,0,0:0:0:0:
64,192,248666,1,0,0:0:0:0:
448,192,248666,1,0,0:0:0:0:
192,192,248745,1,0,0:0:0:0:
320,192,248824,1,0,0:0:0:0:
448,192,248824,1,0,0:0:0:0:
64,192,248903,1,0,0:0:0:0:
192,192,248982,1,0,0:0:0:0:
320,192,248982,1,0,0:0:0:0:
448,192,249061,1,0,0:0:0:0:
320,192,249140,1,0,0:0:0:0:
64,192,249140,1,0,0:0:0:0:
192,192,249219,1,0,0:0:0:0:
320,192,249298,1,0,0:0:0:0:
448,192,249298,1,0,0:0:0:0:
192,192,249377,1,0,0:0:0:0:
64,192,249456,1,0,0:0:0:0:
448,192,249456,1,0,0:0:0:0:
192,192,249535,1,0,0:0:0:0:
320,192,249613,1,0,0:0:0:0:
64,192,249613,1,0,0:0:0:0:
448,192,249692,1,0,0:0:0:0:
192,192,249771,1,0,0:0:0:0:
64,192,249771,1,0,0:0:0:0:
320,192,249850,1,0,0:0:0:0:
192,192,249929,1,0,0:0:0:0:
448,192,249929,1,0,0:0:0:0:
64,192,250008,1,0,0:0:0:0:
320,192,250087,1,0,0:0:0:0:
448,192,250087,1,0,0:0:0:0:
192,192,250166,1,0,0:0:0:0:
320,192,250245,1,0,0:0:0:0:
64,192,250245,1,0,0:0:0:0:
192,192,250324,1,0,0:0:0:0:
320,192,250403,1,0,0:0:0:0:
448,192,250403,1,0,0:0:0:0:
64,192,250482,1,0,0:0:0:0:
448,192,250561,1,0,0:0:0:0:
192,192,250561,1,0,0:0:0:0:
64,192,250640,1,0,0:0:0:0:
320,192,250719,1,0,0:0:0:0:
448,192,250719,1,0,0:0:0:0:
192,192,250798,1,0,0:0:0:0:
64,192,250877,1,0,0:0:0:0:
320,192,250877,1,0,0:0:0:0:
448,192,250956,1,0,0:0:0:0:
320,192,251035,1,0,0:0:0:0:
192,192,251035,1,0,0:0:0:0:
64,192,251113,1,0,0:0:0:0:
448,192,251192,1,0,0:0:0:0:
192,192,251192,1,0,0:0:0:0:
320,192,251271,1,0,0:0:0:0:
192,192,251350,1,0,0:0:0:0:
64,192,251350,1,0,0:0:0:0:
448,192,251429,1,0,0:0:0:0:
320,192,251508,1,0,0:0:0:0:
64,192,251508,1,0,0:0:0:0:
448,192,251587,1,0,0:0:0:0:
64,192,251666,1,0,0:0:0:0:
192,192,251666,1,0,0:0:0:0:
320,192,251745,1,0,0:0:0:0:
448,192,251824,1,0,0:0:0:0:
192,192,251824,1,0,0:0:0:0:
320,192,251903,1,0,0:0:0:0:
192,192,251982,1,0,0:0:0:0:
64,192,251982,1,0,0:0:0:0:
448,192,252061,1,0,0:0:0:0:
320,192,252140,1,0,0:0:0:0:
64,192,252140,1,0,0:0:0:0:
192,192,252219,1,0,0:0:0:0:
320,192,252298,1,0,0:0:0:0:
448,192,252298,1,0,0:0:0:0:
64,192,252377,1,0,0:0:0:0:
192,192,252456,1,0,0:0:0:0:
320,192,252456,1,0,0:0:0:0:
448,192,252535,1,0,0:0:0:0:
64,192,252613,1,0,0:0:0:0:
320,192,252613,1,0,0:0:0:0:
192,192,252692,1,0,0:0:0:0:
320,192,252771,1,0,0:0:0:0:
448,192,252771,1,0,0:0:0:0:
64,192,252850,1,0,0:0:0:0:
192,192,252929,1,0,0:0:0:0:
320,192,252929,1,0,0:0:0:0:
448,192,253008,1,0,0:0:0:0:
192,192,253087,1,0,0:0:0:0:
64,192,253087,1,0,0:0:0:0:
320,192,253166,1,0,0:0:0:0:
448,192,253245,1,0,0:0:0:0:
64,192,253245,1,0,0:0:0:0:
320,192,253324,1,0,0:0:0:0:
448,192,253403,1,0,0:0:0:0:
192,192,253403,1,0,0:0:0:0:
64,192,253482,1,0,0:0:0:0:
448,192,253561,1,0,0:0:0:0:
64,192,253640,1,0,0:0:0:0:
448,192,253719,1,0,0:0:0:0:
320,192,253719,1,0,0:0:0:0:
64,192,253798,1,0,0:0:0:0:
448,192,253877,1,0,0:0:0:0:
64,192,253956,1,0,0:0:0:0:
192,192,253995,1,0,0:0:0:0:
320,192,254035,1,0,0:0:0:0:
448,192,254035,1,0,0:0:0:0:
64,192,254113,1,0,0:0:0:0:
192,192,254192,1,0,0:0:0:0:
448,192,254271,1,0,0:0:0:0:
320,192,254350,1,0,0:0:0:0:
64,192,254350,1,0,0:0:0:0:
192,192,254429,1,0,0:0:0:0:
320,192,254508,1,0,0:0:0:0:
192,192,254587,1,0,0:0:0:0:
64,192,254666,1,0,0:0:0:0:
320,192,254666,1,0,0:0:0:0:
448,192,254666,1,0,0:0:0:0:
192,192,254745,1,0,0:0:0:0:
320,192,254824,1,0,0:0:0:0:
448,192,254824,1,0,0:0:0:0:
64,192,254903,1,0,0:0:0:0:
192,192,254982,1,0,0:0:0:0:
448,192,254982,1,0,0:0:0:0:
64,192,255061,1,0,0:0:0:0:
320,192,255140,1,0,0:0:0:0:
448,192,255140,1,0,0:0:0:0:
192,192,255219,1,0,0:0:0:0:
64,192,255298,1,0,0:0:0:0:
320,192,255298,1,0,0:0:0:0:
448,192,255377,1,0,0:0:0:0:
320,192,255456,1,0,0:0:0:0:
192,192,255456,1,0,0:0:0:0:
64,192,255535,1,0,0:0:0:0:
192,192,255613,1,0,0:0:0:0:
448,192,255613,1,0,0:0:0:0:
320,192,255692,1,0,0:0:0:0:
192,192,255771,1,0,0:0:0:0:
64,192,255771,1,0,0:0:0:0:
448,192,255850,1,0,0:0:0:0:
320,192,255929,1,0,0:0:0:0:
64,192,255929,1,0,0:0:0:0:
192,192,256008,1,0,0:0:0:0:
320,192,256087,1,0,0:0:0:0:
448,192,256087,1,0,0:0:0:0:
64,192,256166,1,0,0:0:0:0:
192,192,256245,1,0,0:0:0:0:
448,192,256245,1,0,0:0:0:0:
64,192,256324,1,0,0:0:0:0:
320,192,256403,1,0,0:0:0:0:
448,192,256403,1,0,0:0:0:0:
192,192,256482,1,0,0:0:0:0:
64,192,256561,1,0,0:0:0:0:
320,192,256561,1,0,0:0:0:0:
448,192,256640,1,0,0:0:0:0:
192,192,256719,1,0,0:0:0:0:
64,192,256719,1,0,0:0:0:0:
320,192,256798,1,0,0:0:0:0:
448,192,256877,1,0,0:0:0:0:
192,192,256877,1,0,0:0:0:0:
320,192,256956,1,0,0:0:0:0:
192,192,257035,1,0,0:0:0:0:
64,192,257035,1,0,0:0:0:0:
448,192,257113,1,0,0:0:0:0:
320,192,257192,1,0,0:0:0:0:
64,192,257192,1,0,0:0:0:0:
192,192,257271,1,0,0:0:0:0:
64,192,257350,1,0,0:0:0:0:
448,192,257350,1,0,0:0:0:0:
320,192,257429,1,0,0:0:0:0:
192,192,257508,1,0,0:0:0:0:
64,192,257508,1,0,0:0:0:0:
448,192,257587,1,0,0:0:0:0:
320,192,257666,1,0,0:0:0:0:
192,192,257666,1,0,0:0:0:0:
64,192,257745,1,0,0:0:0:0:
192,192,257824,1,0,0:0:0:0:
448,192,257824,1,0,0:0:0:0:
320,192,257903,1,0,0:0:0:0:
64,192,257982,1,0,0:0:0:0:
448,192,257982,1,0,0:0:0:0:
192,192,258061,1,0,0:0:0:0:
320,192,258140,1,0,0:0:0:0:
448,192,258140,1,0,0:0:0:0:
64,192,258219,1,0,0:0:0:0:
192,192,258298,1,0,0:0:0:0:
320,192,258298,1,0,0:0:0:0:
448,192,258377,1,0,0:0:0:0:
320,192,258456,1,0,0:0:0:0:
64,192,258456,1,0,0:0:0:0:
192,192,258535,1,0,0:0:0:0:
320,192,258613,1,0,0:0:0:0:
448,192,258613,1,0,0:0:0:0:
64,192,258692,1,0,0:0:0:0:
192,192,258771,1,0,0:0:0:0:
320,192,258771,1,0,0:0:0:0:
448,192,258850,1,0,0:0:0:0:
64,192,258929,1,0,0:0:0:0:
192,192,258929,1,0,0:0:0:0:
320,192,259008,1,0,0:0:0:0:
448,192,259087,1,0,0:0:0:0:
64,192,259087,1,0,0:0:0:0:
192,192,259166,1,0,0:0:0:0:
64,192,259245,1,0,0:0:0:0:
320,192,259245,1,0,0:0:0:0:
448,192,259324,1,0,0:0:0:0:
192,192,259403,1,0,0:0:0:0:
64,192,259403,1,0,0:0:0:0:
320,192,259482,1,0,0:0:0:0:
192,192,259561,1,0,0:0:0:0:
448,192,259561,1,0,0:0:0:0:
320,192,259640,1,0,0:0:0:0:
448,192,259719,1,0,0:0:0:0:
64,192,259719,1,0,0:0:0:0:
192,192,259798,1,0,0:0:0:0:
320,192,259877,1,0,0:0:0:0:
448,192,259877,1,0,0:0:0:0:
192,192,259956,1,0,0:0:0:0:
64,192,260035,1,0,0:0:0:0:
320,192,260035,1,0,0:0:0:0:
192,192,260113,1,0,0:0:0:0:
320,192,260192,1,0,0:0:0:0:
448,192,260192,1,0,0:0:0:0:
64,192,260271,1,0,0:0:0:0:
192,192,260350,1,0,0:0:0:0:
448,192,260350,1,0,0:0:0:0:
320,192,260429,1,0,0:0:0:0:
192,192,260508,1,0,0:0:0:0:
64,192,260508,1,0,0:0:0:0:
448,192,260587,1,0,0:0:0:0:
320,192,260666,1,0,0:0:0:0:
64,192,260666,1,0,0:0:0:0:
448,192,260745,1,0,0:0:0:0:
192,192,260824,1,0,0:0:0:0:
64,192,260824,1,0,0:0:0:0:
320,192,260903,1,0,0:0:0:0:
192,192,260982,1,0,0:0:0:0:
448,192,260982,1,0,0:0:0:0:
64,192,261061,1,0,0:0:0:0:
192,192,261140,1,0,0:0:0:0:
320,192,261140,1,0,0:0:0:0:
448,192,261219,1,0,0:0:0:0:
192,192,261298,1,0,0:0:0:0:
64,192,261298,1,0,0:0:0:0:
320,192,261377,1,0,0:0:0:0:
64,192,261456,1,0,0:0:0:0:
448,192,261456,1,0,0:0:0:0:
192,192,261535,1,0,0:0:0:0:
320,192,261613,1,0,0:0:0:0:
448,192,261613,1,0,0:0:0:0:
192,192,261692,1,0,0:0:0:0:
64,192,261771,1,0,0:0:0:0:
320,192,261771,1,0,0:0:0:0:
448,192,261850,1,0,0:0:0:0:
320,192,261929,1,0,0:0:0:0:
192,192,261929,1,0,0:0:0:0:
64,192,262008,1,0,0:0:0:0:
320,192,262087,1,0,0:0:0:0:
448,192,262087,1,0,0:0:0:0:
192,192,262166,1,0,0:0:0:0:
64,192,262245,1,0,0:0:0:0:
448,192,262245,1,0,0:0:0:0:
320,192,262324,1,0,0:0:0:0:
192,192,262403,1,0,0:0:0:0:
64,192,262403,1,0,0:0:0:0:
320,192,262482,1,0,0:0:0:0:
192,192,262561,1,0,0:0:0:0:
448,192,262561,1,0,0:0:0:0:
64,192,262640,1,0,0:0:0:0:
320,192,262719,1,0,0:0:0:0:
448,192,262719,1,0,0:0:0:0:
192,192,262798,1,0,0:0:0:0:
320,192,262877,1,0,0:0:0:0:
64,192,262877,1,0,0:0:0:0:
448,192,262956,1,0,0:0:0:0:
320,192,263035,1,0,0:0:0:0:
192,192,263035,1,0,0:0:0:0:
64,192,263113,1,0,0:0:0:0:
320,192,263192,1,0,0:0:0:0:
448,192,263192,1,0,0:0:0:0:
192,192,263271,1,0,0:0:0:0:
64,192,263350,1,0,0:0:0:0:
448,192,263350,1,0,0:0:0:0:
192,192,263429,1,0,0:0:0:0:
64,192,263508,1,0,0:0:0:0:
320,192,263508,1,0,0:0:0:0:
448,192,263587,1,0,0:0:0:0:
192,192,263666,1,0,0:0:0:0:
64,192,263666,1,0,0:0:0:0:
320,192,263745,1,0,0:0:0:0:
448,192,263824,1,0,0:0:0:0:
64,192,263903,1,0,0:0:0:0:
192,192,263982,1,0,0:0:0:0:
448,192,263982,1,0,0:0:0:0:
320,192,264061,1,0,0:0:0:0:
192,192,264140,1,0,0:0:0:0:
448,192,264219,1,0,0:0:0:0:
320,192,264298,1,0,0:0:0:0:
64,192,264298,1,0,0:0:0:0:
192,192,264377,1,0,0:0:0:0:
320,192,264456,1,0,0:0:0:0:
448,192,264456,1,0,0:0:0:0:
64,192,264535,1,0,0:0:0:0:
320,192,264613,1,0,0:0:0:0:
448,192,264613,1,0,0:0:0:0:
192,192,264692,1,0,0:0:0:0:
320,192,264771,1,0,0:0:0:0:
448,192,264771,1,0,0:0:0:0:
64,192,264771,1,0,0:0:0:0:
192,192,264850,1,0,0:0:0:0:
320,192,264929,1,0,0:0:0:0:
448,192,264929,1,0,0:0:0:0:
64,192,265008,1,0,0:0:0:0:
192,192,265087,1,0,0:0:0:0:
448,192,265087,1,0,0:0:0:0:
320,192,265166,1,0,0:0:0:0:
192,192,265245,1,0,0:0:0:0:
64,192,265245,1,0,0:0:0:0:
320,192,265324,1,0,0:0:0:0:
64,192,265403,1,0,0:0:0:0:
448,192,265403,1,0,0:0:0:0:
320,192,265482,1,0,0:0:0:0:
192,192,265561,1,0,0:0:0:0:
64,192,265561,1,0,0:0:0:0:
448,192,265640,1,0,0:0:0:0:
320,192,265719,1,0,0:0:0:0:
192,192,265719,1,0,0:0:0:0:
64,192,265798,1,0,0:0:0:0:
192,192,265877,1,0,0:0:0:0:
448,192,265877,1,0,0:0:0:0:
320,192,265956,1,0,0:0:0:0:
192,192,266035,1,0,0:0:0:0:
64,192,266035,1,0,0:0:0:0:
448,192,266113,1,0,0:0:0:0:
320,192,266192,1,0,0:0:0:0:
192,192,266192,1,0,0:0:0:0:
64,192,266271,1,0,0:0:0:0:
320,192,266350,1,0,0:0:0:0:
448,192,266350,1,0,0:0:0:0:
192,192,266429,1,0,0:0:0:0:
64,192,266508,1,0,0:0:0:0:
448,192,266508,1,0,0:0:0:0:
192,192,266587,1,0,0:0:0:0:
320,192,266666,1,0,0:0:0:0:
448,192,266666,1,0,0:0:0:0:
64,192,266745,1,0,0:0:0:0:
192,192,266824,1,0,0:0:0:0:
448,192,266824,1,0,0:0:0:0:
320,192,266903,1,0,0:0:0:0:
448,192,266982,1,0,0:0:0:0:
64,192,266982,1,0,0:0:0:0:
192,192,267061,1,0,0:0:0:0:
320,192,267140,1,0,0:0:0:0:
448,192,267140,1,0,0:0:0:0:
192,192,267219,1,0,0:0:0:0:
64,192,267298,1,0,0:0:0:0:
320,192,267298,1,0,0:0:0:0:
448,192,267377,1,0,0:0:0:0:
192,192,267456,1,0,0:0:0:0:
64,192,267456,1,0,0:0:0:0:
448,192,267535,1,0,0:0:0:0:
64,192,267613,1,0,0:0:0:0:
320,192,267613,1,0,0:0:0:0:
192,192,267692,1,0,0:0:0:0:
64,192,267771,1,0,0:0:0:0:
448,192,267771,1,0,0:0:0:0:
320,192,267850,1,0,0:0:0:0:
192,192,267929,1,0,0:0:0:0:
64,192,267929,1,0,0:0:0:0:
448,192,268008,1,0,0:0:0:0:
192,192,268087,1,0,0:0:0:0:
320,192,268087,1,0,0:0:0:0:
448,192,268166,1,0,0:0:0:0:
192,192,268245,1,0,0:0:0:0:
64,192,268245,1,0,0:0:0:0:
320,192,268324,1,0,0:0:0:0:
448,192,268403,1,0,0:0:0:0:
192,192,268403,1,0,0:0:0:0:
64,192,268482,1,0,0:0:0:0:
320,192,268561,1,0,0:0:0:0:
448,192,268561,1,0,0:0:0:0:
192,192,268640,1,0,0:0:0:0:
64,192,268719,1,0,0:0:0:0:
448,192,268719,1,0,0:0:0:0:
320,192,268798,1,0,0:0:0:0:
192,192,268877,1,0,0:0:0:0:
64,192,268877,1,0,0:0:0:0:
320,192,268956,1,0,0:0:0:0:
448,192,269035,1,0,0:0:0:0:
64,192,269035,1,0,0:0:0:0:
320,192,269113,1,0,0:0:0:0:
192,192,269192,1,0,0:0:0:0:
64,192,269192,1,0,0:0:0:0:
448,192,269271,1,0,0:0:0:0:
320,192,269350,1,0,0:0:0:0:
192,192,269350,1,0,0:0:0:0:
64,192,269429,1,0,0:0:0:0:
320,192,269508,1,0,0:0:0:0:
448,192,269508,1,0,0:0:0:0:
192,192,269587,1,0,0:0:0:0:
64,192,269666,1,0,0:0:0:0:
448,192,269666,1,0,0:0:0:0:
192,192,269745,1,0,0:0:0:0:
64,192,269824,1,0,0:0:0:0:
320,192,269824,1,0,0:0:0:0:
448,192,269903,1,0,0:0:0:0:
192,192,269982,1,0,0:0:0:0:
64,192,269982,1,0,0:0:0:0:
320,192,270061,1,0,0:0:0:0:
192,192,270140,1,0,0:0:0:0:
448,192,270140,1,0,0:0:0:0:
64,192,270219,1,0,0:0:0:0:
320,192,270298,1,0,0:0:0:0:
448,192,270298,1,0,0:0:0:0:
64,192,270377,1,0,0:0:0:0:
192,192,270456,1,0,0:0:0:0:
448,192,270456,1,0,0:0:0:0:
320,192,270535,1,0,0:0:0:0:
64,192,270613,1,0,0:0:0:0:
448,192,270613,1,0,0:0:0:0:
192,192,270692,1,0,0:0:0:0:
320,192,270771,1,0,0:0:0:0:
448,192,270771,1,0,0:0:0:0:
64,192,270850,1,0,0:0:0:0:
192,192,270929,1,0,0:0:0:0:
320,192,270929,1,0,0:0:0:0:
64,192,271008,1,0,0:0:0:0:
320,192,271087,1,0,0:0:0:0:
448,192,271087,1,0,0:0:0:0:
192,192,271166,1,0,0:0:0:0:
64,192,271245,1,0,0:0:0:0:
448,192,271245,1,0,0:0:0:0:
320,192,271324,1,0,0:0:0:0:
192,192,271403,1,0,0:0:0:0:
64,192,271403,1,0,0:0:0:0:
320,192,271482,1,0,0:0:0:0:
192,192,271561,1,0,0:0:0:0:
448,192,271561,1,0,0:0:0:0:
320,192,271640,1,0,0:0:0:0:
192,192,271719,1,0,0:0:0:0:
64,192,271719,1,0,0:0:0:0:
448,192,271798,1,0,0:0:0:0:
320,192,271877,1,0,0:0:0:0:
64,192,271877,1,0,0:0:0:0:
192,192,271956,1,0,0:0:0:0:
64,192,272035,1,0,0:0:0:0:
448,192,272035,1,0,0:0:0:0:
320,192,272113,1,0,0:0:0:0:
192,192,272192,1,0,0:0:0:0:
64,192,272192,1,0,0:0:0:0:
448,192,272271,1,0,0:0:0:0:
320,192,272350,1,0,0:0:0:0:
192,192,272350,1,0,0:0:0:0:
64,192,272429,1,0,0:0:0:0:
320,192,272508,1,0,0:0:0:0:
448,192,272508,1,0,0:0:0:0:
192,192,272587,1,0,0:0:0:0:
448,192,272666,1,0,0:0:0:0:
64,192,272666,1,0,0:0:0:0:
320,192,272745,1,0,0:0:0:0:
448,192,272824,1,0,0:0:0:0:
192,192,272824,1,0,0:0:0:0:
64,192,272903,1,0,0:0:0:0:
320,192,272982,1,0,0:0:0:0:
448,192,272982,1,0,0:0:0:0:
64,192,273061,1,0,0:0:0:0:
320,192,273140,1,0,0:0:0:0:
192,192,273140,1,0,0:0:0:0:
448,192,273219,1,0,0:0:0:0:
192,192,273298,1,0,0:0:0:0:
64,192,273298,1,0,0:0:0:0:
320,192,273377,1,0,0:0:0:0:
448,192,273456,1,0,0:0:0:0:
64,192,273456,1,0,0:0:0:0:
320,192,273535,1,0,0:0:0:0:
448,192,273613,1,0,0:0:0:0:
192,192,273613,1,0,0:0:0:0:
64,192,273692,1,0,0:0:0:0:
448,192,273771,1,0,0:0:0:0:
64,192,273850,1,0,0:0:0:0:
448,192,273929,1,0,0:0:0:0:
192,192,273929,1,0,0:0:0:0:
64,192,274008,1,0,0:0:0:0:
448,192,274087,1,0,0:0:0:0:
64,192,274166,1,0,0:0:0:0:
192,192,274206,1,0,0:0:0:0:
320,192,274245,1,0,0:0:0:0:
448,192,274245,1,0,0:0:0:0:
64,192,274324,1,0,0:0:0:0:
192,192,274403,1,0,0:0:0:0:
448,192,274482,1,0,0:0:0:0:
64,192,274561,1,0,0:0:0:0:
320,192,274561,1,0,0:0:0:0:
192,192,274640,1,0,0:0:0:0:
320,192,274719,1,0,0:0:0:0:
192,192,274798,1,0,0:0:0:0:
64,192,274877,1,0,0:0:0:0:
320,192,274877,1,0,0:0:0:0:
448,192,274877,1,0,0:0:0:0:
192,192,274956,1,0,0:0:0:0:
320,192,275035,1,0,0:0:0:0:
448,192,275035,1,0,0:0:0:0:
64,192,275113,1,0,0:0:0:0:
448,192,275192,1,0,0:0:0:0:
192,192,275192,1,0,0:0:0:0:
320,192,275271,1,0,0:0:0:0:
64,192,275350,1,0,0:0:0:0:
448,192,275350,1,0,0:0:0:0:
192,192,275429,1,0,0:0:0:0:
320,192,275508,1,0,0:0:0:0:
448,192,275508,1,0,0:0:0:0:
192,192,275587,1,0,0:0:0:0:
64,192,275666,1,0,0:0:0:0:
320,192,275666,1,0,0:0:0:0:
192,192,275745,1,0,0:0:0:0:
320,192,275824,1,0,0:0:0:0:
448,192,275824,1,0,0:0:0:0:
64,192,275903,1,0,0:0:0:0:
192,192,275982,1,0,0:0:0:0:
320,192,275982,1,0,0:0:0:0:
448,192,276061,1,0,0:0:0:0:
192,192,276140,1,0,0:0:0:0:
64,192,276140,1,0,0:0:0:0:
320,192,276219,1,0,0:0:0:0:
448,192,276298,1,0,0:0:0:0:
192,192,276298,1,0,0:0:0:0:
320,192,276377,1,0,0:0:0:0:
192,192,276456,1,0,0:0:0:0:
64,192,276456,1,0,0:0:0:0:
320,192,276535,1,0,0:0:0:0:
448,192,276613,1,0,0:0:0:0:
64,192,276613,1,0,0:0:0:0:
192,192,276692,1,0,0:0:0:0:
64,192,276771,1,0,0:0:0:0:
320,192,276771,1,0,0:0:0:0:
448,192,276850,1,0,0:0:0:0:
192,192,276929,1,0,0:0:0:0:
64,192,276929,1,0,0:0:0:0:
320,192,277008,1,0,0:0:0:0:
448,192,277087,1,0,0:0:0:0:
192,192,277087,1,0,0:0:0:0:
64,192,277166,1,0,0:0:0:0:
320,192,277245,1,0,0:0:0:0:
448,192,277245,1,0,0:0:0:0:
192,192,277324,1,0,0:0:0:0:
64,192,277403,1,0,0:0:0:0:
320,192,277403,1,0,0:0:0:0:
448,192,277482,1,0,0:0:0:0:
320,192,277561,1,0,0:0:0:0:
192,192,277561,1,0,0:0:0:0:
64,192,277640,1,0,0:0:0:0:
320,192,277719,1,0,0:0:0:0:
448,192,277719,1,0,0:0:0:0:
192,192,277798,1,0,0:0:0:0:
64,192,277877,1,0,0:0:0:0:
448,192,277877,1,0,0:0:0:0:
192,192,277956,1,0,0:0:0:0:
320,192,278035,1,0,0:0:0:0:
448,192,278035,1,0,0:0:0:0:
64,192,278113,1,0,0:0:0:0:
192,192,278192,1,0,0:0:0:0:
320,192,278192,1,0,0:0:0:0:
448,192,278271,1,0,0:0:0:0:
64,192,278350,1,0,0:0:0:0:
320,192,278350,1,0,0:0:0:0:
192,192,278429,1,0,0:0:0:0:
64,192,278508,1,0,0:0:0:0:
448,192,278508,1,0,0:0:0:0:
320,192,278587,1,0,0:0:0:0:
192,192,278666,1,0,0:0:0:0:
64,192,278666,1,0,0:0:0:0:
448,192,278745,1,0,0:0:0:0:
320,192,278824,1,0,0:0:0:0:
64,192,278824,1,0,0:0:0:0:
192,192,278903,1,0,0:0:0:0:
320,192,278982,1,0,0:0:0:0:
448,192,278982,1,0,0:0:0:0:
64,192,279061,1,0,0:0:0:0:
192,192,279140,1,0,0:0:0:0:
448,192,279140,1,0,0:0:0:0:
64,192,279219,1,0,0:0:0:0:
320,192,279298,1,0,0:0:0:0:
448,192,279298,1,0,0:0:0:0:
192,192,279377,1,0,0:0:0:0:
64,192,279456,1,0,0:0:0:0:
320,192,279456,1,0,0:0:0:0:
448,192,279535,1,0,0:0:0:0:
192,192,279613,1,0,0:0:0:0:
64,192,279613,1,0,0:0:0:0:
320,192,279692,1,0,0:0:0:0:
448,192,279771,1,0,0:0:0:0:
192,192,279771,1,0,0:0:0:0:
320,192,279850,1,0,0:0:0:0:
448,192,279929,1,0,0:0:0:0:
64,192,279929,1,0,0:0:0:0:
192,192,280008,1,0,0:0:0:0:
320,192,280087,1,0,0:0:0:0:
448,192,280087,1,0,0:0:0:0:
192,192,280166,1,0,0:0:0:0:
64,192,280245,1,0,0:0:0:0:
320,192,280245,1,0,0:0:0:0:
192,192,280324,1,0,0:0:0:0:
320,192,280403,1,0,0:0:0:0:
448,192,280403,1,0,0:0:0:0:
64,192,280482,1,0,0:0:0:0:
192,192,280561,1,0,0:0:0:0:
448,192,280561,1,0,0:0:0:0:
320,192,280640,1,0,0:0:0:0:
192,192,280719,1,0,0:0:0:0:
64,192,280719,1,0,0:0:0:0:
448,192,280798,1,0,0:0:0:0:
320,192,280877,1,0,0:0:0:0:
64,192,280877,1,0,0:0:0:0:
448,192,280956,1,0,0:0:0:0:
192,192,281035,1,0,0:0:0:0:
64,192,281035,1,0,0:0:0:0:
320,192,281113,1,0,0:0:0:0:
192,192,281192,1,0,0:0:0:0:
448,192,281192,1,0,0:0:0:0:
64,192,281271,1,0,0:0:0:0:
320,192,281350,1,0,0:0:0:0:
448,192,281350,1,0,0:0:0:0:
192,192,281429,1,0,0:0:0:0:
64,192,281508,1,0,0:0:0:0:
320,192,281508,1,0,0:0:0:0:
448,192,281587,1,0,0:0:0:0:
320,192,281666,1,0,0:0:0:0:
192,192,281666,1,0,0:0:0:0:
64,192,281745,1,0,0:0:0:0:
320,192,281824,1,0,0:0:0:0:
448,192,281824,1,0,0:0:0:0:
192,192,281903,1,0,0:0:0:0:
64,192,281982,1,0,0:0:0:0:
448,192,281982,1,0,0:0:0:0:
192,192,282061,1,0,0:0:0:0:
320,192,282140,1,0,0:0:0:0:
448,192,282140,1,0,0:0:0:0:
64,192,282219,1,0,0:0:0:0:
192,192,282298,1,0,0:0:0:0:
448,192,282298,1,0,0:0:0:0:
320,192,282377,1,0,0:0:0:0:
192,192,282456,1,0,0:0:0:0:
64,192,282456,1,0,0:0:0:0:
448,192,282535,1,0,0:0:0:0:
320,192,282613,1,0,0:0:0:0:
64,192,282613,1,0,0:0:0:0:
448,192,282692,1,0,0:0:0:0:
192,192,282771,1,0,0:0:0:0:
64,192,282771,1,0,0:0:0:0:
320,192,282850,1,0,0:0:0:0:
448,192,282929,1,0,0:0:0:0:
192,192,282929,1,0,0:0:0:0:
64,192,283008,1,0,0:0:0:0:
320,192,283087,1,0,0:0:0:0:
192,192,283087,1,0,0:0:0:0:
448,192,283166,1,0,0:0:0:0:
320,192,283245,1,0,0:0:0:0:
64,192,283245,1,0,0:0:0:0:
192,192,283324,1,0,0:0:0:0:
448,192,283403,1,0,0:0:0:0:
320,192,283403,1,0,0:0:0:0:
192,192,283482,1,0,0:0:0:0:
64,192,283561,1,0,0:0:0:0:
448,192,283561,1,0,0:0:0:0:
192,192,283640,1,0,0:0:0:0:
64,192,283719,1,0,0:0:0:0:
320,192,283719,1,0,0:0:0:0:
192,192,283798,1,0,0:0:0:0:
448,192,283877,128,0,284035:0:0:0:0:
64,192,284035,1,0,0:0:0:0:
192,192,284113,1,0,0:0:0:0:
448,192,284192,128,0,284350:0:0:0:0:
64,192,284350,1,0,0:0:0:0:
192,192,284429,1,0,0:0:0:0:
448,192,284508,128,0,284666:0:0:0:0:
64,192,284666,1,0,0:0:0:0:
192,192,284745,1,0,0:0:0:0:
448,192,284824,128,0,284982:0:0:0:0:
64,192,284982,5,0,0:0:0:0:
192,192,284982,1,0,0:0:0:0:
320,192,284982,1,0,0:0:0:0:
448,192,285061,1,0,0:0:0:0:
192,192,285140,1,0,0:0:0:0:
64,192,285219,1,0,0:0:0:0:
320,192,285298,1,0,0:0:0:0:
448,192,285298,1,0,0:0:0:0:
192,192,285377,1,0,0:0:0:0:
448,192,285456,1,0,0:0:0:0:
64,192,285535,1,0,0:0:0:0:
192,192,285613,1,0,0:0:0:0:
320,192,285613,1,0,0:0:0:0:
448,192,285692,1,0,0:0:0:0:
64,192,285771,1,0,0:0:0:0:
320,192,285850,1,0,0:0:0:0:
448,192,285929,1,0,0:0:0:0:
192,192,285929,1,0,0:0:0:0:
64,192,286008,1,0,0:0:0:0:
320,192,286087,1,0,0:0:0:0:
448,192,286166,1,0,0:0:0:0:
192,192,286245,1,0,0:0:0:0:
64,192,286245,1,0,0:0:0:0:
320,192,286324,1,0,0:0:0:0:
448,192,286403,1,0,0:0:0:0:
64,192,286482,1,0,0:0:0:0:
192,192,286561,1,0,0:0:0:0:
448,192,286561,1,0,0:0:0:0:
320,192,286640,1,0,0:0:0:0:
64,192,286719,1,0,0:0:0:0:
448,192,286798,1,0,0:0:0:0:
320,192,286877,1,0,0:0:0:0:
192,192,286877,1,0,0:0:0:0:
64,192,286956,1,0,0:0:0:0:
448,192,287035,1,0,0:0:0:0:
192,192,287113,1,0,0:0:0:0:
64,192,287192,1,0,0:0:0:0:
320,192,287192,1,0,0:0:0:0:
448,192,287271,1,0,0:0:0:0:
192,192,287350,1,0,0:0:0:0:
64,192,287429,1,0,0:0:0:0:
320,192,287508,1,0,0:0:0:0:
448,192,287508,1,0,0:0:0:0:
192,192,287587,1,0,0:0:0:0:
64,192,287666,1,0,0:0:0:0:
320,192,287745,1,0,0:0:0:0:
448,192,287824,1,0,0:0:0:0:
64,192,287824,1,0,0:0:0:0:
192,192,287903,1,0,0:0:0:0:
320,192,287982,1,0,0:0:0:0:
64,192,288061,1,0,0:0:0:0:
192,192,288140,1,0,0:0:0:0:
448,192,288140,1,0,0:0:0:0:
320,192,288219,1,0,0:0:0:0:
64,192,288298,1,0,0:0:0:0:
448,192,288377,1,0,0:0:0:0:
320,192,288456,1,0,0:0:0:0:
192,192,288456,1,0,0:0:0:0:
64,192,288535,1,0,0:0:0:0:
320,192,288613,1,0,0:0:0:0:
448,192,288692,1,0,0:0:0:0:
192,192,288771,1,0,0:0:0:0:
64,192,288771,1,0,0:0:0:0:
320,192,288850,1,0,0:0:0:0:
192,192,288929,1,0,0:0:0:0:
448,192,289008,1,0,0:0:0:0:
64,192,289087,1,0,0:0:0:0:
320,192,289087,1,0,0:0:0:0:
192,192,289166,1,0,0:0:0:0:
448,192,289245,1,0,0:0:0:0:
64,192,289324,1,0,0:0:0:0:
192,192,289403,1,0,0:0:0:0:
320,192,289403,1,0,0:0:0:0:
448,192,289482,1,0,0:0:0:0:
64,192,289561,1,0,0:0:0:0:
192,192,289640,1,0,0:0:0:0:
320,192,289719,1,0,0:0:0:0:
448,192,289719,1,0,0:0:0:0:
64,192,289798,1,0,0:0:0:0:
448,192,289877,1,0,0:0:0:0:
192,192,289956,1,0,0:0:0:0:
64,192,290035,1,0,0:0:0:0:
320,192,290035,1,0,0:0:0:0:
448,192,290113,1,0,0:0:0:0:
192,192,290192,1,0,0:0:0:0:
320,192,290271,1,0,0:0:0:0:
448,192,290350,1,0,0:0:0:0:
64,192,290350,1,0,0:0:0:0:
192,192,290429,1,0,0:0:0:0:
320,192,290508,1,0,0:0:0:0:
64,192,290587,1,0,0:0:0:0:
192,192,290666,1,0,0:0:0:0:
448,192,290666,1,0,0:0:0:0:
320,192,290745,1,0,0:0:0:0:
192,192,290824,1,0,0:0:0:0:
64,192,290903,1,0,0:0:0:0:
320,192,290982,1,0,0:0:0:0:
448,192,290982,1,0,0:0:0:0:
192,192,291061,1,0,0:0:0:0:
64,192,291140,1,0,0:0:0:0:
448,192,291219,1,0,0:0:0:0:
320,192,291298,1,0,0:0:0:0:
64,192,291298,1,0,0:0:0:0:
192,192,291377,1,0,0:0:0:0:
448,192,291456,1,0,0:0:0:0:
320,192,291535,1,0,0:0:0:0:
192,192,291613,1,0,0:0:0:0:
64,192,291613,1,0,0:0:0:0:
448,192,291692,1,0,0:0:0:0:
64,192,291771,1,0,0:0:0:0:
192,192,291850,1,0,0:0:0:0:
320,192,291929,1,0,0:0:0:0:
448,192,291929,1,0,0:0:0:0:
64,192,292008,1,0,0:0:0:0:
192,192,292087,1,0,0:0:0:0:
448,192,292166,1,0,0:0:0:0:
320,192,292245,1,0,0:0:0:0:
64,192,292245,1,0,0:0:0:0:
192,192,292324,1,0,0:0:0:0:
448,192,292403,1,0,0:0:0:0:
64,192,292482,1,0,0:0:0:0:
192,192,292561,1,0,0:0:0:0:
320,192,292561,1,0,0:0:0:0:
448,192,292640,1,0,0:0:0:0:
64,192,292719,1,0,0:0:0:0:
320,192,292798,1,0,0:0:0:0:
192,192,292877,1,0,0:0:0:0:
448,192,292877,1,0,0:0:0:0:
64,192,292956,1,0,0:0:0:0:
320,192,293035,1,0,0:0:0:0:
448,192,293113,1,0,0:0:0:0:
192,192,293192,1,0,0:0:0:0:
64,192,293192,1,0,0:0:0:0:
320,192,293271,1,0,0:0:0:0:
64,192,293350,1,0,0:0:0:0:
192,192,293429,1,0,0:0:0:0:
320,192,293508,1,0,0:0:0:0:
448,192,293508,1,0,0:0:0:0:
192,192,293587,1,0,0:0:0:0:
64,192,293666,1,0,0:0:0:0:
448,192,293745,1,0,0:0:0:0:
192,192,293824,1,0,0:0:0:0:
64,192,293824,1,0,0:0:0:0:
320,192,293903,1,0,0:0:0:0:
448,192,293982,1,0,0:0:0:0:
192,192,294061,1,0,0:0:0:0:
64,192,294140,1,0,0:0:0:0:
320,192,294140,1,0,0:0:0:0:
448,192,294219,1,0,0:0:0:0:
192,192,294298,1,0,0:0:0:0:
320,192,294377,1,0,0:0:0:0:
64,192,294456,1,0,0:0:0:0:
448,192,294456,1,0,0:0:0:0:
192,192,294535,1,0,0:0:0:0:
320,192,294613,1,0,0:0:0:0:
448,192,294613,1,0,0:0:0:0:
192,192,294692,1,0,0:0:0:0:
64,192,294692,1,0,0:0:0:0:
320,192,294771,1,0,0:0:0:0:
448,192,294771,1,0,0:0:0:0:
192,192,294850,1,0,0:0:0:0:
64,192,294850,1,0,0:0:0:0:
320,192,294929,1,0,0:0:0:0:
448,192,294929,1,0,0:0:0:0:
192,192,295008,1,0,0:0:0:0:
64,192,295087,1,0,0:0:0:0:
320,192,295087,1,0,0:0:0:0:
448,192,295087,1,0,0:0:0:0:
192,192,295166,1,0,0:0:0:0:
320,192,295245,1,0,0:0:0:0:
64,192,295324,1,0,0:0:0:0:
192,192,295403,1,0,0:0:0:0:
448,192,295403,1,0,0:0:0:0:
320,192,295482,1,0,0:0:0:0:
64,192,295561,1,0,0:0:0:0:
192,192,295640,1,0,0:0:0:0:
64,192,295719,1,0,0:0:0:0:
320,192,295719,1,0,0:0:0:0:
448,192,295798,1,0,0:0:0:0:
192,192,295877,1,0,0:0:0:0:
320,192,295956,1,0,0:0:0:0:
448,192,296035,1,0,0:0:0:0:
64,192,296035,1,0,0:0:0:0:
192,192,296113,1,0,0:0:0:0:
320,192,296192,1,0,0:0:0:0:
448,192,296271,1,0,0:0:0:0:
320,192,296350,1,0,0:0:0:0:
192,192,296350,1,0,0:0:0:0:
64,192,296429,1,0,0:0:0:0:
448,192,296508,1,0,0:0:0:0:
192,192,296587,1,0,0:0:0:0:
320,192,296666,1,0,0:0:0:0:
64,192,296666,1,0,0:0:0:0:
448,192,296745,1,0,0:0:0:0:
192,192,296824,1,0,0:0:0:0:
64,192,296903,1,0,0:0:0:0:
192,192,296982,1,0,0:0:0:0:
448,192,296982,1,0,0:0:0:0:
320,192,297061,1,0,0:0:0:0:
64,192,297140,1,0,0:0:0:0:
448,192,297219,1,0,0:0:0:0:
320,192,297298,1,0,0:0:0:0:
192,192,297298,1,0,0:0:0:0:
64,192,297377,1,0,0:0:0:0:
448,192,297456,1,0,0:0:0:0:
320,192,297535,1,0,0:0:0:0:
448,192,297613,1,0,0:0:0:0:
64,192,297613,1,0,0:0:0:0:
192,192,297692,1,0,0:0:0:0:
320,192,297771,1,0,0:0:0:0:
64,192,297850,1,0,0:0:0:0:
320,192,297929,1,0,0:0:0:0:
448,192,297929,1,0,0:0:0:0:
192,192,298008,1,0,0:0:0:0:
64,192,298087,1,0,0:0:0:0:
320,192,298166,1,0,0:0:0:0:
192,192,298245,1,0,0:0:0:0:
448,192,298245,1,0,0:0:0:0:
320,192,298324,1,0,0:0:0:0:
64,192,298403,1,0,0:0:0:0:
448,192,298482,1,0,0:0:0:0:
320,192,298561,1,0,0:0:0:0:
192,192,298561,1,0,0:0:0:0:
64,192,298640,1,0,0:0:0:0:
448,192,298719,1,0,0:0:0:0:
192,192,298798,1,0,0:0:0:0:
64,192,298877,1,0,0:0:0:0:
320,192,298877,1,0,0:0:0:0:
192,192,298956,1,0,0:0:0:0:
448,192,299035,1,0,0:0:0:0:
64,192,299113,1,0,0:0:0:0:
320,192,299192,1,0,0:0:0:0:
448,192,299192,1,0,0:0:0:0:
192,192,299271,1,0,0:0:0:0:
64,192,299350,1,0,0:0:0:0:
448,192,299429,1,0,0:0:0:0:
320,192,299508,1,0,0:0:0:0:
64,192,299508,1,0,0:0:0:0:
448,192,299587,1,0,0:0:0:0:
192,192,299666,1,0,0:0:0:0:
320,192,299745,1,0,0:0:0:0:
64,192,299824,1,0,0:0:0:0:
448,192,299824,1,0,0:0:0:0:
192,192,299903,1,0,0:0:0:0:
320,192,299982,1,0,0:0:0:0:
64,192,300061,1,0,0:0:0:0:
192,192,300140,1,0,0:0:0:0:
448,192,300140,1,0,0:0:0:0:
64,192,300219,1,0,0:0:0:0:
320,192,300298,1,0,0:0:0:0:
448,192,300377,1,0,0:0:0:0:
192,192,300456,1,0,0:0:0:0:
64,192,300456,1,0,0:0:0:0:
320,192,300535,1,0,0:0:0:0:
448,192,300613,1,0,0:0:0:0:
192,192,300692,1,0,0:0:0:0:
64,192,300771,1,0,0:0:0:0:
448,192,300771,1,0,0:0:0:0:
192,192,300850,1,0,0:0:0:0:
320,192,300929,1,0,0:0:0:0:
448,192,301008,1,0,0:0:0:0:
192,192,301087,1,0,0:0:0:0:
64,192,301087,1,0,0:0:0:0:
320,192,301166,1,0,0:0:0:0:
192,192,301245,1,0,0:0:0:0:
320,192,301324,1,0,0:0:0:0:
64,192,301403,1,0,0:0:0:0:
448,192,301403,1,0,0:0:0:0:
320,192,301482,1,0,0:0:0:0:
192,192,301561,1,0,0:0:0:0:
448,192,301640,1,0,0:0:0:0:
320,192,301719,1,0,0:0:0:0:
64,192,301719,1,0,0:0:0:0:
192,192,301798,1,0,0:0:0:0:
448,192,301877,1,0,0:0:0:0:
64,192,301956,1,0,0:0:0:0:
192,192,302035,1,0,0:0:0:0:
320,192,302035,1,0,0:0:0:0:
64,192,302113,1,0,0:0:0:0:
448,192,302192,1,0,0:0:0:0:
192,192,302271,1,0,0:0:0:0:
64,192,302350,1,0,0:0:0:0:
448,192,302350,1,0,0:0:0:0:
320,192,302429,1,0,0:0:0:0:
192,192,302508,1,0,0:0:0:0:
448,192,302587,1,0,0:0:0:0:
320,192,302666,1,0,0:0:0:0:
192,192,302666,1,0,0:0:0:0:
448,192,302745,1,0,0:0:0:0:
64,192,302824,1,0,0:0:0:0:
320,192,302903,1,0,0:0:0:0:
192,192,302982,1,0,0:0:0:0:
448,192,302982,1,0,0:0:0:0:
64,192,303061,1,0,0:0:0:0:
320,192,303140,1,0,0:0:0:0:
192,192,303219,1,0,0:0:0:0:
320,192,303298,1,0,0:0:0:0:
448,192,303298,1,0,0:0:0:0:
64,192,303377,1,0,0:0:0:0:
192,192,303456,1,0,0:0:0:0:
448,192,303535,1,0,0:0:0:0:
320,192,303613,1,0,0:0:0:0:
64,192,303613,1,0,0:0:0:0:
192,192,303692,1,0,0:0:0:0:
448,192,303771,1,0,0:0:0:0:
64,192,303850,1,0,0:0:0:0:
192,192,303929,1,0,0:0:0:0:
320,192,303929,1,0,0:0:0:0:
448,192,304008,1,0,0:0:0:0:
64,192,304087,1,0,0:0:0:0:
192,192,304127,1,0,0:0:0:0:
320,192,304166,1,0,0:0:0:0:
448,192,304166,1,0,0:0:0:0:
192,192,304245,1,0,0:0:0:0:
64,192,304245,1,0,0:0:0:0:
320,192,304324,1,0,0:0:0:0:
64,192,304403,1,0,0:0:0:0:
448,192,304403,1,0,0:0:0:0:
192,192,304482,1,0,0:0:0:0:
320,192,304561,1,0,0:0:0:0:
448,192,304561,1,0,0:0:0:0:
192,192,304640,1,0,0:0:0:0:
64,192,304719,1,0,0:0:0:0:
320,192,304719,1,0,0:0:0:0:
192,192,304798,1,0,0:0:0:0:
320,192,304877,1,0,0:0:0:0:
448,192,304877,1,0,0:0:0:0:
64,192,304956,1,0,0:0:0:0:
192,192,305035,128,0,305192:0:0:0:0:
320,192,305113,128,0,305192:0:0:0:0:
