osu file format v14

[General]
AudioFilename: audio.mp3
AudioLeadIn: 0
PreviewTime: -1
Countdown: 0
SampleSet: Normal
StackLeniency: 0.7
Mode: 1
LetterboxInBreaks: 0
WidescreenStoryboard: 1

[Editor]
DistanceSpacing: 1
BeatDivisor: 3
GridSize: 32
TimelineZoom: 2.1

[Metadata]
Title:Aa, Subarashiki Nyansei
TitleUnicode:Aa, Subarashiki Nyansei
Artist:Pokota and Hanatan
ArtistUnicode:Pokota and Hanatan
Creator:Bedwyr Aorta
Version:Teru's Oninyan (IGTS ver.)
Source:
Tags:
BeatmapID:2075012
BeatmapSetID:992200

[Difficulty]
HPDrainRate:6
CircleSize:5
OverallDifficulty:6
ApproachRate:5
SliderMultiplier:1.4
SliderTickRate:1

[Events]
//Background and Video events
0,0,"bg.jpg",0,0
//Break Periods
//Storyboard Layer 0 (Background)
//Storyboard Layer 1 (Fail)
//Storyboard Layer 2 (Pass)
//Storyboard Layer 3 (Foreground)
Sprite,Foreground,Centre,"diff1.png",320,240 M,0,1451,1761,-204,388,106,388 S,0,1451,10420,0.6 M,0,1761,10420,106,388,105,388 F,0,10420,10575,1,0 M,0,10420,212379,105,388 F,0,10575,11503,0 F,0,11503,11657,0,1 S,0,11503,11657,0.4,0.6 M,0,212379,212688,105,388,700,388
Sprite,Foreground,Centre,"teru1.png",320,240 M,0,1451,1761,887,430,140,430 F,0,1451,1761,0,1 S,0,1451,10420,1 M,0,1761,10420,140,430 F,0,1761,10420,1 F,0,10420,10575,1,0 S,0,10420,10575,1 M,0,10420,212379,140,430 F,0,10575,11503,0 S,0,10575,11503,0.7 F,0,11503,11657,0,1 S,0,11503,11657,0.7,1 S,0,11657,210833,1 M,0,212379,212688,140,430,-239,430
//Storyboard Sound Samples

[TimingPoints]
1774,309.278350515464,4,1,0,70,1,8
41361,-100,4,1,0,70,0,1
63011,-100,4,1,0,70,0,0
100743,-100,4,1,0,70,0,1
121464,-100,4,1,0,70,0,0
152701,-100,4,1,0,70,0,1
172495,-100,4,1,0,70,0,1
194763,-100,4,1,0,70,0,0

[Colours]
Combo1 : 0,230,230
Combo2 : 105,234,19
Combo3 : 255,128,0
Combo4 : 242,231,6

[HitObjects]
256,192,1774,5,0,0:0:0:0:
256,192,2083,1,8,0:0:0:0:
256,192,2392,1,0,0:0:0:0:
256,192,2701,1,8,0:0:0:0:
256,192,2908,1,0,0:0:0:0:
256,192,3011,1,0,0:0:0:0:
256,192,3217,1,0,0:0:0:0:
256,192,3320,1,8,0:0:0:0:
256,192,3526,1,0,0:0:0:0:
256,192,3629,1,0,0:0:0:0:
256,192,3835,1,0,0:0:0:0:
256,192,3938,1,8,0:0:0:0:
256,192,4145,1,8,0:0:0:0:
256,192,4248,1,0,0:0:0:0:
256,192,4454,1,0,0:0:0:0:
256,192,4557,1,8,0:0:0:0:
256,192,4763,1,8,0:0:0:0:
256,192,4866,1,0,0:0:0:0:
256,192,5072,1,8,0:0:0:0:
256,192,5176,1,8,0:0:0:0:
256,192,5382,1,0,0:0:0:0:
256,192,5485,1,0,0:0:0:0:
256,192,5794,1,8,0:0:0:0:
256,192,6103,1,8,0:0:0:0:
256,192,6310,1,0,0:0:0:0:
256,192,6413,1,8,0:0:0:0:
256,192,6516,1,0,0:0:0:0:
256,192,6619,1,8,0:0:0:0:
256,192,6722,1,8,0:0:0:0:
256,192,7031,1,8,0:0:0:0:
256,192,7341,1,0,0:0:0:0:
256,192,7650,1,8,0:0:0:0:
256,192,7856,1,0,0:0:0:0:
256,192,7959,1,0,0:0:0:0:
256,192,8165,1,8,0:0:0:0:
256,192,8268,1,8,0:0:0:0:
256,192,8475,1,8,0:0:0:0:
256,192,8578,1,0,0:0:0:0:
256,192,8784,1,0,0:0:0:0:
256,192,8887,1,8,0:0:0:0:
256,192,9093,1,8,0:0:0:0:
256,192,9196,1,0,0:0:0:0:
256,192,9402,1,8,0:0:0:0:
256,192,9505,1,8,0:0:0:0:
256,192,9712,1,0,0:0:0:0:
256,192,9815,1,0,0:0:0:0:
256,192,9918,1,8,0:0:0:0:
256,192,10021,1,8,0:0:0:0:
256,192,10124,1,0,0:0:0:0:
256,192,10227,1,8,0:0:0:0:
256,192,10330,1,0,0:0:0:0:
256,192,10433,1,0,0:0:0:0:
256,192,10743,1,8,0:0:0:0:
256,192,11052,1,8,0:0:0:0:
256,192,11258,1,0,0:0:0:0:
256,192,11361,1,8,0:0:0:0:
256,192,11567,1,8,0:0:0:0:
256,192,11670,5,0,0:0:0:0:
256,192,12495,1,0,0:0:0:0:
256,192,12908,1,0,0:0:0:0:
256,192,14145,1,0,0:0:0:0:
256,192,14969,1,0,0:0:0:0:
256,192,15382,1,0,0:0:0:0:
256,192,16206,1,0,0:0:0:0:
256,192,16619,1,12,0:0:0:0:
256,192,17444,1,0,0:0:0:0:
256,192,17856,1,0,0:0:0:0:
256,192,19093,1,0,0:0:0:0:
256,192,19918,1,0,0:0:0:0:
256,192,20330,1,0,0:0:0:0:
256,192,20639,1,8,0:0:0:0:
256,192,20949,1,0,0:0:0:0:
256,192,21155,1,0,0:0:0:0:
256,192,21258,1,8,0:0:0:0:
256,192,21464,1,8,0:0:0:0:
256,192,21567,1,0,0:0:0:0:
256,192,21877,1,8,0:0:0:0:
256,192,22186,1,0,0:0:0:0:
256,192,22495,1,8,0:0:0:0:
256,192,22804,1,0,0:0:0:0:
256,192,23114,1,8,0:0:0:0:
256,192,23217,1,0,0:0:0:0:
256,192,23320,1,0,0:0:0:0:
256,192,23423,1,8,0:0:0:0:
256,192,23732,1,8,0:0:0:0:
256,192,24042,1,0,0:0:0:0:
256,192,24248,1,8,0:0:0:0:
256,192,24351,1,8,0:0:0:0:
256,192,24660,1,0,0:0:0:0:
256,192,24866,1,8,0:0:0:0:
256,192,24969,1,8,0:0:0:0:
256,192,25279,1,0,0:0:0:0:
256,192,25485,1,8,0:0:0:0:
256,192,25588,1,8,0:0:0:0:
256,192,25794,1,0,0:0:0:0:
256,192,25897,1,0,0:0:0:0:
256,192,26103,1,8,0:0:0:0:
256,192,26206,1,8,0:0:0:0:
256,192,26310,1,0,0:0:0:0:
256,192,26413,1,0,0:0:0:0:
256,192,26516,1,8,0:0:0:0:
256,192,26825,1,8,0:0:0:0:
256,192,27134,1,0,0:0:0:0:
256,192,27444,1,8,0:0:0:0:
256,192,27650,1,8,0:0:0:0:
256,192,27753,1,0,0:0:0:0:
256,192,28062,1,8,0:0:0:0:
256,192,28371,1,0,0:0:0:0:
256,192,28578,1,0,0:0:0:0:
256,192,28681,1,8,0:0:0:0:
256,192,28887,1,8,0:0:0:0:
256,192,28990,1,0,0:0:0:0:
256,192,29299,1,8,0:0:0:0:
256,192,29505,1,8,0:0:0:0:
256,192,29609,1,0,0:0:0:0:
256,192,29918,1,8,0:0:0:0:
256,192,30124,1,8,0:0:0:0:
256,192,30227,1,0,0:0:0:0:
256,192,30433,1,8,0:0:0:0:
256,192,30536,1,8,0:0:0:0:
256,192,30743,1,0,0:0:0:0:
256,192,30846,1,0,0:0:0:0:
256,192,31052,1,0,0:0:0:0:
256,192,31155,1,8,0:0:0:0:
256,192,31258,1,0,0:0:0:0:
256,192,31361,1,0,0:0:0:0:
256,192,31464,1,0,0:0:0:0:
256,192,31670,1,0,0:0:0:0:
256,192,31774,1,8,0:0:0:0:
256,192,32083,1,0,0:0:0:0:
256,192,32392,1,8,0:0:0:0:
256,192,32701,1,0,0:0:0:0:
256,192,33011,1,8,0:0:0:0:
256,192,33320,1,0,0:0:0:0:
256,192,33629,1,8,0:0:0:0:
256,192,33938,1,0,0:0:0:0:
256,192,34145,1,8,0:0:0:0:
256,192,34248,1,8,0:0:0:0:
256,192,34557,1,0,0:0:0:0:
256,192,34763,1,8,0:0:0:0:
256,192,34866,1,8,0:0:0:0:
256,192,35176,1,0,0:0:0:0:
256,192,35382,1,8,0:0:0:0:
256,192,35485,1,8,0:0:0:0:
256,192,35691,1,0,0:0:0:0:
256,192,35794,1,0,0:0:0:0:
256,192,36000,1,8,0:0:0:0:
256,192,36103,1,8,0:0:0:0:
256,192,36206,1,0,0:0:0:0:
256,192,36310,1,0,0:0:0:0:
256,192,36413,1,8,0:0:0:0:
256,192,36619,1,0,0:0:0:0:
256,192,36722,1,8,0:0:0:0:
256,192,37031,1,0,0:0:0:0:
256,192,37341,1,8,0:0:0:0:
256,192,37547,1,0,0:0:0:0:
256,192,37650,1,0,0:0:0:0:
256,192,37959,1,8,0:0:0:0:
256,192,38268,1,0,0:0:0:0:
256,192,38475,1,0,0:0:0:0:
256,192,38578,1,8,0:0:0:0:
256,192,38784,1,8,0:0:0:0:
256,192,38887,1,4,0:0:0:0:
256,192,39093,1,8,0:0:0:0:
256,192,39299,1,8,0:0:0:0:
256,192,39505,1,4,0:0:0:0:
256,192,39712,1,8,0:0:0:0:
256,192,39918,1,8,0:0:0:0:
256,192,40124,1,4,0:0:0:0:
256,192,40330,1,8,0:0:0:0:
256,192,40536,1,8,0:0:0:0:
256,192,40743,1,4,0:0:0:0:
256,192,40949,1,8,0:0:0:0:
256,192,41052,1,8,0:0:0:0:
256,192,41258,1,0,0:0:0:0:
256,192,41361,5,0,0:0:0:0:
256,192,41567,1,0,0:0:0:0:
256,192,41670,1,8,0:0:0:0:
256,192,41877,1,0,0:0:0:0:
256,192,41980,1,8,0:0:0:0:
256,192,42083,1,0,0:0:0:0:
256,192,42186,1,8,0:0:0:0:
256,192,42289,1,0,0:0:0:0:
256,192,42598,1,12,0:0:0:0:
256,192,42908,1,12,0:0:0:0:
256,192,43217,1,12,0:0:0:0:
256,192,43526,1,0,0:0:0:0:
256,192,43732,1,0,0:0:0:0:
256,192,43835,1,0,0:0:0:0:
256,192,44042,1,0,0:0:0:0:
256,192,44145,1,8,0:0:0:0:
256,192,44351,1,0,0:0:0:0:
256,192,44454,1,0,0:0:0:0:
256,192,44763,1,8,0:0:0:0:
256,192,44969,1,8,0:0:0:0:
256,192,45072,1,0,0:0:0:0:
256,192,45279,1,0,0:0:0:0:
256,192,45382,1,8,0:0:0:0:
256,192,45588,1,8,0:0:0:0:
256,192,45691,1,0,0:0:0:0:
256,192,45897,1,0,0:0:0:0:
256,192,46000,1,8,0:0:0:0:
256,192,46103,1,8,0:0:0:0:
256,192,46206,1,0,0:0:0:0:
256,192,46310,1,0,0:0:0:0:
256,192,46619,1,8,0:0:0:0:
256,192,46722,1,8,0:0:0:0:
256,192,46825,1,0,0:0:0:0:
256,192,46928,1,0,0:0:0:0:
256,192,47134,1,0,0:0:0:0:
256,192,47237,1,8,0:0:0:0:
256,192,47444,1,8,0:0:0:0:
256,192,47547,1,0,0:0:0:0:
256,192,47856,1,8,0:0:0:0:
256,192,48165,1,8,0:0:0:0:
256,192,48475,1,0,0:0:0:0:
256,192,48681,1,0,0:0:0:0:
256,192,48784,1,8,0:0:0:0:
256,192,48990,1,8,0:0:0:0:
256,192,49093,1,0,0:0:0:0:
256,192,49299,1,8,0:0:0:0:
256,192,49402,1,8,0:0:0:0:
256,192,49609,1,0,0:0:0:0:
256,192,49712,1,0,0:0:0:0:
256,192,49918,1,8,0:0:0:0:
256,192,50021,1,0,0:0:0:0:
256,192,50227,1,0,0:0:0:0:
256,192,50330,1,8,0:0:0:0:
256,192,50536,1,0,0:0:0:0:
256,192,50639,1,8,0:0:0:0:
256,192,50743,1,8,0:0:0:0:
256,192,50846,1,8,0:0:0:0:
256,192,50949,1,0,0:0:0:0:
256,192,51155,1,8,0:0:0:0:
256,192,51258,1,0,0:0:0:0:
256,192,51464,1,8,0:0:0:0:
256,192,51567,1,0,0:0:0:0:
256,192,51774,1,8,0:0:0:0:
256,192,51877,1,8,0:0:0:0:
256,192,52083,1,0,0:0:0:0:
256,192,52186,1,8,0:0:0:0:
256,192,52495,5,12,0:0:0:0:
256,192,52804,1,12,0:0:0:0:
256,192,53114,1,12,0:0:0:0:
256,192,53423,1,8,0:0:0:0:
256,192,53629,1,8,0:0:0:0:
256,192,53732,1,0,0:0:0:0:
256,192,53938,1,0,0:0:0:0:
256,192,54042,1,8,0:0:0:0:
256,192,54248,1,8,0:0:0:0:
256,192,54351,1,0,0:0:0:0:
256,192,54557,1,0,0:0:0:0:
256,192,54660,1,8,0:0:0:0:
256,192,54969,1,0,0:0:0:0:
256,192,55176,1,8,0:0:0:0:
256,192,55279,1,8,0:0:0:0:
256,192,55485,1,0,0:0:0:0:
256,192,55588,1,0,0:0:0:0:
256,192,55691,1,8,0:0:0:0:
256,192,55794,1,8,0:0:0:0:
256,192,55897,1,8,0:0:0:0:
256,192,56000,1,8,0:0:0:0:
256,192,56103,1,8,0:0:0:0:
256,192,56206,1,0,0:0:0:0:
256,192,56516,1,8,0:0:0:0:
256,192,56722,1,0,0:0:0:0:
256,192,56825,1,0,0:0:0:0:
256,192,57134,1,8,0:0:0:0:
256,192,57237,1,0,0:0:0:0:
256,192,57341,1,0,0:0:0:0:
256,192,57444,1,0,0:0:0:0:
256,192,57753,1,4,0:0:0:0:
256,192,58062,1,4,0:0:0:0:
256,192,58371,1,4,0:0:0:0:
256,192,58681,1,4,0:0:0:0:
256,192,58990,1,8,0:0:0:0:
256,192,59299,1,8,0:0:0:0:
256,192,59609,1,8,0:0:0:0:
256,192,59712,1,8,0:0:0:0:
256,192,59815,1,8,0:0:0:0:
256,192,59918,1,0,0:0:0:0:
256,192,60227,1,0,0:0:0:0:
256,192,60536,1,0,0:0:0:0:
256,192,60743,1,0,0:0:0:0:
256,192,60846,1,8,0:0:0:0:
256,192,61052,1,8,0:0:0:0:
256,192,61155,12,0,63320,0:0:0:0:
256,192,63629,5,0,0:0:0:0:
256,192,63835,1,8,0:0:0:0:
256,192,63938,1,8,0:0:0:0:
256,192,64145,1,0,0:0:0:0:
256,192,64248,1,0,0:0:0:0:
256,192,64454,1,8,0:0:0:0:
256,192,64557,1,8,0:0:0:0:
256,192,64763,1,0,0:0:0:0:
256,192,64866,1,0,0:0:0:0:
256,192,65176,1,8,0:0:0:0:
256,192,65485,1,8,0:0:0:0:
256,192,65691,1,0,0:0:0:0:
256,192,65794,1,0,0:0:0:0:
256,192,65897,1,8,0:0:0:0:
256,192,66000,1,8,0:0:0:0:
256,192,66103,1,8,0:0:0:0:
256,192,66413,1,8,0:0:0:0:
256,192,66722,1,0,0:0:0:0:
256,192,67031,1,8,0:0:0:0:
256,192,67237,1,0,0:0:0:0:
256,192,67341,1,0,0:0:0:0:
256,192,67547,1,8,0:0:0:0:
256,192,67650,1,8,0:0:0:0:
256,192,67856,1,0,0:0:0:0:
256,192,67959,1,8,0:0:0:0:
256,192,68165,1,8,0:0:0:0:
256,192,68268,1,0,0:0:0:0:
256,192,68475,1,0,0:0:0:0:
256,192,68578,1,0,0:0:0:0:
256,192,68784,1,0,0:0:0:0:
256,192,68887,1,8,0:0:0:0:
256,192,69093,1,0,0:0:0:0:
256,192,69196,1,8,0:0:0:0:
256,192,69299,1,0,0:0:0:0:
256,192,69402,1,0,0:0:0:0:
256,192,69505,1,0,0:0:0:0:
256,192,69815,1,0,0:0:0:0:
256,192,70124,1,8,0:0:0:0:
256,192,70433,1,8,0:0:0:0:
256,192,70639,1,0,0:0:0:0:
256,192,70743,1,0,0:0:0:0:
256,192,71052,5,0,0:0:0:0:
256,192,71877,1,0,0:0:0:0:
256,192,72289,1,0,0:0:0:0:
256,192,72495,1,8,0:0:0:0:
256,192,72598,1,8,0:0:0:0:
256,192,72804,1,8,0:0:0:0:
256,192,72908,1,8,0:0:0:0:
256,192,73217,1,8,0:0:0:0:
256,192,73526,1,0,0:0:0:0:
256,192,74351,1,0,0:0:0:0:
256,192,74763,1,0,0:0:0:0:
256,192,74969,1,8,0:0:0:0:
256,192,75072,1,8,0:0:0:0:
256,192,75279,1,8,0:0:0:0:
256,192,75382,1,8,0:0:0:0:
256,192,75588,1,0,0:0:0:0:
256,192,76000,1,0,0:0:0:0:
256,192,76825,1,0,0:0:0:0:
256,192,77237,1,0,0:0:0:0:
256,192,77444,1,8,0:0:0:0:
256,192,77547,1,8,0:0:0:0:
256,192,77753,1,8,0:0:0:0:
256,192,77856,1,8,0:0:0:0:
256,192,78165,1,8,0:0:0:0:
256,192,78371,1,8,0:0:0:0:
256,192,78475,1,0,0:0:0:0:
256,192,78681,1,8,0:0:0:0:
256,192,78784,1,8,0:0:0:0:
256,192,78990,1,8,0:0:0:0:
256,192,79093,1,8,0:0:0:0:
256,192,79299,1,0,0:0:0:0:
256,192,79402,1,8,0:0:0:0:
256,192,79712,1,0,0:0:0:0:
256,192,79918,1,8,0:0:0:0:
256,192,80021,1,8,0:0:0:0:
256,192,80227,1,8,0:0:0:0:
256,192,80330,1,8,0:0:0:0:
256,192,80536,1,8,0:0:0:0:
256,192,80639,1,8,0:0:0:0:
256,192,80743,1,8,0:0:0:0:
256,192,80846,1,8,0:0:0:0:
256,192,80949,5,0,0:0:0:0:
256,192,81258,1,8,0:0:0:0:
256,192,81464,1,0,0:0:0:0:
256,192,81567,1,0,0:0:0:0:
256,192,81877,1,8,0:0:0:0:
256,192,82186,1,0,0:0:0:0:
256,192,82495,1,8,0:0:0:0:
256,192,82598,1,0,0:0:0:0:
256,192,82701,1,0,0:0:0:0:
256,192,82804,1,0,0:0:0:0:
256,192,83114,1,8,0:0:0:0:
256,192,83423,1,0,0:0:0:0:
256,192,83629,1,8,0:0:0:0:
256,192,83732,1,8,0:0:0:0:
256,192,84042,1,0,0:0:0:0:
256,192,84248,1,8,0:0:0:0:
256,192,84351,1,8,0:0:0:0:
256,192,84660,1,0,0:0:0:0:
256,192,84866,1,8,0:0:0:0:
256,192,84969,1,8,0:0:0:0:
256,192,85176,1,0,0:0:0:0:
256,192,85279,1,0,0:0:0:0:
256,192,85485,1,8,0:0:0:0:
256,192,85588,1,8,0:0:0:0:
256,192,85691,1,0,0:0:0:0:
256,192,85794,1,0,0:0:0:0:
256,192,85897,1,8,0:0:0:0:
256,192,86103,1,0,0:0:0:0:
256,192,86206,1,8,0:0:0:0:
256,192,86516,1,0,0:0:0:0:
256,192,86825,1,8,0:0:0:0:
256,192,87031,1,8,0:0:0:0:
256,192,87134,1,0,0:0:0:0:
256,192,87444,1,8,0:0:0:0:
256,192,87753,1,0,0:0:0:0:
256,192,87959,1,0,0:0:0:0:
256,192,88062,1,8,0:0:0:0:
256,192,88268,1,8,0:0:0:0:
256,192,88371,1,0,0:0:0:0:
256,192,88681,1,8,0:0:0:0:
256,192,88887,1,8,0:0:0:0:
256,192,88990,1,0,0:0:0:0:
256,192,89299,1,8,0:0:0:0:
256,192,89505,1,8,0:0:0:0:
256,192,89609,1,0,0:0:0:0:
256,192,89815,1,8,0:0:0:0:
256,192,89918,1,8,0:0:0:0:
256,192,90124,1,0,0:0:0:0:
256,192,90227,1,0,0:0:0:0:
256,192,90433,1,0,0:0:0:0:
256,192,90536,1,8,0:0:0:0:
256,192,90639,1,0,0:0:0:0:
256,192,90743,1,0,0:0:0:0:
256,192,90846,1,0,0:0:0:0:
256,192,91052,1,0,0:0:0:0:
256,192,91155,1,8,0:0:0:0:
256,192,91361,1,0,0:0:0:0:
256,192,91464,1,0,0:0:0:0:
256,192,91774,1,8,0:0:0:0:
256,192,92083,1,0,0:0:0:0:
256,192,92392,1,8,0:0:0:0:
256,192,92701,1,8,0:0:0:0:
256,192,92804,1,0,0:0:0:0:
256,192,92908,1,0,0:0:0:0:
256,192,93011,1,8,0:0:0:0:
256,192,93320,1,0,0:0:0:0:
256,192,93526,1,8,0:0:0:0:
256,192,93629,1,8,0:0:0:0:
256,192,93938,1,0,0:0:0:0:
256,192,94145,1,8,0:0:0:0:
256,192,94248,1,8,0:0:0:0:
256,192,94557,1,0,0:0:0:0:
256,192,94763,1,8,0:0:0:0:
256,192,94866,1,8,0:0:0:0:
256,192,95072,1,0,0:0:0:0:
256,192,95176,1,0,0:0:0:0:
256,192,95382,1,8,0:0:0:0:
256,192,95485,1,8,0:0:0:0:
256,192,95588,1,0,0:0:0:0:
256,192,95691,1,0,0:0:0:0:
256,192,95794,1,8,0:0:0:0:
256,192,96000,1,0,0:0:0:0:
256,192,96103,1,8,0:0:0:0:
256,192,96413,1,0,0:0:0:0:
256,192,96722,1,8,0:0:0:0:
256,192,96928,1,0,0:0:0:0:
256,192,97031,1,0,0:0:0:0:
256,192,97341,1,8,0:0:0:0:
256,192,97650,1,0,0:0:0:0:
256,192,97856,1,0,0:0:0:0:
256,192,97959,1,8,0:0:0:0:
256,192,98165,1,8,0:0:0:0:
256,192,98268,1,4,0:0:0:0:
256,192,98475,1,8,0:0:0:0:
256,192,98681,1,8,0:0:0:0:
256,192,98887,1,4,0:0:0:0:
256,192,99093,1,8,0:0:0:0:
256,192,99299,1,8,0:0:0:0:
256,192,99505,1,4,0:0:0:0:
256,192,99712,1,8,0:0:0:0:
256,192,99918,1,8,0:0:0:0:
256,192,100124,1,4,0:0:0:0:
256,192,100330,1,8,0:0:0:0:
256,192,100433,1,8,0:0:0:0:
256,192,100536,1,0,0:0:0:0:
256,192,100639,1,0,0:0:0:0:
256,192,100743,5,0,0:0:0:0:
256,192,100949,1,0,0:0:0:0:
256,192,101052,1,8,0:0:0:0:
256,192,101258,1,0,0:0:0:0:
256,192,101361,1,8,0:0:0:0:
256,192,101464,1,8,0:0:0:0:
256,192,101567,1,8,0:0:0:0:
256,192,101670,1,0,0:0:0:0:
256,192,101980,1,12,0:0:0:0:
256,192,102289,1,12,0:0:0:0:
256,192,102598,1,12,0:0:0:0:
256,192,102908,1,8,0:0:0:0:
256,192,103114,1,0,0:0:0:0:
256,192,103217,1,0,0:0:0:0:
256,192,103423,1,0,0:0:0:0:
256,192,103526,1,8,0:0:0:0:
256,192,103732,1,8,0:0:0:0:
256,192,103835,1,0,0:0:0:0:
256,192,104042,1,0,0:0:0:0:
256,192,104145,1,8,0:0:0:0:
256,192,104351,1,8,0:0:0:0:
256,192,104454,1,8,0:0:0:0:
256,192,104660,1,0,0:0:0:0:
256,192,104763,1,0,0:0:0:0:
256,192,104969,1,8,0:0:0:0:
256,192,105072,1,8,0:0:0:0:
256,192,105279,1,0,0:0:0:0:
256,192,105382,1,8,0:0:0:0:
256,192,105485,1,8,0:0:0:0:
256,192,105588,1,0,0:0:0:0:
256,192,105691,1,0,0:0:0:0:
256,192,105897,1,0,0:0:0:0:
256,192,106000,1,8,0:0:0:0:
256,192,106206,1,0,0:0:0:0:
256,192,106310,1,0,0:0:0:0:
256,192,106516,1,0,0:0:0:0:
256,192,106619,1,8,0:0:0:0:
256,192,106825,1,8,0:0:0:0:
256,192,106928,1,0,0:0:0:0:
256,192,107134,1,0,0:0:0:0:
256,192,107237,1,8,0:0:0:0:
256,192,107444,1,0,0:0:0:0:
256,192,107547,1,8,0:0:0:0:
256,192,107856,1,0,0:0:0:0:
256,192,108062,1,0,0:0:0:0:
256,192,108165,1,8,0:0:0:0:
256,192,108371,1,8,0:0:0:0:
256,192,108475,1,0,0:0:0:0:
256,192,108681,1,8,0:0:0:0:
256,192,108784,1,8,0:0:0:0:
256,192,108990,1,0,0:0:0:0:
256,192,109093,1,0,0:0:0:0:
256,192,109299,1,8,0:0:0:0:
256,192,109402,1,0,0:0:0:0:
256,192,109609,1,0,0:0:0:0:
256,192,109712,1,8,0:0:0:0:
256,192,109918,1,0,0:0:0:0:
256,192,110021,1,8,0:0:0:0:
256,192,110124,1,8,0:0:0:0:
256,192,110227,1,8,0:0:0:0:
256,192,110330,1,0,0:0:0:0:
256,192,110433,1,8,0:0:0:0:
256,192,110536,1,8,0:0:0:0:
256,192,110639,1,4,0:0:0:0:
256,192,110846,1,8,0:0:0:0:
256,192,110949,1,0,0:0:0:0:
256,192,111155,1,8,0:0:0:0:
256,192,111258,1,8,0:0:0:0:
256,192,111464,1,0,0:0:0:0:
256,192,111567,1,8,0:0:0:0:
256,192,111877,5,12,0:0:0:0:
256,192,112186,1,12,0:0:0:0:
256,192,112495,1,12,0:0:0:0:
256,192,112804,1,8,0:0:0:0:
256,192,113011,1,8,0:0:0:0:
256,192,113114,1,0,0:0:0:0:
256,192,113320,1,0,0:0:0:0:
256,192,113423,1,8,0:0:0:0:
256,192,113629,1,8,0:0:0:0:
256,192,113732,1,0,0:0:0:0:
256,192,113938,1,0,0:0:0:0:
256,192,114042,1,8,0:0:0:0:
256,192,114351,1,0,0:0:0:0:
256,192,114557,1,8,0:0:0:0:
256,192,114660,1,8,0:0:0:0:
256,192,114866,1,0,0:0:0:0:
256,192,114969,1,0,0:0:0:0:
256,192,115072,1,8,0:0:0:0:
256,192,115176,1,8,0:0:0:0:
256,192,115279,1,8,0:0:0:0:
256,192,115382,1,8,0:0:0:0:
256,192,115485,1,8,0:0:0:0:
256,192,115588,1,0,0:0:0:0:
256,192,115897,1,8,0:0:0:0:
256,192,116103,1,0,0:0:0:0:
256,192,116206,1,0,0:0:0:0:
256,192,116516,1,8,0:0:0:0:
256,192,116619,1,0,0:0:0:0:
256,192,116722,1,0,0:0:0:0:
256,192,116825,1,0,0:0:0:0:
256,192,117134,1,4,0:0:0:0:
256,192,117444,1,4,0:0:0:0:
256,192,117753,1,12,0:0:0:0:
256,192,118062,1,4,0:0:0:0:
256,192,118268,1,0,0:0:0:0:
256,192,118371,1,0,0:0:0:0:
256,192,118681,1,0,0:0:0:0:
256,192,118990,1,8,0:0:0:0:
256,192,119093,1,0,0:0:0:0:
256,192,119196,1,0,0:0:0:0:
256,192,119299,1,8,0:0:0:0:
256,192,119609,1,8,0:0:0:0:
256,192,120227,1,8,0:0:0:0:
256,192,120536,12,0,121464,0:0:0:0:
256,192,121774,5,4,0:0:0:0:
256,192,122083,1,8,0:0:0:0:
256,192,122289,1,8,0:0:0:0:
256,192,122392,1,8,0:0:0:0:
256,192,122598,1,0,0:0:0:0:
256,192,122701,1,0,0:0:0:0:
256,192,122908,1,8,0:0:0:0:
256,192,123011,1,4,0:0:0:0:
256,192,123320,1,8,0:0:0:0:
256,192,123526,1,0,0:0:0:0:
256,192,123629,1,0,0:0:0:0:
256,192,123835,1,8,0:0:0:0:
256,192,123938,1,8,0:0:0:0:
256,192,124145,1,8,0:0:0:0:
256,192,124248,1,4,0:0:0:0:
256,192,124557,1,0,0:0:0:0:
256,192,124763,1,0,0:0:0:0:
256,192,124866,1,0,0:0:0:0:
256,192,125072,1,8,0:0:0:0:
256,192,125176,1,8,0:0:0:0:
256,192,125382,1,8,0:0:0:0:
256,192,125485,1,4,0:0:0:0:
256,192,125794,1,8,0:0:0:0:
256,192,126000,1,8,0:0:0:0:
256,192,126103,1,0,0:0:0:0:
256,192,126310,1,0,0:0:0:0:
256,192,126413,1,8,0:0:0:0:
256,192,126619,1,8,0:0:0:0:
256,192,126722,1,4,0:0:0:0:
256,192,127031,1,8,0:0:0:0:
256,192,127237,1,0,0:0:0:0:
256,192,127341,1,8,0:0:0:0:
256,192,127547,1,8,0:0:0:0:
256,192,127650,1,0,0:0:0:0:
256,192,127856,1,8,0:0:0:0:
256,192,127959,1,4,0:0:0:0:
256,192,128268,1,8,0:0:0:0:
256,192,128475,1,8,0:0:0:0:
256,192,128578,1,8,0:0:0:0:
256,192,128784,1,0,0:0:0:0:
256,192,128887,1,0,0:0:0:0:
256,192,129093,1,8,0:0:0:0:
256,192,129196,1,4,0:0:0:0:
256,192,129505,1,8,0:0:0:0:
256,192,129712,1,8,0:0:0:0:
256,192,129815,1,0,0:0:0:0:
256,192,130124,1,12,0:0:0:0:
256,192,130433,5,4,0:0:0:0:
256,192,130639,1,8,0:0:0:0:
256,192,130743,1,8,0:0:0:0:
256,192,130949,1,8,0:0:0:0:
256,192,131052,1,0,0:0:0:0:
256,192,131258,1,8,0:0:0:0:
256,192,131361,1,8,0:0:0:0:
256,192,131567,1,8,0:0:0:0:
256,192,131670,1,0,0:0:0:0:
256,192,131877,1,8,0:0:0:0:
256,192,131980,1,8,0:0:0:0:
256,192,132186,1,8,0:0:0:0:
256,192,132289,1,0,0:0:0:0:
256,192,132598,1,8,0:0:0:0:
256,192,132908,1,0,0:0:0:0:
256,192,133114,1,8,0:0:0:0:
256,192,133217,1,8,0:0:0:0:
256,192,133423,1,8,0:0:0:0:
256,192,133526,1,0,0:0:0:0:
256,192,133732,1,8,0:0:0:0:
256,192,133835,1,8,0:0:0:0:
256,192,134042,1,8,0:0:0:0:
256,192,134145,1,0,0:0:0:0:
256,192,134351,1,8,0:0:0:0:
256,192,134454,1,8,0:0:0:0:
256,192,134660,1,8,0:0:0:0:
256,192,134763,1,0,0:0:0:0:
256,192,134969,1,0,0:0:0:0:
256,192,135072,1,8,0:0:0:0:
256,192,135279,1,8,0:0:0:0:
256,192,135382,1,4,0:0:0:0:
256,192,135588,1,8,0:0:0:0:
256,192,135691,1,8,0:0:0:0:
256,192,135897,1,8,0:0:0:0:
256,192,136000,1,0,0:0:0:0:
256,192,136206,1,8,0:0:0:0:
256,192,136310,1,8,0:0:0:0:
256,192,136516,1,8,0:0:0:0:
256,192,136619,1,0,0:0:0:0:
256,192,136928,1,0,0:0:0:0:
256,192,137134,1,8,0:0:0:0:
256,192,137237,1,0,0:0:0:0:
256,192,137444,1,0,0:0:0:0:
256,192,137547,1,8,0:0:0:0:
256,192,137753,1,8,0:0:0:0:
256,192,137856,1,4,0:0:0:0:
256,192,138062,1,0,0:0:0:0:
256,192,138165,1,8,0:0:0:0:
256,192,138371,1,8,0:0:0:0:
256,192,138475,1,4,0:0:0:0:
256,192,138681,1,0,0:0:0:0:
256,192,138784,1,8,0:0:0:0:
256,192,138990,1,8,0:0:0:0:
256,192,139093,1,4,0:0:0:0:
256,192,139402,1,4,0:0:0:0:
256,192,139712,1,8,0:0:0:0:
256,192,139815,1,0,0:0:0:0:
256,192,139918,1,0,0:0:0:0:
256,192,140021,1,8,0:0:0:0:
256,192,140124,1,0,0:0:0:0:
256,192,140227,1,0,0:0:0:0:
256,192,140330,1,0,0:0:0:0:
256,192,140639,5,8,0:0:0:0:
256,192,140846,1,0,0:0:0:0:
256,192,140949,1,0,0:0:0:0:
256,192,141258,1,8,0:0:0:0:
256,192,141567,1,4,0:0:0:0:
256,192,141877,1,12,0:0:0:0:
256,192,142186,1,4,0:0:0:0:
256,192,142392,1,8,0:0:0:0:
256,192,142495,1,8,0:0:0:0:
256,192,142701,1,0,0:0:0:0:
256,192,142804,1,0,0:0:0:0:
256,192,143114,1,8,0:0:0:0:
256,192,143320,1,0,0:0:0:0:
256,192,143423,1,0,0:0:0:0:
256,192,143732,1,8,0:0:0:0:
256,192,144042,1,4,0:0:0:0:
256,192,144351,1,12,0:0:0:0:
256,192,144660,1,4,0:0:0:0:
256,192,144866,1,8,0:0:0:0:
256,192,144969,1,8,0:0:0:0:
256,192,145279,1,12,0:0:0:0:
256,192,145588,1,8,0:0:0:0:
256,192,145794,1,0,0:0:0:0:
256,192,145897,1,0,0:0:0:0:
256,192,146206,1,8,0:0:0:0:
256,192,146413,1,0,0:0:0:0:
256,192,146516,1,0,0:0:0:0:
256,192,146825,1,8,0:0:0:0:
256,192,147134,1,8,0:0:0:0:
256,192,147444,1,8,0:0:0:0:
256,192,147753,1,4,0:0:0:0:
256,192,147959,1,8,0:0:0:0:
256,192,148165,1,8,0:0:0:0:
256,192,148371,1,4,0:0:0:0:
256,192,148578,1,8,0:0:0:0:
256,192,148784,1,8,0:0:0:0:
256,192,148990,1,4,0:0:0:0:
256,192,149196,1,8,0:0:0:0:
256,192,149402,1,8,0:0:0:0:
256,192,149609,1,4,0:0:0:0:
256,192,149815,1,8,0:0:0:0:
256,192,149918,1,0,0:0:0:0:
256,192,150124,1,0,0:0:0:0:
256,192,150227,1,8,0:0:0:0:
256,192,150536,1,8,0:0:0:0:
256,192,150846,1,8,0:0:0:0:
256,192,151155,1,8,0:0:0:0:
256,192,151464,1,0,0:0:0:0:
256,192,151567,1,0,0:0:0:0:
256,192,151670,1,0,0:0:0:0:
256,192,151774,1,0,0:0:0:0:
256,192,151877,1,0,0:0:0:0:
256,192,151980,1,0,0:0:0:0:
256,192,152083,1,8,0:0:0:0:
256,192,152186,1,8,0:0:0:0:
256,192,152289,1,8,0:0:0:0:
256,192,152392,1,8,0:0:0:0:
256,192,152495,1,8,0:0:0:0:
256,192,152598,1,8,0:0:0:0:
256,192,152701,1,4,0:0:0:0:
256,192,152908,5,0,0:0:0:0:
256,192,153011,1,8,0:0:0:0:
256,192,153217,1,0,0:0:0:0:
256,192,153320,1,8,0:0:0:0:
256,192,153423,1,0,0:0:0:0:
256,192,153526,1,8,0:0:0:0:
256,192,153629,1,0,0:0:0:0:
256,192,153938,1,12,0:0:0:0:
256,192,154248,1,12,0:0:0:0:
256,192,154557,1,12,0:0:0:0:
256,192,154866,1,0,0:0:0:0:
256,192,155072,1,0,0:0:0:0:
256,192,155176,1,0,0:0:0:0:
256,192,155382,1,0,0:0:0:0:
256,192,155485,1,8,0:0:0:0:
256,192,155691,1,0,0:0:0:0:
256,192,155794,1,0,0:0:0:0:
256,192,156103,1,8,0:0:0:0:
256,192,156310,1,8,0:0:0:0:
256,192,156413,1,0,0:0:0:0:
256,192,156619,1,0,0:0:0:0:
256,192,156722,1,8,0:0:0:0:
256,192,156928,1,8,0:0:0:0:
256,192,157031,1,0,0:0:0:0:
256,192,157237,1,0,0:0:0:0:
256,192,157341,1,8,0:0:0:0:
256,192,157444,1,8,0:0:0:0:
256,192,157547,1,0,0:0:0:0:
256,192,157650,1,0,0:0:0:0:
256,192,157959,1,8,0:0:0:0:
256,192,158062,1,8,0:0:0:0:
256,192,158165,1,0,0:0:0:0:
256,192,158268,1,0,0:0:0:0:
256,192,158475,1,0,0:0:0:0:
256,192,158578,1,8,0:0:0:0:
256,192,158784,1,8,0:0:0:0:
256,192,158887,1,0,0:0:0:0:
256,192,159196,1,8,0:0:0:0:
256,192,159505,1,8,0:0:0:0:
256,192,159815,1,0,0:0:0:0:
256,192,160021,1,0,0:0:0:0:
256,192,160124,1,8,0:0:0:0:
256,192,160330,1,8,0:0:0:0:
256,192,160433,1,0,0:0:0:0:
256,192,160639,1,8,0:0:0:0:
256,192,160743,1,8,0:0:0:0:
256,192,160949,1,0,0:0:0:0:
256,192,161052,1,0,0:0:0:0:
256,192,161258,1,8,0:0:0:0:
256,192,161361,1,0,0:0:0:0:
256,192,161567,1,0,0:0:0:0:
256,192,161670,1,8,0:0:0:0:
256,192,161877,1,0,0:0:0:0:
256,192,161980,1,8,0:0:0:0:
256,192,162083,1,8,0:0:0:0:
256,192,162186,1,8,0:0:0:0:
256,192,162289,1,0,0:0:0:0:
256,192,162495,1,8,0:0:0:0:
256,192,162598,1,0,0:0:0:0:
256,192,162804,1,8,0:0:0:0:
256,192,162908,1,0,0:0:0:0:
256,192,163114,1,8,0:0:0:0:
256,192,163217,1,8,0:0:0:0:
256,192,163423,1,0,0:0:0:0:
256,192,163526,1,8,0:0:0:0:
256,192,163835,5,12,0:0:0:0:
256,192,164145,1,12,0:0:0:0:
256,192,164454,1,12,0:0:0:0:
256,192,164763,1,8,0:0:0:0:
256,192,164969,1,8,0:0:0:0:
256,192,165072,1,0,0:0:0:0:
256,192,165279,1,0,0:0:0:0:
256,192,165382,1,8,0:0:0:0:
256,192,165588,1,8,0:0:0:0:
256,192,165691,1,0,0:0:0:0:
256,192,165897,1,0,0:0:0:0:
256,192,166000,1,8,0:0:0:0:
256,192,166310,1,0,0:0:0:0:
256,192,166516,1,8,0:0:0:0:
256,192,166619,1,8,0:0:0:0:
256,192,166825,1,0,0:0:0:0:
256,192,166928,1,0,0:0:0:0:
256,192,167031,1,8,0:0:0:0:
256,192,167134,1,8,0:0:0:0:
256,192,167237,1,8,0:0:0:0:
256,192,167341,1,8,0:0:0:0:
256,192,167444,1,8,0:0:0:0:
256,192,167547,1,0,0:0:0:0:
256,192,167856,1,8,0:0:0:0:
256,192,168062,1,0,0:0:0:0:
256,192,168165,1,0,0:0:0:0:
256,192,168475,1,8,0:0:0:0:
256,192,168578,1,0,0:0:0:0:
256,192,168681,1,0,0:0:0:0:
256,192,168784,1,0,0:0:0:0:
256,192,169093,1,4,0:0:0:0:
256,192,169402,1,4,0:0:0:0:
256,192,169712,1,4,0:0:0:0:
256,192,170021,1,4,0:0:0:0:
256,192,170124,12,0,171258,0:0:0:0:
256,192,171567,5,0,0:0:0:0:
256,192,171877,1,0,0:0:0:0:
256,192,171980,1,0,0:0:0:0:
256,192,172083,1,0,0:0:0:0:
256,192,172186,1,8,0:0:0:0:
256,192,172289,1,8,0:0:0:0:
256,192,172392,1,8,0:0:0:0:
256,192,172495,1,4,0:0:0:0:
256,192,172701,1,0,0:0:0:0:
256,192,172804,1,8,0:0:0:0:
256,192,173011,1,0,0:0:0:0:
256,192,173114,1,8,0:0:0:0:
256,192,173217,1,8,0:0:0:0:
256,192,173320,1,8,0:0:0:0:
256,192,173423,1,0,0:0:0:0:
256,192,173732,1,12,0:0:0:0:
256,192,174042,1,12,0:0:0:0:
256,192,174351,1,12,0:0:0:0:
256,192,174660,1,8,0:0:0:0:
256,192,174866,1,0,0:0:0:0:
256,192,174969,1,0,0:0:0:0:
256,192,175176,1,0,0:0:0:0:
256,192,175279,1,8,0:0:0:0:
256,192,175485,1,8,0:0:0:0:
256,192,175588,1,0,0:0:0:0:
256,192,175794,1,0,0:0:0:0:
256,192,175897,1,8,0:0:0:0:
256,192,176103,1,8,0:0:0:0:
256,192,176206,1,8,0:0:0:0:
256,192,176413,1,0,0:0:0:0:
256,192,176516,1,0,0:0:0:0:
256,192,176722,1,8,0:0:0:0:
256,192,176825,1,8,0:0:0:0:
256,192,177031,1,0,0:0:0:0:
256,192,177134,1,8,0:0:0:0:
256,192,177237,1,8,0:0:0:0:
256,192,177341,1,0,0:0:0:0:
256,192,177444,1,0,0:0:0:0:
256,192,177650,1,0,0:0:0:0:
256,192,177753,1,8,0:0:0:0:
256,192,177959,1,0,0:0:0:0:
256,192,178062,1,0,0:0:0:0:
256,192,178268,1,0,0:0:0:0:
256,192,178371,1,8,0:0:0:0:
256,192,178578,1,8,0:0:0:0:
256,192,178681,1,0,0:0:0:0:
256,192,178887,1,0,0:0:0:0:
256,192,178990,1,8,0:0:0:0:
256,192,179196,1,0,0:0:0:0:
256,192,179299,1,8,0:0:0:0:
256,192,179609,1,0,0:0:0:0:
256,192,179815,1,0,0:0:0:0:
256,192,179918,1,8,0:0:0:0:
256,192,180124,1,8,0:0:0:0:
256,192,180227,1,0,0:0:0:0:
256,192,180433,1,8,0:0:0:0:
256,192,180536,1,8,0:0:0:0:
256,192,180743,1,0,0:0:0:0:
256,192,180846,1,0,0:0:0:0:
256,192,181052,1,8,0:0:0:0:
256,192,181155,1,0,0:0:0:0:
256,192,181361,1,0,0:0:0:0:
256,192,181464,1,8,0:0:0:0:
256,192,181670,1,0,0:0:0:0:
256,192,181774,1,8,0:0:0:0:
256,192,181877,1,8,0:0:0:0:
256,192,181980,1,8,0:0:0:0:
256,192,182083,1,0,0:0:0:0:
256,192,182186,1,8,0:0:0:0:
256,192,182289,1,8,0:0:0:0:
256,192,182392,1,4,0:0:0:0:
256,192,182598,1,8,0:0:0:0:
256,192,182701,1,0,0:0:0:0:
256,192,182908,1,8,0:0:0:0:
256,192,183011,1,8,0:0:0:0:
256,192,183217,1,0,0:0:0:0:
256,192,183320,1,8,0:0:0:0:
256,192,183629,5,12,0:0:0:0:
256,192,183938,1,12,0:0:0:0:
256,192,184248,1,12,0:0:0:0:
256,192,184557,1,8,0:0:0:0:
256,192,184763,1,8,0:0:0:0:
256,192,184866,1,0,0:0:0:0:
256,192,185072,1,0,0:0:0:0:
256,192,185176,1,8,0:0:0:0:
256,192,185382,1,8,0:0:0:0:
256,192,185485,1,0,0:0:0:0:
256,192,185691,1,0,0:0:0:0:
256,192,185794,1,8,0:0:0:0:
256,192,186103,1,4,0:0:0:0:
256,192,186413,1,4,0:0:0:0:
256,192,186722,1,4,0:0:0:0:
256,192,186928,1,8,0:0:0:0:
256,192,187031,1,8,0:0:0:0:
256,192,187134,1,8,0:0:0:0:
256,192,187237,1,8,0:0:0:0:
256,192,187341,1,0,0:0:0:0:
256,192,187650,1,8,0:0:0:0:
256,192,187856,1,0,0:0:0:0:
256,192,187959,1,0,0:0:0:0:
256,192,188268,1,8,0:0:0:0:
256,192,188371,1,0,0:0:0:0:
256,192,188475,1,0,0:0:0:0:
256,192,188578,1,0,0:0:0:0:
256,192,188887,1,4,0:0:0:0:
256,192,189196,1,4,0:0:0:0:
256,192,189505,1,4,0:0:0:0:
256,192,189815,1,4,0:0:0:0:
256,192,190124,1,8,0:0:0:0:
256,192,190433,1,8,0:0:0:0:
256,192,190743,1,8,0:0:0:0:
256,192,190846,1,0,0:0:0:0:
256,192,190949,1,0,0:0:0:0:
256,192,191052,1,8,0:0:0:0:
256,192,191361,1,8,0:0:0:0:
256,192,191670,1,0,0:0:0:0:
256,192,191774,1,0,0:0:0:0:
256,192,191877,1,0,0:0:0:0:
256,192,191980,1,8,0:0:0:0:
256,192,192083,1,8,0:0:0:0:
256,192,192186,1,8,0:0:0:0:
256,192,192289,12,0,194454,0:0:0:0:
256,192,194763,5,0,0:0:0:0:
256,192,194969,1,8,0:0:0:0:
256,192,195072,1,8,0:0:0:0:
256,192,195279,1,0,0:0:0:0:
256,192,195382,1,0,0:0:0:0:
256,192,195588,1,8,0:0:0:0:
256,192,195691,1,8,0:0:0:0:
256,192,195897,1,0,0:0:0:0:
256,192,196000,1,0,0:0:0:0:
256,192,196310,1,8,0:0:0:0:
256,192,196619,1,0,0:0:0:0:
256,192,196825,1,0,0:0:0:0:
256,192,196928,1,8,0:0:0:0:
256,192,197031,1,0,0:0:0:0:
256,192,197134,1,0,0:0:0:0:
256,192,197237,1,8,0:0:0:0:
256,192,197547,1,8,0:0:0:0:
256,192,197856,1,0,0:0:0:0:
256,192,198165,1,8,0:0:0:0:
256,192,198371,1,0,0:0:0:0:
256,192,198475,1,0,0:0:0:0:
256,192,198681,1,0,0:0:0:0:
256,192,198784,1,8,0:0:0:0:
256,192,198990,1,0,0:0:0:0:
256,192,199093,1,0,0:0:0:0:
256,192,199299,1,0,0:0:0:0:
256,192,199402,1,8,0:0:0:0:
256,192,199609,1,8,0:0:0:0:
256,192,199712,1,0,0:0:0:0:
256,192,199918,1,0,0:0:0:0:
256,192,200021,1,8,0:0:0:0:
256,192,200227,1,8,0:0:0:0:
256,192,200330,1,0,0:0:0:0:
256,192,200536,1,8,0:0:0:0:
256,192,200639,1,8,0:0:0:0:
256,192,200846,1,0,0:0:0:0:
256,192,200949,1,0,0:0:0:0:
256,192,201155,1,8,0:0:0:0:
256,192,201258,1,8,0:0:0:0:
256,192,201464,1,8,0:0:0:0:
256,192,201567,1,8,0:0:0:0:
256,192,201774,1,0,0:0:0:0:
256,192,201877,1,8,0:0:0:0:
256,192,201980,1,0,0:0:0:0:
256,192,202083,1,8,0:0:0:0:
256,192,202186,1,8,0:0:0:0:
256,192,202495,1,8,0:0:0:0:
256,192,202804,1,0,0:0:0:0:
256,192,203011,1,0,0:0:0:0:
256,192,203114,1,8,0:0:0:0:
256,192,203320,1,0,0:0:0:0:
256,192,203423,1,0,0:0:0:0:
256,192,203629,1,8,0:0:0:0:
256,192,203732,1,8,0:0:0:0:
256,192,203938,1,8,0:0:0:0:
256,192,204042,1,0,0:0:0:0:
256,192,204248,1,0,0:0:0:0:
256,192,204351,1,8,0:0:0:0:
256,192,204557,1,8,0:0:0:0:
256,192,204660,1,0,0:0:0:0:
256,192,204866,1,8,0:0:0:0:
256,192,204969,1,8,0:0:0:0:
256,192,205176,1,0,0:0:0:0:
256,192,205279,1,0,0:0:0:0:
256,192,205485,1,8,0:0:0:0:
256,192,205588,1,8,0:0:0:0:
256,192,205794,1,0,0:0:0:0:
256,192,205897,1,0,0:0:0:0:
256,192,206206,1,8,0:0:0:0:
256,192,206516,1,0,0:0:0:0:
256,192,206722,1,0,0:0:0:0:
256,192,206825,1,8,0:0:0:0:
256,192,206928,1,8,0:0:0:0:
256,192,207031,1,8,0:0:0:0:
256,192,207134,1,0,0:0:0:0:
256,192,207444,1,8,0:0:0:0:
256,192,207753,1,0,0:0:0:0:
256,192,207959,1,0,0:0:0:0:
256,192,208062,1,8,0:0:0:0:
256,192,208268,1,0,0:0:0:0:
256,192,208371,1,0,0:0:0:0:
256,192,208578,1,0,0:0:0:0:
256,192,208681,1,8,0:0:0:0:
256,192,208887,1,0,0:0:0:0:
256,192,208990,1,0,0:0:0:0:
256,192,209196,1,0,0:0:0:0:
256,192,209299,1,8,0:0:0:0:
256,192,209505,1,8,0:0:0:0:
256,192,209609,1,0,0:0:0:0:
256,192,209815,1,0,0:0:0:0:
256,192,209918,1,8,0:0:0:0:
256,192,210124,1,8,0:0:0:0:
256,192,210227,1,0,0:0:0:0:
256,192,210433,1,8,0:0:0:0:
256,192,210536,1,8,0:0:0:0:
256,192,210743,1,0,0:0:0:0:
256,192,210846,1,12,0:0:0:0:
256,192,211155,1,0,0:0:0:0:
256,192,211258,1,0,0:0:0:0:
256,192,211361,1,0,0:0:0:0:
256,192,211464,1,0,0:0:0:0:
256,192,211567,1,0,0:0:0:0:
256,192,211670,1,0,0:0:0:0:
256,192,211774,1,0,0:0:0:0:
256,192,211877,1,0,0:0:0:0:
256,192,211980,1,0,0:0:0:0:
256,192,212083,1,0,0:0:0:0:
256,192,212392,1,12,0:0:0:0:
256,192,212598,1,4,0:0:0:0:
