osu file format v14

[General]
AudioFilename: audio.mp3
AudioLeadIn: 0
PreviewTime: -1
Countdown: 1
SampleSet: Normal
StackLeniency: 0.7
Mode: 1
LetterboxInBreaks: 0
WidescreenStoryboard: 1

[Editor]
Bookmarks: 14501,17934,31850
DistanceSpacing: 0.8
BeatDivisor: 4
GridSize: 32
TimelineZoom: 1.1

[Metadata]
Title:SunMoon Altar
TitleUnicode:SunMoon Altar
Artist:Pokemon Sun and Moon
ArtistUnicode:Pokemon Sun and Moon
Creator:donplayspokemon
Version:Futsuu
Source:
Tags:
BeatmapID:1261968
BeatmapSetID:596869

[Difficulty]
HPDrainRate:6
CircleSize:2
OverallDifficulty:7
ApproachRate:6
SliderMultiplier:2.92651742371556
SliderTickRate:1

[Events]
//Background and Video events
0,0,"alolamap.jpg",0,0
//Break Periods
//Storyboard Layer 0 (Background)
//Storyboard Layer 1 (Fail)
//Storyboard Layer 2 (Pass)
//Storyboard Layer 3 (Foreground)
//Storyboard Sound Samples

[TimingPoints]
2935,722.89156626506,4,1,0,100,1,0

[HitObjects]
256,192,2935,5,4,0:0:0:0:
256,192,3657,1,0,0:0:0:0:
256,192,5103,1,8,0:0:0:0:
256,192,5826,1,0,0:0:0:0:
256,192,6188,1,8,0:0:0:0:
256,192,6549,1,0,0:0:0:0:
256,192,7091,1,0,0:0:0:0:
256,192,7272,1,12,0:0:0:0:
256,192,7633,1,4,0:0:0:0:
256,192,7995,1,0,0:0:0:0:
256,192,8356,1,12,0:0:0:0:
256,192,8718,1,12,0:0:0:0:
256,192,9441,1,0,0:0:0:0:
256,192,9983,1,0,0:0:0:0:
256,192,10525,1,8,0:0:0:0:
256,192,10886,1,0,0:0:0:0:
256,192,11248,1,0,0:0:0:0:
256,192,11428,1,8,0:0:0:0:
256,192,11609,1,8,0:0:0:0:
256,192,11971,1,4,0:0:0:0:
256,192,12332,1,12,0:0:0:0:
256,192,12874,1,0,0:0:0:0:
256,192,13236,1,0,0:0:0:0:
256,192,13597,1,4,0:0:0:0:
256,192,13778,1,8,0:0:0:0:
256,192,14139,1,0,0:0:0:0:
256,192,14320,1,8,0:0:0:0:
256,192,14501,1,4,0:0:0:0:
256,192,14862,1,0,0:0:0:0:
256,192,15043,1,0,0:0:0:0:
256,192,15224,1,8,0:0:0:0:
256,192,15766,1,8,0:0:0:0:
256,192,16127,1,8,0:0:0:0:
256,192,16308,1,4,0:0:0:0:
256,192,16669,1,8,0:0:0:0:
256,192,17031,1,8,0:0:0:0:
256,192,17212,1,0,0:0:0:0:
256,192,17392,1,4,0:0:0:0:
256,192,17573,1,0,0:0:0:0:
256,192,17934,1,8,0:0:0:0:
256,192,18115,1,4,0:0:0:0:
256,192,18477,1,8,0:0:0:0:
256,192,18657,1,0,0:0:0:0:
256,192,19019,1,8,0:0:0:0:
256,192,19200,1,4,0:0:0:0:
256,192,19380,1,0,0:0:0:0:
256,192,19561,1,12,0:0:0:0:
256,192,19742,1,8,0:0:0:0:
256,192,19922,1,12,0:0:0:0:
256,192,20284,1,12,0:0:0:0:
256,192,20465,1,0,0:0:0:0:
256,192,21007,1,12,0:0:0:0:
256,192,21549,1,8,0:0:0:0:
256,192,21730,1,0,0:0:0:0:
256,192,22091,1,0,0:0:0:0:
256,192,22453,1,8,0:0:0:0:
256,192,22814,1,0,0:0:0:0:
256,192,22995,1,8,0:0:0:0:
256,192,23175,1,12,0:0:0:0:
256,192,23718,1,8,0:0:0:0:
256,192,23898,1,0,0:0:0:0:
256,192,24441,1,8,0:0:0:0:
256,192,24621,1,8,0:0:0:0:
256,192,24802,1,8,0:0:0:0:
256,192,24983,1,0,0:0:0:0:
256,192,25163,1,0,0:0:0:0:
256,192,25344,1,8,0:0:0:0:
256,192,25525,1,12,0:0:0:0:
256,192,25706,1,0,0:0:0:0:
256,192,26067,1,4,0:0:0:0:
256,192,26428,1,8,0:0:0:0:
256,192,26609,1,0,0:0:0:0:
256,192,26790,1,4,0:0:0:0:
256,192,27513,1,8,0:0:0:0:
256,192,27694,1,0,0:0:0:0:
256,192,27874,1,0,0:0:0:0:
256,192,28236,1,0,0:0:0:0:
256,192,28597,1,4,0:0:0:0:
256,192,28778,1,8,0:0:0:0:
256,192,28959,1,4,0:0:0:0:
256,192,29320,1,0,0:0:0:0:
256,192,29681,1,4,0:0:0:0:
256,192,30043,1,0,0:0:0:0:
256,192,30224,1,8,0:0:0:0:
256,192,30404,1,8,0:0:0:0:
256,192,30585,1,8,0:0:0:0:
256,192,30766,1,4,0:0:0:0:
256,192,31127,1,8,0:0:0:0:
256,192,31489,1,8,0:0:0:0:
256,192,31850,12,0,37272,0:0:0:0:
256,192,37633,5,4,0:0:0:0:
256,192,38175,1,8,0:0:0:0:
256,192,38356,1,0,0:0:0:0:
256,192,38898,1,8,0:0:0:0:
256,192,39079,1,0,0:0:0:0:
256,192,39260,1,8,0:0:0:0:
256,192,39441,1,4,0:0:0:0:
256,192,39802,1,8,0:0:0:0:
256,192,40163,1,0,0:0:0:0:
256,192,40344,1,8,0:0:0:0:
256,192,40525,1,4,0:0:0:0:
256,192,40886,1,0,0:0:0:0:
256,192,41067,1,8,0:0:0:0:
256,192,41248,1,0,0:0:0:0:
256,192,41609,1,0,0:0:0:0:
256,192,41790,1,0,0:0:0:0:
256,192,41971,1,8,0:0:0:0:
256,192,42332,1,8,0:0:0:0:
256,192,42694,1,0,0:0:0:0:
