osu file format v14

[General]
AudioFilename: Pokemon-RubySapphireEmerald-Champion-Battle.mp3
AudioLeadIn: 0
PreviewTime: 31648
Countdown: 0
SampleSet: Normal
StackLeniency: 1
Mode: 0
LetterboxInBreaks: 0
WidescreenStoryboard: 1

[Editor]
Bookmarks: -15,45549,53597
DistanceSpacing: 1
BeatDivisor: 16
GridSize: 8
TimelineZoom: 3.099999

[Metadata]
Title:Champion Steven [Final Battle]
TitleUnicode:Champion Steven [Final Battle]
Artist:Pokemon R/S
ArtistUnicode:Pokemon R/S
Creator:OhMyEyes
Version:CHAMPION
Source:
Tags:Pokemon Ruby Sapphire Emerald Steven Champion music theme song final battle
BeatmapID:478446
BeatmapSetID:202154

[Difficulty]
HPDrainRate:6
CircleSize:4
OverallDifficulty:7
ApproachRate:9
SliderMultiplier:1.4
SliderTickRate:1

[Events]
//Background and Video events
0,0,"versus_steven_stone_by_serain-d4yew2c.jpg",0,0
//Break Periods
//Storyboard Layer 0 (Background)
//Storyboard Layer 1 (Fail)
//Storyboard Layer 2 (Pass)
//Storyboard Layer 3 (Foreground)
//Storyboard Layer 4 (Overlay)
//Storyboard Sound Samples

[TimingPoints]
0,566.037735849057,4,1,0,100,1,0

[HitObjects]
256,192,35,12,0,2108,0:0:0:0:
123,100,2389,6,0,P|140:126|212:176,1,113.75
429,119,3217,1,0,0:0:0:0:
365,311,3499,1,0,0:0:0:0:
166,131,3920,2,0,P|219:110|250:65,1,113.75
438,240,4674,5,0,0:0:0:0:
214,289,5094,1,0,0:0:0:0:
319,198,5482,2,0,L|281:216,1,35
263,100,5801,1,0,0:0:0:0:
353,335,6191,2,8,L|455:271,1,113.75
263,343,6923,5,0,0:0:0:0:
412,76,7358,1,0,0:0:0:0:
142,53,7767,2,0,P|150:117|161:123,1,78.75
272,201,8505,2,8,P|216:177|208:129,1,105
91,307,9208,5,0,0:0:0:0:
327,33,9622,1,0,0:0:0:0:
334,321,10051,2,0,L|300:342,2,35
311,120,10754,1,0,0:0:0:0:
346,94,11176,1,0,0:0:0:0:
192,296,11492,6,0,B|232:328|272:288|384:264|392:336,1,210
400,208,12477,1,0,0:0:0:0:
400,208,12617,2,0,P|416:224|429:224,3,35
205,265,13308,1,0,0:0:0:0:
174,68,13478,2,0,L|190:33,1,35
235,96,13730,2,0,P|363:96|427:184,1,245
212,272,14901,2,0,P|192:280|176:272,2,35
95,109,16026,6,0,B|95:159|184:201,1,131.25
244,215,17045,1,0,0:0:0:0:
258,65,17186,1,0,0:0:0:0:
353,198,17334,1,0,0:0:0:0:
353,198,17441,2,0,L|304:194,1,43.75
194,286,17889,2,0,L|234:302,2,35
176,284,18311,2,0,L|384:184,1,221.666666666667
232,103,19447,2,0,L|208:135,2,35
175,242,20595,5,0,0:0:0:0:
173,136,20736,1,0,0:0:0:0:
289,138,20872,1,0,0:0:0:0:
291,242,21014,1,0,0:0:0:0:
232,189,21403,1,0,0:0:0:0:
423,111,21685,1,0,0:0:0:0:
423,111,21837,2,0,L|391:79,2,35
264,248,22399,2,0,L|288:216,1,35
384,216,22704,1,0,0:0:0:0:
384,216,22844,2,0,P|328:304|192:248,1,271.25
178,109,24532,1,8,0:0:0:0:
329,140,24672,1,8,0:0:0:0:
384,48,25117,6,0,P|416:104|416:152,1,105
112,126,25691,2,0,P|92:183|113:220,1,105
419,194,26254,2,0,P|405:242|362:274,1,105
148,249,26816,2,0,P|137:311|162:342,1,105
314,296,27417,2,0,B|363:185|443:497|417:145|510:356|490:149|408:160,1,315
247,96,28832,6,0,L|274:120,1,35
375,197,29100,2,0,L|323:256,1,78.75
200,264,29663,2,0,B|96:264|40:216|24:128|64:80|216:88,1,385
323,113,31631,2,0,L|287:98,1,35,12|0,0:0|0:0,0:0:0:0:
181,164,31912,5,0,0:0:0:0:
243,280,32053,1,0,0:0:0:0:
318,173,32193,1,0,0:0:0:0:
247,206,32334,2,0,P|201:167|220:119,1,113.75
154,101,33072,5,0,0:0:0:0:
154,281,33213,1,0,0:0:0:0:
340,280,33353,1,0,0:0:0:0:
245,189,33494,2,0,P|301:149|312:116,1,105
379,84,34196,5,0,0:0:0:0:
272,293,34337,1,0,0:0:0:0:
156,78,34477,1,0,0:0:0:0:
234,137,34618,2,0,L|293:224,1,105
114,300,35357,5,0,0:0:0:0:
254,42,35497,1,0,0:0:0:0:
354,305,35638,1,0,0:0:0:0:
284,253,35778,2,0,P|257:202|265:154,1,105
390,148,36481,6,0,L|358:172,1,35
234,44,36762,1,0,0:0:0:0:
417,149,36903,2,0,L|417:261,1,105
149,272,37570,6,0,L|188:240,1,43.75
327,354,37887,1,0,0:0:0:0:
104,296,38028,2,0,L|104:184,1,105
328,64,38773,5,4,0:0:0:0:
138,157,38915,1,4,0:0:0:0:
237,328,39056,1,4,0:0:0:0:
406,242,39198,1,4,0:0:0:0:
256,191,39622,1,4,0:0:0:0:
167,54,39891,5,12,0:0:0:0:
113,279,40031,1,12,0:0:0:0:
357,339,40172,1,12,0:0:0:0:
414,99,40330,1,12,0:0:0:0:
256,191,40734,2,0,L|312:231,1,61.25
118,230,41296,2,0,L|174:174,1,78.75
261,321,41886,5,0,0:0:0:0:
261,321,42028,1,0,0:0:0:0:
261,321,42169,2,0,L|293:305,1,35
321,151,42452,2,0,L|377:199,1,70
183,253,43018,1,0,0:0:0:0:
117,125,43300,5,0,0:0:0:0:
432,320,43581,2,0,P|400:344|376:320,1,78.75
219,176,44150,2,0,L|194:151,1,35
343,192,44424,1,0,0:0:0:0:
343,192,44565,1,0,0:0:0:0:
445,161,44716,1,0,0:0:0:0:
149,319,44986,2,0,L|117:295,1,35
360,320,45268,2,0,L|392:296,1,35
300,185,45566,5,0,0:0:0:0:
262,212,45830,2,0,L|203:272,1,78.75
327,102,46415,1,0,0:0:0:0:
187,101,46556,1,0,0:0:0:0:
184,229,46698,1,0,0:0:0:0:
324,230,46839,1,0,0:0:0:0:
257,162,46981,1,0,0:0:0:0:
166,312,47264,1,0,0:0:0:0:
105,87,47547,1,0,0:0:0:0:
337,274,47833,2,0,L|361:306,1,35
233,269,48115,2,0,B|265:277|233:285|193:269|250:244,1,78.75
78,117,48712,2,0,L|46:93,1,35
409,110,48993,2,0,L|438:90,1,35
270,351,49274,2,0,L|223:300,1,70
418,47,49811,1,0,0:0:0:0:
24,27,50118,6,8,L|80:91,1,78.75
195,186,50695,1,12,0:0:0:0:
494,20,50961,6,8,L|431:78,1,78.75
314,187,51524,1,12,0:0:0:0:
19,359,51827,6,8,L|83:302,1,78.75
202,210,52393,1,12,0:0:0:0:
492,360,52649,6,8,L|436:296,1,78.75
270,184,53242,2,12,L|232:166,1,35,12|0,0:0|0:0,0:0:0:0:
140,279,53561,1,0,0:0:0:0:
256,44,53808,1,0,0:0:0:0:
384,296,54125,1,12,0:0:0:0:
104,182,54371,6,8,L|49:116,1,78.75
404,30,54941,1,12,0:0:0:0:
384,317,55259,5,0,0:0:0:0:
56,139,55542,1,0,0:0:0:0:
422,91,55825,1,12,0:0:0:0:
247,353,56108,5,0,0:0:0:0:
33,34,56356,1,0,0:0:0:0:
495,96,56674,1,12,0:0:0:0:
307,273,56957,2,0,B|219:265|195:177|123:177|91:113|315:9|395:121|395:201|283:241|195:273,2,560
256,192,61627,12,0,63785,0:3:0:0:
304,72,66074,6,0,B|360:80|392:104|392:144|392:192|352:264,1,245
168,272,67181,5,0,0:0:0:0:
208,200,67323,1,0,0:0:0:0:
248,272,67464,1,0,0:0:0:0:
291,202,67586,2,0,P|283:162|259:138,1,70
198,119,68007,2,0,P|166:135|166:143,1,43.75
152,208,68313,2,0,P|184:256|264:248,1,140
394,137,69304,1,0,0:0:0:0:
464,88,69445,2,0,L|496:64,2,35
120,136,70573,2,0,B|120:224|32:296|208:280,1,236.25
232,193,71709,1,0,0:0:0:0:
232,193,71851,1,0,0:0:0:0:
232,193,71957,2,0,L|271:165,1,43.75
412,83,72417,1,0,0:0:0:0:
412,83,72558,2,0,L|384:114,1,35
328,248,72841,2,0,B|304:288|232:304|192:256,1,157.5
287,167,73877,5,0,0:0:0:0:
287,167,74009,2,0,L|325:158,2,35
