osu file format v14

[General]
AudioFilename: Pokemon-RubySapphireEmerald-Champion-Battle.mp3
AudioLeadIn: 0
PreviewTime: 31648
Countdown: 0
SampleSet: None
StackLeniency: 1
Mode: 0
LetterboxInBreaks: 0
WidescreenStoryboard: 1

[Editor]
Bookmarks: -15,45549,53597
DistanceSpacing: 1
BeatDivisor: 16
GridSize: 8
TimelineZoom: 3.099999

[Metadata]
Title:Champion Steven [Final Battle]
TitleUnicode:Champion Steven [Final Battle]
Artist:Pokemon R/S
ArtistUnicode:Pokemon R/S
Creator:OhMyEyes
Version:[MASTER]
Source:
Tags:Pokemon Ruby Sapphire Emerald Steven Champion music theme song final battle
BeatmapID:2333008
BeatmapSetID:202154

[Difficulty]
HPDrainRate:8
CircleSize:5
OverallDifficulty:9
ApproachRate:9
SliderMultiplier:1.4
SliderTickRate:1

[Events]
//Background and Video events
0,0,"versus_steven_stone_by_serain-d4yew2c.jpg",0,0
//Break Periods
//Storyboard Layer 0 (Background)
//Storyboard Layer 1 (Fail)
//Storyboard Layer 2 (Pass)
//Storyboard Layer 3 (Foreground)
//Storyboard Layer 4 (Overlay)
//Storyboard Sound Samples

[TimingPoints]
0,566.037735849057,4,1,0,100,1,0

[HitObjects]
256,192,35,12,0,2108,0:0:0:0:
212,150,2389,6,0,P|229:176|301:226,1,113.75
280,144,3217,1,0,0:0:0:0:
212,364,3537,1,0,0:0:0:0:
48,182,3920,2,0,P|101:161|132:116,1,113.75
438,240,4674,5,0,0:0:0:0:
143,311,5094,1,0,0:0:0:0:
319,198,5482,2,0,L|281:216,1,35
239,70,5801,1,0,0:0:0:0:
371,352,6191,2,8,L|473:288,1,113.75
202,355,6923,5,0,0:0:0:0:
426,63,7358,1,0,0:0:0:0:
67,218,7767,2,0,P|75:282|86:288,1,78.75
311,180,8505,2,8,P|255:156|247:108,1,105
91,307,9208,5,0,0:0:0:0:
340,24,9622,1,0,0:0:0:0:
288,340,10051,2,0,L|254:361,2,35
200,216,10754,1,0,0:0:0:0:
256,200,11214,1,0,0:0:0:0:
210,282,11492,6,0,B|250:314|290:274|402:250|410:322,1,210
296,136,12477,1,0,0:0:0:0:
400,208,12617,2,0,P|416:224|429:224,3,35
205,265,13308,1,0,0:0:0:0:
174,68,13478,2,0,L|190:33,1,35
296,102,13730,2,0,P|424:102|488:190,1,245
123,325,14901,2,0,P|103:333|87:325,2,35
271,126,15424,5,0,0:0:0:0:
271,126,15566,1,0,0:0:0:0:
262,210,15707,2,0,P|254:229|268:238,1,35
88,57,16026,6,0,B|88:107|177:149,1,131.25
402,133,17045,1,0,0:0:0:0:
432,200,17186,1,0,0:0:0:0:
350,310,17334,1,0,0:0:0:0:
312,264,17441,2,0,L|263:260,1,43.75
112,288,17889,2,0,L|152:304,2,35
112,168,18311,2,0,L|320:68,1,221.666666666667
144,45,19316,1,0,0:0:0:0:
93,45,19447,2,0,L|69:77,2,35
254,71,20595,5,0,0:0:0:0:
138,192,20736,1,0,0:0:0:0:
255,306,20872,1,0,0:0:0:0:
369,192,21014,1,0,0:0:0:0:
257,192,21403,1,0,0:0:0:0:
357,43,21685,1,0,0:0:0:0:
423,111,21837,2,0,L|391:79,2,35
222,231,22399,2,0,L|246:199,1,35
409,148,22704,1,0,0:0:0:0:
327,256,22844,2,0,P|271:344|135:288,1,271.25
143,97,24532,1,8,0:0:0:0:
355,158,24672,1,8,0:0:0:0:
403,41,25117,6,0,P|435:97|435:145,1,105
91,146,25691,2,0,P|71:203|92:240,1,105
444,211,26254,2,0,P|430:259|387:291,1,105
128,261,26816,2,0,P|117:323|142:354,1,105
347,177,27417,2,0,B|396:66|476:378|450:26|543:237|523:30|441:41,1,315
247,96,28832,6,0,L|274:120,1,35
428,262,29100,2,0,L|376:321,1,78.75
171,200,29663,2,0,B|67:200|11:152|-5:64|35:16|187:24,1,385
269,57,31631,2,0,L|233:42,1,35,12|0,0:0|0:0,0:0:0:0:
347,131,31912,5,0,0:0:0:0:
347,131,32053,1,0,0:0:0:0:
267,292,32193,1,0,0:0:0:0:
140,245,32334,2,0,P|94:206|113:158,1,113.75
128,200,33072,5,0,0:0:0:0:
126,326,33213,1,0,0:0:0:0:
360,279,33353,1,0,0:0:0:0:
360,279,33494,2,0,P|416:239|427:206,1,105
347,127,34209,5,0,0:0:0:0:
324,324,34351,1,0,0:0:0:0:
402,237,34492,1,0,0:0:0:0:
199,106,34634,2,0,L|258:193,1,105
148,250,35357,5,0,0:0:0:0:
148,250,35497,1,0,0:0:0:0:
304,192,35638,1,0,0:0:0:0:
360,168,35778,2,0,P|333:117|344:64,1,113.75
390,148,36481,6,0,L|358:172,1,35
234,44,36792,1,0,0:0:0:0:
439,151,36933,2,0,L|439:263,1,105
168,344,37641,6,0,L|135:370,1,35
8,256,37924,1,0,0:0:0:0:
280,304,38066,2,0,L|280:192,1,105
352,256,38773,5,4,0:0:0:0:
168,352,38915,1,4,0:0:0:0:
64,184,39056,1,4,0:0:0:0:
248,80,39198,1,4,0:0:0:0:
160,112,39622,1,4,0:0:0:0:
304,61,39905,5,12,0:0:0:0:
257,322,40047,1,12,0:0:0:0:
188,91,40188,1,12,0:0:0:0:
417,213,40330,1,12,0:0:0:0:
292,216,40754,2,0,L|348:256,1,61.25
54,135,41296,2,0,L|110:79,1,78.75
154,324,41886,5,0,0:0:0:0:
198,125,42028,1,0,0:0:0:0:
261,321,42169,2,0,L|293:305,1,35
297,124,42452,2,0,L|360:176,1,78.75
155,309,43018,1,0,0:0:0:0:
384,240,43300,5,0,0:0:0:0:
432,320,43581,2,0,P|400:344|376:320,1,78.75
319,187,44150,2,0,L|294:162,1,35
416,312,44424,1,0,0:0:0:0:
447,169,44565,1,0,0:0:0:0:
416,312,44716,1,0,0:0:0:0:
117,300,44986,2,0,L|85:276,1,35
395,298,45268,2,0,L|427:274,1,35
192,200,45601,5,0,0:0:0:0:
156,236,45849,2,0,L|97:296,1,78.75
389,123,46415,1,0,0:0:0:0:
152,89,46556,1,0,0:0:0:0:
388,251,46698,1,0,0:0:0:0:
171,306,46839,1,0,0:0:0:0:
332,139,46981,1,0,0:0:0:0:
80,300,47264,1,0,0:0:0:0:
366,200,47547,1,0,0:0:0:0:
337,274,47833,2,0,L|361:306,1,35
138,269,48115,2,0,B|170:277|138:285|98:269|155:244,1,78.75
92,62,48712,2,0,L|60:38,1,35
456,60,48993,2,0,L|485:40,1,35
253,362,49274,2,0,L|206:311,1,70
255,190,49811,1,0,0:0:0:0:
0,0,50118,6,8,L|56:64,1,78.75
256,104,50695,1,12,0:0:0:0:
512,384,50978,6,8,L|453:323,1,78.75
256,168,51544,1,12,0:0:0:0:
456,64,51827,6,8,L|512:4,1,78.75
256,232,52393,1,12,0:0:0:0:
256,80,52676,6,8,L|256:-6,1,78.75
256,320,53242,2,12,L|224:304,1,35,12|0,0:0|0:0,0:0:0:0:
160,144,53561,1,0,0:0:0:0:
384,96,53808,1,0,0:0:0:0:
272,280,54125,1,12,0:0:0:0:
104,128,54371,6,8,L|49:62,1,78.75
400,32,54941,1,12,0:0:0:0:
344,328,55259,5,0,0:0:0:0:
58,109,55542,1,0,0:0:0:0:
424,48,55825,1,12,0:0:0:0:
237,0,56108,5,0,0:0:0:0:
71,358,56356,1,0,0:0:0:0:
477,230,56674,1,12,0:0:0:0:
304,257,56957,2,0,B|216:249|192:161|120:161|88:97|312:-7|392:105|392:185|280:225|192:257,2,560
256,192,61627,12,0,63785,0:3:0:0:
304,72,66074,6,0,B|360:80|392:104|392:144|392:192|352:264,1,245
168,272,67181,5,0,0:0:0:0:
189,106,67323,1,0,0:0:0:0:
327,250,67464,1,0,0:0:0:0:
233,210,67586,2,0,P|225:170|201:146,1,70
113,71,68007,2,0,P|81:87|81:95,1,43.75
222,86,68313,2,0,P|254:134|334:126,1,140
348,243,69304,1,0,0:0:0:0:
464,88,69445,2,0,L|496:64,2,35
214,92,70573,2,0,B|214:180|126:252|276:236,1,218.75
339,225,71603,2,0,L|380:220,2,35
379,135,72028,2,0,L|413:111,1,35
205,296,72452,1,0,0:0:0:0:
151,311,72594,2,0,L|123:342,1,35
185,182,72841,2,0,B|161:222|89:238|49:190,1,157.5
312,208,73877,5,0,0:0:0:0:
408,87,74009,2,0,L|446:78,2,35
