osu file format v14

[General]
AudioFilename: audio.mp3
AudioLeadIn: 0
PreviewTime: -1
Countdown: 1
SampleSet: Normal
StackLeniency: 0.7
Mode: 1
LetterboxInBreaks: 0
WidescreenStoryboard: 0

[Editor]
Bookmarks: 56070
DistanceSpacing: 1.6
BeatDivisor: 4
GridSize: 32
TimelineZoom: 1

[Metadata]
Title:Stop! Thief!
TitleUnicode:Stop! Thief!
Artist:Pokemon Mystery Dungeon - TGH Remastered
ArtistUnicode:Pokemon Mystery Dungeon - TGH Remastered
Creator:Kbludoh
Version:Robbed KecleOni
Source:
Tags:
BeatmapID:1928364
BeatmapSetID:923447

[Difficulty]
HPDrainRate:6
CircleSize:5
OverallDifficulty:6
ApproachRate:5
SliderMultiplier:1.4
SliderTickRate:1

[Events]
//Background and Video events
0,0,"DqEnPuiU8AYs5Km.jpg",0,0
//Break Periods
//Storyboard Layer 0 (Background)
//Storyboard Layer 1 (Fail)
//Storyboard Layer 2 (Pass)
//Storyboard Layer 3 (Foreground)
//Storyboard Sound Samples

[TimingPoints]
70,285.714285714286,4,1,0,100,1,0

[HitObjects]
256,192,641,5,8,0:0:0:0:
256,192,712,1,8,0:0:0:0:
256,192,784,1,0,0:0:0:0:
256,192,855,1,8,0:0:0:0:
256,192,927,1,0,0:0:0:0:
256,192,998,1,0,0:0:0:0:
256,192,1070,1,8,0:0:0:0:
256,192,1141,1,8,0:0:0:0:
256,192,1212,1,0,0:0:0:0:
256,192,1355,1,0,0:0:0:0:
256,192,1427,1,0,0:0:0:0:
256,192,1498,1,8,0:0:0:0:
256,192,1641,1,8,0:0:0:0:
256,192,1784,1,0,0:0:0:0:
256,192,1855,1,8,0:0:0:0:
256,192,1927,1,0,0:0:0:0:
256,192,1998,1,0,0:0:0:0:
256,192,2070,1,8,0:0:0:0:
256,192,2212,1,8,0:0:0:0:
256,192,2355,1,0,0:0:0:0:
256,192,2498,1,0,0:0:0:0:
256,192,2570,1,0,0:0:0:0:
256,192,2641,1,8,0:0:0:0:
256,192,2784,1,8,0:0:0:0:
256,192,2927,1,8,0:0:0:0:
256,192,2998,1,8,0:0:0:0:
256,192,3070,1,0,0:0:0:0:
256,192,3141,1,0,0:0:0:0:
256,192,3212,1,8,0:0:0:0:
256,192,3355,1,8,0:0:0:0:
256,192,3498,1,0,0:0:0:0:
256,192,3641,1,8,0:0:0:0:
256,192,3712,1,0,0:0:0:0:
256,192,3784,1,8,0:0:0:0:
256,192,3927,1,8,0:0:0:0:
256,192,4070,1,0,0:0:0:0:
256,192,4212,1,8,0:0:0:0:
256,192,4284,1,0,0:0:0:0:
256,192,4355,1,8,0:0:0:0:
256,192,4498,1,8,0:0:0:0:
256,192,4641,1,0,0:0:0:0:
256,192,4784,1,0,0:0:0:0:
256,192,4855,1,8,0:0:0:0:
256,192,4927,1,8,0:0:0:0:
256,192,5070,1,8,0:0:0:0:
256,192,5212,1,0,0:0:0:0:
256,192,5355,1,8,0:0:0:0:
256,192,5498,1,8,0:0:0:0:
256,192,5570,1,8,0:0:0:0:
256,192,5641,1,8,0:0:0:0:
256,192,5784,1,0,0:0:0:0:
256,192,5927,1,0,0:0:0:0:
256,192,5998,1,0,0:0:0:0:
256,192,6070,1,8,0:0:0:0:
256,192,6212,1,8,0:0:0:0:
256,192,6355,1,0,0:0:0:0:
256,192,6427,1,8,0:0:0:0:
256,192,6498,1,0,0:0:0:0:
256,160,6570,1,0,0:0:0:0:
256,160,6641,1,8,0:0:0:0:
256,160,6784,1,8,0:0:0:0:
256,192,6927,1,0,0:0:0:0:
256,192,7070,1,0,0:0:0:0:
256,192,7141,1,0,0:0:0:0:
256,160,7212,1,8,0:0:0:0:
256,160,7355,1,8,0:0:0:0:
256,160,7498,1,0,0:0:0:0:
256,160,7641,1,8,0:0:0:0:
256,160,7784,1,8,0:0:0:0:
256,160,7855,1,0,0:0:0:0:
256,160,7927,1,8,0:0:0:0:
256,160,8070,1,4,0:0:0:0:
256,160,8355,1,8,0:0:0:0:
256,160,8641,1,4,0:0:0:0:
256,160,8927,1,8,0:0:0:0:
256,192,9212,1,0,0:0:0:0:
256,192,9355,1,8,0:0:0:0:
256,192,9498,1,0,0:0:0:0:
256,192,9570,1,8,0:0:0:0:
256,192,9641,1,8,0:0:0:0:
256,160,9784,1,8,0:0:0:0:
256,160,9927,1,0,0:0:0:0:
256,160,10070,1,8,0:0:0:0:
256,160,10212,1,8,0:0:0:0:
256,160,10284,1,8,0:0:0:0:
256,160,10355,1,0,0:0:0:0:
256,160,10498,1,0,0:0:0:0:
256,160,10570,1,0,0:0:0:0:
256,160,10641,1,8,0:0:0:0:
256,192,10784,1,8,0:0:0:0:
256,192,10927,1,0,0:0:0:0:
256,192,10998,1,8,0:0:0:0:
256,192,11070,1,0,0:0:0:0:
256,192,11141,1,0,0:0:0:0:
256,192,11212,1,8,0:0:0:0:
256,192,11355,1,8,0:0:0:0:
256,192,11498,1,0,0:0:0:0:
256,192,11641,1,0,0:0:0:0:
256,192,11712,1,0,0:0:0:0:
256,192,11784,1,8,0:0:0:0:
256,160,11927,1,8,0:0:0:0:
256,192,12070,1,0,0:0:0:0:
256,192,12141,1,0,0:0:0:0:
256,192,12212,1,8,0:0:0:0:
256,192,12284,1,0,0:0:0:0:
256,192,12355,1,8,0:0:0:0:
256,192,12498,1,8,0:0:0:0:
256,192,12641,1,0,0:0:0:0:
256,192,12784,1,8,0:0:0:0:
256,192,12855,1,0,0:0:0:0:
256,192,12927,1,8,0:0:0:0:
256,160,13070,1,8,0:0:0:0:
256,160,13212,1,0,0:0:0:0:
256,160,13355,1,8,0:0:0:0:
256,160,13427,1,0,0:0:0:0:
256,160,13498,1,8,0:0:0:0:
256,160,13641,1,8,0:0:0:0:
256,160,13784,1,0,0:0:0:0:
224,128,13927,1,0,0:0:0:0:
224,160,13998,1,8,0:0:0:0:
224,128,14070,1,8,0:0:0:0:
224,128,14212,1,8,0:0:0:0:
224,128,14355,1,0,0:0:0:0:
224,128,14427,1,8,0:0:0:0:
224,128,14498,1,8,0:0:0:0:
224,128,14570,1,8,0:0:0:0:
224,128,14641,1,0,0:0:0:0:
224,128,14712,1,8,0:0:0:0:
224,128,14784,1,8,0:0:0:0:
256,192,14927,1,0,0:0:0:0:
256,160,14998,1,0,0:0:0:0:
256,160,15070,1,8,0:0:0:0:
224,160,15212,1,8,0:0:0:0:
256,192,15355,1,0,0:0:0:0:
256,192,15498,1,0,0:0:0:0:
256,192,15570,1,0,0:0:0:0:
256,192,15641,1,8,0:0:0:0:
256,192,15784,1,8,0:0:0:0:
256,192,15927,1,0,0:0:0:0:
256,160,16070,1,0,0:0:0:0:
224,160,16141,1,0,0:0:0:0:
224,160,16212,1,8,0:0:0:0:
224,160,16355,1,0,0:0:0:0:
256,192,16427,1,8,0:0:0:0:
224,160,16498,1,8,0:0:0:0:
224,160,16641,1,8,0:0:0:0:
224,160,16784,1,8,0:0:0:0:
224,160,16855,1,0,0:0:0:0:
224,160,16927,1,8,0:0:0:0:
256,192,17070,1,8,0:0:0:0:
256,192,17212,1,4,0:0:0:0:
256,192,17498,1,8,0:0:0:0:
256,160,17784,1,4,0:0:0:0:
256,160,18070,1,8,0:0:0:0:
256,192,18355,1,0,0:0:0:0:
256,192,18498,1,8,0:0:0:0:
256,192,18641,1,8,0:0:0:0:
256,192,18712,1,8,0:0:0:0:
256,192,18784,1,0,0:0:0:0:
256,192,18927,1,8,0:0:0:0:
256,192,19212,1,8,0:0:0:0:
256,192,19355,1,8,0:0:0:0:
256,192,19498,1,0,0:0:0:0:
256,192,19784,1,0,0:0:0:0:
256,192,19927,1,8,0:0:0:0:
256,192,20070,1,8,0:0:0:0:
256,192,20212,1,8,0:0:0:0:
256,192,20355,1,0,0:0:0:0:
256,192,20498,1,8,0:0:0:0:
224,160,20784,1,8,0:0:0:0:
256,192,20927,1,0,0:0:0:0:
256,192,21070,1,8,0:0:0:0:
256,192,21212,1,8,0:0:0:0:
256,192,21355,1,8,0:0:0:0:
256,192,21498,1,0,0:0:0:0:
256,192,21641,1,8,0:0:0:0:
256,192,21784,1,0,0:0:0:0:
256,192,22070,1,0,0:0:0:0:
256,192,22212,1,0,0:0:0:0:
256,192,22355,1,8,0:0:0:0:
256,192,22641,1,0,0:0:0:0:
256,192,22784,1,8,0:0:0:0:
256,192,23070,1,8,0:0:0:0:
256,192,23212,1,0,0:0:0:0:
256,192,23498,1,8,0:0:0:0:
256,192,23784,1,0,0:0:0:0:
256,160,24070,1,0,0:0:0:0:
256,160,24355,1,0,0:0:0:0:
256,160,24498,1,8,0:0:0:0:
256,160,24641,1,8,0:0:0:0:
256,160,24784,1,8,0:0:0:0:
224,160,24927,1,0,0:0:0:0:
224,160,25070,1,8,0:0:0:0:
256,160,25355,1,8,0:0:0:0:
256,192,25498,1,0,0:0:0:0:
256,192,25641,1,8,0:0:0:0:
256,192,25927,1,0,0:0:0:0:
256,192,26070,1,8,0:0:0:0:
256,192,26212,1,8,0:0:0:0:
256,192,26355,1,8,0:0:0:0:
256,192,26641,1,0,0:0:0:0:
256,192,26784,1,0,0:0:0:0:
256,192,26927,1,8,0:0:0:0:
256,192,27213,1,0,0:0:0:0:
256,192,27355,1,8,0:0:0:0:
256,192,27498,1,0,0:0:0:0:
256,192,27784,1,8,0:0:0:0:
256,192,28070,1,0,0:0:0:0:
256,192,28355,1,8,0:0:0:0:
256,192,28641,1,0,0:0:0:0:
248,187,28784,1,0,0:0:0:0:
266,204,28855,1,0,0:0:0:0:
256,192,28927,1,8,0:0:0:0:
224,192,29070,1,8,0:0:0:0:
256,192,29212,1,8,0:0:0:0:
192,128,29284,1,8,0:0:0:0:
256,192,29355,1,0,0:0:0:0:
256,192,29498,1,8,0:0:0:0:
256,192,29641,1,8,0:0:0:0:
256,192,29712,1,8,0:0:0:0:
256,192,29784,1,0,0:0:0:0:
256,192,29927,1,0,0:0:0:0:
256,192,30070,1,8,0:0:0:0:
256,192,30212,1,8,0:0:0:0:
256,192,30284,1,8,0:0:0:0:
256,192,30355,1,0,0:0:0:0:
256,192,30498,1,0,0:0:0:0:
256,192,30570,1,0,0:0:0:0:
256,192,30641,1,8,0:0:0:0:
256,192,30784,1,8,0:0:0:0:
256,192,30927,1,0,0:0:0:0:
256,192,31070,1,0,0:0:0:0:
256,192,31141,1,0,0:0:0:0:
256,192,31212,1,8,0:0:0:0:
256,192,31355,1,8,0:0:0:0:
256,192,31498,1,0,0:0:0:0:
256,192,31570,1,8,0:0:0:0:
256,192,31641,1,0,0:0:0:0:
256,192,31712,1,0,0:0:0:0:
256,192,31784,1,8,0:0:0:0:
256,192,31927,1,8,0:0:0:0:
256,192,32070,1,0,0:0:0:0:
256,192,32212,1,0,0:0:0:0:
256,192,32284,1,0,0:0:0:0:
256,192,32355,1,8,0:0:0:0:
256,224,32498,1,8,0:0:0:0:
256,224,32641,1,0,0:0:0:0:
256,224,32712,1,8,0:0:0:0:
256,224,32784,1,0,0:0:0:0:
256,224,32855,1,8,0:0:0:0:
256,224,32927,1,8,0:0:0:0:
256,224,32998,1,0,0:0:0:0:
256,224,33070,1,8,0:0:0:0:
256,224,33141,1,8,0:0:0:0:
256,224,33212,1,0,0:0:0:0:
256,224,33355,1,0,0:0:0:0:
256,224,33498,1,8,0:0:0:0:
256,224,33641,1,0,0:0:0:0:
256,224,33784,1,0,0:0:0:0:
256,224,33855,1,0,0:0:0:0:
256,224,33927,1,8,0:0:0:0:
256,224,34070,1,8,0:0:0:0:
256,224,34212,1,8,0:0:0:0:
256,224,34284,1,8,0:0:0:0:
256,224,34355,1,0,0:0:0:0:
256,224,34498,1,0,0:0:0:0:
256,224,34641,1,8,0:0:0:0:
256,224,34784,1,8,0:0:0:0:
256,224,34855,1,8,0:0:0:0:
256,224,34927,1,0,0:0:0:0:
256,224,35070,1,0,0:0:0:0:
256,224,35141,1,0,0:0:0:0:
256,224,35212,1,8,0:0:0:0:
256,224,35284,1,0,0:0:0:0:
256,224,35355,1,8,0:0:0:0:
256,224,35498,1,8,0:0:0:0:
256,224,35641,1,8,0:0:0:0:
256,224,35712,1,0,0:0:0:0:
256,224,35784,1,8,0:0:0:0:
256,224,35927,1,8,0:0:0:0:
256,224,36070,1,0,0:0:0:0:
256,224,36141,1,8,0:0:0:0:
256,224,36212,1,8,0:0:0:0:
256,224,36284,1,0,0:0:0:0:
256,224,36355,1,8,0:0:0:0:
256,224,36498,1,8,0:0:0:0:
256,224,36641,1,0,0:0:0:0:
256,192,36784,1,0,0:0:0:0:
256,192,36855,1,0,0:0:0:0:
256,192,36927,1,8,0:0:0:0:
256,192,37070,1,8,0:0:0:0:
256,192,37212,1,0,0:0:0:0:
256,192,37284,1,8,0:0:0:0:
256,192,37355,1,8,0:0:0:0:
256,192,37498,1,8,0:0:0:0:
256,192,37641,1,8,0:0:0:0:
256,192,37784,1,8,0:0:0:0:
256,192,37927,1,8,0:0:0:0:
256,192,37998,1,8,0:0:0:0:
256,192,38070,1,0,0:0:0:0:
256,192,38212,1,8,0:0:0:0:
256,192,38355,1,0,0:0:0:0:
256,192,38498,1,8,0:0:0:0:
256,192,38570,1,8,0:0:0:0:
256,192,38641,1,0,0:0:0:0:
256,192,38784,1,8,0:0:0:0:
256,192,38927,1,0,0:0:0:0:
256,192,39070,1,0,0:0:0:0:
256,192,39141,1,0,0:0:0:0:
256,192,39212,1,8,0:0:0:0:
256,192,39355,1,8,0:0:0:0:
256,192,39498,1,0,0:0:0:0:
256,192,39570,1,8,0:0:0:0:
256,192,39641,1,0,0:0:0:0:
256,192,39712,1,0,0:0:0:0:
256,192,39784,1,8,0:0:0:0:
256,192,39927,1,8,0:0:0:0:
256,192,40070,1,8,0:0:0:0:
256,192,40212,1,8,0:0:0:0:
256,192,40284,1,8,0:0:0:0:
256,192,40355,1,0,0:0:0:0:
256,192,40498,1,8,0:0:0:0:
256,192,40641,1,0,0:0:0:0:
256,192,40784,1,8,0:0:0:0:
256,192,40855,1,0,0:0:0:0:
256,192,40927,1,0,0:0:0:0:
256,192,41070,1,8,0:0:0:0:
256,192,41212,1,0,0:0:0:0:
256,192,41355,1,0,0:0:0:0:
256,192,41427,1,0,0:0:0:0:
256,192,41498,1,8,0:0:0:0:
256,192,41641,1,8,0:0:0:0:
256,192,41784,1,0,0:0:0:0:
256,192,41855,1,0,0:0:0:0:
256,192,41927,1,8,0:0:0:0:
256,192,41998,1,0,0:0:0:0:
256,192,42070,1,8,0:0:0:0:
256,192,42212,1,8,0:0:0:0:
256,192,42355,1,8,0:0:0:0:
256,192,42498,1,8,0:0:0:0:
256,192,42570,1,8,0:0:0:0:
256,192,42641,1,0,0:0:0:0:
256,192,42784,1,8,0:0:0:0:
256,192,42927,1,0,0:0:0:0:
256,160,43070,1,8,0:0:0:0:
256,160,43141,1,0,0:0:0:0:
256,160,43212,1,0,0:0:0:0:
224,160,43355,1,8,0:0:0:0:
224,160,43498,1,0,0:0:0:0:
256,160,43641,1,8,0:0:0:0:
256,160,43712,1,8,0:0:0:0:
256,160,43784,1,0,0:0:0:0:
256,160,43927,1,8,0:0:0:0:
256,160,43998,1,0,0:0:0:0:
256,160,44070,1,0,0:0:0:0:
256,160,44212,1,0,0:0:0:0:
256,160,44284,1,0,0:0:0:0:
256,160,44355,1,8,0:0:0:0:
256,160,44498,1,8,0:0:0:0:
256,160,44641,1,0,0:0:0:0:
256,160,44784,1,0,0:0:0:0:
256,160,44855,1,0,0:0:0:0:
256,160,44927,1,8,0:0:0:0:
224,128,45070,1,8,0:0:0:0:
224,128,45212,1,0,0:0:0:0:
224,128,45284,1,0,0:0:0:0:
224,128,45355,1,0,0:0:0:0:
224,128,45427,1,0,0:0:0:0:
224,128,45498,1,8,0:0:0:0:
224,128,45784,1,4,0:0:0:0:
224,128,46070,1,8,0:0:0:0:
224,128,46355,1,4,0:0:0:0:
256,192,46641,1,8,0:0:0:0:
256,192,46712,1,8,0:0:0:0:
256,192,46784,1,0,0:0:0:0:
256,192,46855,1,0,0:0:0:0:
256,192,46927,1,8,0:0:0:0:
256,192,47070,1,8,0:0:0:0:
256,192,47141,1,8,0:0:0:0:
256,192,47212,1,0,0:0:0:0:
256,192,47355,1,8,0:0:0:0:
256,192,47498,1,0,0:0:0:0:
256,192,47641,1,8,0:0:0:0:
256,192,47712,1,0,0:0:0:0:
256,192,47784,1,0,0:0:0:0:
256,192,47927,1,8,0:0:0:0:
256,192,48070,1,0,0:0:0:0:
256,192,48212,1,0,0:0:0:0:
256,192,48284,1,8,0:0:0:0:
256,192,48355,1,8,0:0:0:0:
256,192,48498,1,8,0:0:0:0:
256,192,48641,1,0,0:0:0:0:
256,192,48712,1,8,0:0:0:0:
256,192,48784,1,8,0:0:0:0:
256,192,48855,1,0,0:0:0:0:
256,192,48927,1,8,0:0:0:0:
256,192,49070,1,8,0:0:0:0:
256,192,49212,1,8,0:0:0:0:
256,192,49355,1,8,0:0:0:0:
256,192,49427,1,8,0:0:0:0:
256,192,49498,1,0,0:0:0:0:
256,192,49641,1,8,0:0:0:0:
256,192,49784,1,0,0:0:0:0:
256,192,49927,1,8,0:0:0:0:
224,160,49998,1,0,0:0:0:0:
224,160,50070,1,0,0:0:0:0:
224,160,50212,1,8,0:0:0:0:
224,160,50355,1,0,0:0:0:0:
256,192,50498,1,0,0:0:0:0:
256,192,50570,1,0,0:0:0:0:
256,192,50641,1,8,0:0:0:0:
256,192,50784,1,8,0:0:0:0:
256,192,50927,1,0,0:0:0:0:
256,192,50998,1,0,0:0:0:0:
256,192,51070,1,8,0:0:0:0:
256,192,51141,1,0,0:0:0:0:
256,192,51212,1,8,0:0:0:0:
256,192,51355,1,8,0:0:0:0:
256,160,51498,1,8,0:0:0:0:
256,160,51641,1,8,0:0:0:0:
256,160,51712,1,8,0:0:0:0:
256,160,51784,1,0,0:0:0:0:
256,160,51927,1,8,0:0:0:0:
256,160,52070,1,0,0:0:0:0:
256,160,52212,1,8,0:0:0:0:
256,160,52284,1,0,0:0:0:0:
256,160,52355,1,0,0:0:0:0:
224,160,52498,1,8,0:0:0:0:
224,160,52641,1,0,0:0:0:0:
224,160,52784,1,8,0:0:0:0:
224,160,52855,1,0,0:0:0:0:
224,160,52927,1,0,0:0:0:0:
224,160,53070,1,8,0:0:0:0:
224,160,53212,1,0,0:0:0:0:
224,160,53355,1,0,0:0:0:0:
224,160,53427,1,0,0:0:0:0:
224,160,53498,1,8,0:0:0:0:
224,160,53641,1,8,0:0:0:0:
224,160,53784,1,4,0:0:0:0:
224,160,54070,1,8,0:0:0:0:
224,160,54355,1,4,0:0:0:0:
224,160,54641,1,8,0:0:0:0:
256,192,54927,1,0,0:0:0:0:
256,192,55070,1,8,0:0:0:0:
256,192,55212,1,0,0:0:0:0:
256,192,55284,1,8,0:0:0:0:
256,192,55355,1,8,0:0:0:0:
256,160,55498,1,8,0:0:0:0:
256,160,55784,1,8,0:0:0:0:
256,160,55927,1,8,0:0:0:0:
256,160,55998,1,8,0:0:0:0:
256,192,56070,1,0,0:0:0:0:
256,192,56213,1,0,0:0:0:0:
256,192,56285,1,0,0:0:0:0:
256,192,56356,1,8,0:0:0:0:
256,192,56499,1,8,0:0:0:0:
256,192,56642,1,0,0:0:0:0:
256,192,56713,1,8,0:0:0:0:
256,192,56785,1,0,0:0:0:0:
256,192,56856,1,0,0:0:0:0:
256,192,56928,1,8,0:0:0:0:
256,192,57070,1,8,0:0:0:0:
256,192,57213,1,0,0:0:0:0:
256,192,57356,1,0,0:0:0:0:
256,192,57428,1,0,0:0:0:0:
256,192,57499,1,8,0:0:0:0:
256,192,57642,1,8,0:0:0:0:
256,192,57785,1,8,0:0:0:0:
256,192,57856,1,8,0:0:0:0:
256,192,57927,1,0,0:0:0:0:
256,192,58070,1,8,0:0:0:0:
256,192,58213,1,8,0:0:0:0:
256,192,58356,1,0,0:0:0:0:
256,192,58499,1,8,0:0:0:0:
256,192,58570,1,0,0:0:0:0:
256,192,58642,1,8,0:0:0:0:
256,192,58785,1,8,0:0:0:0:
256,192,58855,1,0,0:0:0:0:
256,192,58998,1,8,0:0:0:0:
256,192,59070,1,0,0:0:0:0:
256,192,59142,1,0,0:0:0:0:
256,192,59212,1,8,0:0:0:0:
256,192,59356,1,8,0:0:0:0:
256,192,59427,1,0,0:0:0:0:
256,192,59570,1,0,0:0:0:0:
256,192,59642,1,8,0:0:0:0:
256,192,59785,1,8,0:0:0:0:
224,160,59927,1,0,0:0:0:0:
256,192,59998,1,0,0:0:0:0:
256,192,60070,1,8,0:0:0:0:
256,192,60213,1,8,0:0:0:0:
256,192,60356,1,0,0:0:0:0:
256,192,60428,1,8,0:0:0:0:
256,192,60499,1,8,0:0:0:0:
256,192,60642,1,0,0:0:0:0:
256,192,60785,1,0,0:0:0:0:
256,192,60856,1,0,0:0:0:0:
256,192,60928,1,8,0:0:0:0:
256,192,61070,1,8,0:0:0:0:
224,160,61141,1,0,0:0:0:0:
256,192,61285,1,8,0:0:0:0:
256,192,61356,1,0,0:0:0:0:
256,160,61428,1,8,0:0:0:0:
256,160,61499,1,8,0:0:0:0:
256,160,61642,1,8,0:0:0:0:
256,160,61712,1,0,0:0:0:0:
256,160,61855,1,8,0:0:0:0:
256,192,61928,1,0,0:0:0:0:
256,192,61999,1,0,0:0:0:0:
256,160,62070,1,8,0:0:0:0:
256,160,62213,1,8,0:0:0:0:
256,160,62356,1,0,0:0:0:0:
241,190,62427,1,8,0:0:0:0:
256,160,62499,1,8,0:0:0:0:
256,160,62642,1,8,0:0:0:0:
256,160,62713,1,0,0:0:0:0:
256,160,62785,1,8,0:0:0:0:
256,160,62928,1,4,0:0:0:0:
256,160,63213,1,8,0:0:0:0:
256,160,63499,1,4,0:0:0:0:
256,160,63785,1,8,0:0:0:0:
256,192,64070,1,0,0:0:0:0:
256,192,64213,1,8,0:0:0:0:
256,192,64356,1,0,0:0:0:0:
256,192,64428,1,0,0:0:0:0:
256,192,64499,1,8,0:0:0:0:
256,160,64642,1,8,0:0:0:0:
256,160,64785,1,0,0:0:0:0:
256,160,64928,1,8,0:0:0:0:
256,160,65070,1,8,0:0:0:0:
256,160,65142,1,8,0:0:0:0:
256,160,65213,1,0,0:0:0:0:
256,160,65356,1,0,0:0:0:0:
256,160,65428,1,0,0:0:0:0:
256,160,65499,1,8,0:0:0:0:
256,192,65642,1,8,0:0:0:0:
256,192,65785,1,0,0:0:0:0:
256,192,65856,1,0,0:0:0:0:
256,192,65928,1,0,0:0:0:0:
256,192,65999,1,0,0:0:0:0:
256,192,66070,1,8,0:0:0:0:
256,192,66213,1,8,0:0:0:0:
256,192,66356,1,0,0:0:0:0:
256,192,66499,1,0,0:0:0:0:
256,192,66570,1,0,0:0:0:0:
256,192,66642,1,8,0:0:0:0:
256,160,66785,1,8,0:0:0:0:
256,192,66928,1,0,0:0:0:0:
256,192,66999,1,0,0:0:0:0:
256,192,67070,1,8,0:0:0:0:
256,192,67142,1,0,0:0:0:0:
256,192,67213,1,8,0:0:0:0:
256,192,67356,1,8,0:0:0:0:
256,192,67499,1,0,0:0:0:0:
256,192,67642,1,8,0:0:0:0:
256,192,67713,1,0,0:0:0:0:
256,192,67785,1,8,0:0:0:0:
256,160,67928,1,8,0:0:0:0:
256,160,67998,1,8,0:0:0:0:
256,160,68141,1,0,0:0:0:0:
256,160,68213,1,8,0:0:0:0:
256,160,68285,1,0,0:0:0:0:
256,160,68356,1,8,0:0:0:0:
256,160,68499,1,8,0:0:0:0:
256,160,68570,1,8,0:0:0:0:
256,160,68712,1,0,0:0:0:0:
224,128,68785,1,0,0:0:0:0:
224,160,68856,1,8,0:0:0:0:
224,128,68928,1,8,0:0:0:0:
224,128,69070,1,8,0:0:0:0:
224,128,69213,1,8,0:0:0:0:
288,64,69284,1,0,0:0:0:0:
224,128,69356,1,8,0:0:0:0:
224,128,69499,1,8,0:0:0:0:
224,128,69570,1,0,0:0:0:0:
224,128,69642,1,8,0:0:0:0:
256,192,69785,1,0,0:0:0:0:
256,160,69856,1,0,0:0:0:0:
256,160,69928,1,8,0:0:0:0:
256,192,69998,1,0,0:0:0:0:
224,160,70070,1,8,0:0:0:0:
256,192,70213,1,8,0:0:0:0:
256,192,70356,1,0,0:0:0:0:
256,192,70428,1,0,0:0:0:0:
256,192,70499,1,8,0:0:0:0:
224,160,70570,1,0,0:0:0:0:
256,192,70642,1,8,0:0:0:0:
256,192,70785,1,8,0:0:0:0:
256,160,70928,1,0,0:0:0:0:
224,160,70999,1,0,0:0:0:0:
224,160,71070,1,8,0:0:0:0:
224,160,71213,1,8,0:0:0:0:
256,192,71356,1,8,0:0:0:0:
224,160,71428,1,8,0:0:0:0:
224,160,71499,1,0,0:0:0:0:
224,160,71642,1,8,0:0:0:0:
224,160,71785,1,8,0:0:0:0:
256,182,71855,1,8,0:0:0:0:
256,192,71928,1,8,0:0:0:0:
256,192,72070,1,4,0:0:0:0:
256,192,72356,1,8,0:0:0:0:
256,160,72642,1,4,0:0:0:0:
256,160,72928,1,8,0:0:0:0:
256,192,73213,1,0,0:0:0:0:
256,192,73356,1,8,0:0:0:0:
256,192,73499,1,8,0:0:0:0:
256,192,73570,1,8,0:0:0:0:
256,192,73642,1,0,0:0:0:0:
256,192,73785,1,8,0:0:0:0:
256,192,74070,1,8,0:0:0:0:
256,192,74213,1,8,0:0:0:0:
256,192,74356,1,0,0:0:0:0:
256,192,74642,1,0,0:0:0:0:
256,192,74785,1,8,0:0:0:0:
256,192,74928,1,8,0:0:0:0:
256,192,75070,1,0,0:0:0:0:
256,192,75213,1,0,0:0:0:0:
256,192,75356,1,8,0:0:0:0:
224,160,75642,1,0,0:0:0:0:
256,192,75785,1,8,0:0:0:0:
256,192,75928,1,0,0:0:0:0:
256,192,76070,1,8,0:0:0:0:
256,192,76213,1,8,0:0:0:0:
256,192,76356,1,0,0:0:0:0:
256,192,76499,1,8,0:0:0:0:
256,192,76642,1,0,0:0:0:0:
256,192,76928,1,8,0:0:0:0:
256,192,77070,1,0,0:0:0:0:
256,192,77213,1,8,0:0:0:0:
256,192,77499,1,0,0:0:0:0:
256,192,77642,1,8,0:0:0:0:
256,192,77928,1,8,0:0:0:0:
256,192,78070,1,0,0:0:0:0:
256,192,78356,1,8,0:0:0:0:
256,192,78642,1,0,0:0:0:0:
256,160,78928,1,0,0:0:0:0:
256,160,79213,1,0,0:0:0:0:
256,160,79356,1,8,0:0:0:0:
256,160,79499,1,8,0:0:0:0:
256,160,79642,1,0,0:0:0:0:
224,160,79785,1,0,0:0:0:0:
224,160,79928,1,8,0:0:0:0:
256,160,80213,1,8,0:0:0:0:
256,192,80356,1,0,0:0:0:0:
256,192,80499,1,8,0:0:0:0:
256,192,80785,1,0,0:0:0:0:
256,192,80928,1,8,0:0:0:0:
256,192,81070,1,0,0:0:0:0:
256,192,81213,1,8,0:0:0:0:
256,192,81499,1,0,0:0:0:0:
256,192,81642,1,8,0:0:0:0:
256,192,81785,1,8,0:0:0:0:
256,192,82071,1,0,0:0:0:0:
256,192,82213,1,8,0:0:0:0:
256,192,82356,1,0,0:0:0:0:
256,192,82642,1,8,0:0:0:0:
256,192,82928,1,0,0:0:0:0:
256,192,83213,1,8,0:0:0:0:
256,192,83499,1,0,0:0:0:0:
248,187,83642,1,0,0:0:0:0:
266,204,83713,1,8,0:0:0:0:
256,192,83785,1,8,0:0:0:0:
224,192,83928,1,8,0:0:0:0:
256,192,84070,1,8,0:0:0:0:
192,128,84142,1,8,0:0:0:0:
256,192,84213,1,0,0:0:0:0:
256,192,84356,1,8,0:0:0:0:
256,192,84499,1,8,0:0:0:0:
256,192,84570,1,8,0:0:0:0:
256,192,84642,1,0,0:0:0:0:
256,192,84785,1,8,0:0:0:0:
256,192,84928,1,8,0:0:0:0:
256,192,85070,1,8,0:0:0:0:
256,192,85142,1,8,0:0:0:0:
256,192,85213,1,0,0:0:0:0:
256,192,85356,1,0,0:0:0:0:
256,192,85428,1,8,0:0:0:0:
256,192,85499,1,8,0:0:0:0:
256,192,85642,1,8,0:0:0:0:
256,192,85785,1,0,0:0:0:0:
256,192,85928,1,8,0:0:0:0:
256,192,85999,1,0,0:0:0:0:
256,192,86070,1,8,0:0:0:0:
256,192,86213,1,8,0:0:0:0:
256,192,86356,1,0,0:0:0:0:
256,192,86428,1,8,0:0:0:0:
256,192,86499,1,8,0:0:0:0:
256,192,86570,1,0,0:0:0:0:
256,192,86642,1,8,0:0:0:0:
256,192,86785,1,8,0:0:0:0:
256,192,86928,1,0,0:0:0:0:
256,192,87070,1,8,0:0:0:0:
256,192,87142,1,0,0:0:0:0:
256,192,87213,1,8,0:0:0:0:
256,224,87356,1,8,0:0:0:0:
256,224,87499,1,0,0:0:0:0:
256,224,87570,1,8,0:0:0:0:
256,224,87642,1,8,0:0:0:0:
256,224,87713,1,0,0:0:0:0:
256,224,87785,1,8,0:0:0:0:
256,224,87856,1,8,0:0:0:0:
256,224,87928,1,0,0:0:0:0:
256,224,87999,1,8,0:0:0:0:
256,224,88070,1,0,0:0:0:0:
256,224,88213,1,0,0:0:0:0:
256,224,88356,1,8,0:0:0:0:
256,224,88499,1,0,0:0:0:0:
256,224,88642,1,0,0:0:0:0:
256,224,88713,1,8,0:0:0:0:
256,224,88785,1,8,0:0:0:0:
256,224,88928,1,8,0:0:0:0:
256,224,89070,1,8,0:0:0:0:
256,224,89142,1,8,0:0:0:0:
256,224,89213,1,0,0:0:0:0:
256,224,89355,1,8,0:0:0:0:
256,224,89499,1,8,0:0:0:0:
256,224,89642,1,8,0:0:0:0:
256,224,89713,1,8,0:0:0:0:
256,224,89785,1,0,0:0:0:0:
256,224,89928,1,8,0:0:0:0:
256,224,89999,1,8,0:0:0:0:
256,224,90070,1,0,0:0:0:0:
256,224,90213,1,8,0:0:0:0:
256,224,90356,1,8,0:0:0:0:
256,224,90499,1,8,0:0:0:0:
256,224,90570,1,0,0:0:0:0:
256,224,90642,1,8,0:0:0:0:
256,224,90785,1,8,0:0:0:0:
256,224,90928,1,0,0:0:0:0:
256,224,90999,1,8,0:0:0:0:
256,224,91070,1,8,0:0:0:0:
256,224,91142,1,0,0:0:0:0:
256,224,91213,1,8,0:0:0:0:
256,224,91356,1,8,0:0:0:0:
256,224,91499,1,0,0:0:0:0:
256,192,91642,1,0,0:0:0:0:
256,192,91713,1,8,0:0:0:0:
256,192,91785,1,8,0:0:0:0:
256,192,91928,1,8,0:0:0:0:
256,192,92070,1,8,0:0:0:0:
256,192,92142,1,8,0:0:0:0:
256,192,92213,1,8,0:0:0:0:
256,192,92284,1,0,0:0:0:0:
256,192,92356,1,8,0:0:0:0:
256,192,92499,1,8,0:0:0:0:
256,192,92642,1,8,0:0:0:0:
256,192,92785,1,8,0:0:0:0:
256,192,92856,1,8,0:0:0:0:
256,192,92928,1,0,0:0:0:0:
256,192,93070,1,8,0:0:0:0:
256,192,93213,1,0,0:0:0:0:
256,192,93356,1,8,0:0:0:0:
256,192,93428,1,8,0:0:0:0:
256,192,93499,1,0,0:0:0:0:
256,192,93642,1,8,0:0:0:0:
256,192,93785,1,0,0:0:0:0:
256,192,93928,1,0,0:0:0:0:
256,192,93999,1,8,0:0:0:0:
256,192,94070,1,8,0:0:0:0:
256,192,94213,1,8,0:0:0:0:
256,192,94356,1,8,0:0:0:0:
256,192,94428,1,8,0:0:0:0:
256,192,94499,1,0,0:0:0:0:
256,192,94570,1,8,0:0:0:0:
256,192,94642,1,8,0:0:0:0:
256,192,94785,1,8,0:0:0:0:
256,192,94928,1,8,0:0:0:0:
256,192,95070,1,8,0:0:0:0:
256,192,95142,1,8,0:0:0:0:
256,192,95213,1,0,0:0:0:0:
256,192,95356,1,8,0:0:0:0:
256,192,95499,1,0,0:0:0:0:
256,192,95642,1,8,0:0:0:0:
256,192,95713,1,0,0:0:0:0:
256,192,95785,1,0,0:0:0:0:
256,192,95928,1,8,0:0:0:0:
256,192,96070,1,0,0:0:0:0:
256,192,96213,1,0,0:0:0:0:
256,192,96285,1,0,0:0:0:0:
256,192,96356,1,8,0:0:0:0:
256,192,96499,1,8,0:0:0:0:
256,192,96642,1,8,0:0:0:0:
256,192,96713,1,8,0:0:0:0:
256,192,96785,1,8,0:0:0:0:
256,192,96856,1,0,0:0:0:0:
256,192,96928,1,8,0:0:0:0:
256,192,97070,1,8,0:0:0:0:
256,192,97213,1,8,0:0:0:0:
256,192,97356,1,8,0:0:0:0:
256,192,97428,1,8,0:0:0:0:
256,192,97499,1,0,0:0:0:0:
256,192,97642,1,8,0:0:0:0:
256,192,97785,1,0,0:0:0:0:
256,160,97928,1,8,0:0:0:0:
256,160,97999,1,0,0:0:0:0:
256,160,98070,1,0,0:0:0:0:
224,160,98213,1,8,0:0:0:0:
224,160,98356,1,0,0:0:0:0:
256,160,98499,1,8,0:0:0:0:
256,160,98570,1,8,0:0:0:0:
256,160,98642,1,0,0:0:0:0:
256,160,98785,1,8,0:0:0:0:
256,160,98856,1,0,0:0:0:0:
256,160,98928,1,0,0:0:0:0:
256,160,99070,1,0,0:0:0:0:
256,160,99142,1,8,0:0:0:0:
256,160,99213,1,8,0:0:0:0:
256,160,99356,1,8,0:0:0:0:
256,160,99499,1,0,0:0:0:0:
256,160,99642,1,0,0:0:0:0:
256,160,99713,1,8,0:0:0:0:
256,160,99785,1,8,0:0:0:0:
224,128,99928,1,8,0:0:0:0:
224,128,100070,1,0,0:0:0:0:
224,128,100142,1,0,0:0:0:0:
224,128,100213,1,8,0:0:0:0:
224,128,100285,1,0,0:0:0:0:
224,128,100356,1,8,0:0:0:0:
224,128,100642,1,4,0:0:0:0:
224,128,100928,1,8,0:0:0:0:
224,128,101213,1,4,0:0:0:0:
256,192,101499,1,8,0:0:0:0:
256,192,101570,1,8,0:0:0:0:
256,192,101642,1,8,0:0:0:0:
256,192,101713,1,0,0:0:0:0:
256,192,101785,1,8,0:0:0:0:
256,192,101928,1,8,0:0:0:0:
256,192,101999,1,8,0:0:0:0:
256,192,102070,1,0,0:0:0:0:
256,192,102213,1,8,0:0:0:0:
256,192,102356,1,0,0:0:0:0:
256,192,102499,1,8,0:0:0:0:
256,192,102570,1,8,0:0:0:0:
256,192,102642,1,0,0:0:0:0:
256,192,102785,1,8,0:0:0:0:
256,192,102928,1,0,0:0:0:0:
256,192,103070,1,0,0:0:0:0:
256,192,103142,1,0,0:0:0:0:
256,192,103213,1,8,0:0:0:0:
256,192,103356,1,8,0:0:0:0:
256,192,103499,1,0,0:0:0:0:
256,192,103570,1,8,0:0:0:0:
256,192,103642,1,0,0:0:0:0:
256,192,103713,1,8,0:0:0:0:
256,192,103785,1,8,0:0:0:0:
256,192,103928,1,8,0:0:0:0:
256,192,104070,1,8,0:0:0:0:
256,192,104213,1,8,0:0:0:0:
256,192,104285,1,8,0:0:0:0:
256,192,104356,1,0,0:0:0:0:
256,192,104499,1,8,0:0:0:0:
256,192,104642,1,0,0:0:0:0:
256,192,104785,1,8,0:0:0:0:
224,160,104856,1,0,0:0:0:0:
224,160,104928,1,0,0:0:0:0:
224,160,105070,1,8,0:0:0:0:
224,160,105213,1,0,0:0:0:0:
256,192,105356,1,0,0:0:0:0:
256,192,105428,1,8,0:0:0:0:
256,192,105499,1,8,0:0:0:0:
256,192,105642,1,8,0:0:0:0:
256,192,105785,1,0,0:0:0:0:
256,192,105856,1,8,0:0:0:0:
256,192,105928,1,8,0:0:0:0:
256,192,105999,1,0,0:0:0:0:
256,192,106070,1,8,0:0:0:0:
256,192,106213,1,8,0:0:0:0:
256,160,106356,1,8,0:0:0:0:
256,160,106499,1,8,0:0:0:0:
256,160,106570,1,8,0:0:0:0:
256,160,106642,1,0,0:0:0:0:
256,160,106785,1,8,0:0:0:0:
256,160,106928,1,0,0:0:0:0:
256,160,107070,1,8,0:0:0:0:
256,160,107142,1,0,0:0:0:0:
256,160,107213,1,0,0:0:0:0:
224,160,107356,1,8,0:0:0:0:
224,160,107499,1,0,0:0:0:0:
224,160,107642,1,8,0:0:0:0:
224,160,107713,1,0,0:0:0:0:
224,160,107785,1,0,0:0:0:0:
224,160,107928,1,8,0:0:0:0:
224,160,108070,1,0,0:0:0:0:
224,160,108213,1,0,0:0:0:0:
224,160,108285,1,0,0:0:0:0:
224,160,108356,1,8,0:0:0:0:
224,160,108499,1,8,0:0:0:0:
224,160,108642,1,4,0:0:0:0:
224,160,108928,1,8,0:0:0:0:
224,160,109213,1,4,0:0:0:0:
224,160,109499,1,8,0:0:0:0:
256,192,109785,1,0,0:0:0:0:
256,192,109928,1,8,0:0:0:0:
256,192,110070,1,0,0:0:0:0:
256,192,110142,1,8,0:0:0:0:
256,192,110213,1,8,0:0:0:0:
256,160,110356,1,8,0:0:0:0:
256,160,110642,1,8,0:0:0:0:
256,160,110712,1,8,0:0:0:0:
256,160,110785,1,8,0:0:0:0:
256,160,110856,1,8,0:0:0:0:
256,160,110928,1,0,0:0:0:0:
