osu file format v14

[General]
AudioFilename: audio.mp3
AudioLeadIn: 0
PreviewTime: -1
Countdown: 1
SampleSet: Normal
StackLeniency: 0.7
Mode: 0
LetterboxInBreaks: 0
WidescreenStoryboard: 0

[Editor]
DistanceSpacing: 5.2
BeatDivisor: 4
GridSize: 4
TimelineZoom: 1

[Metadata]
Title:Russian version
TitleUnicode:Russian version
Artist:Pokemon 1 opening
ArtistUnicode:Pokemon 1 opening
Creator:OneRing
Version:Insane
Source:Pokemon
Tags:Pokemon, Russian,
BeatmapID:1921972
BeatmapSetID:920310

[Difficulty]
HPDrainRate:7
CircleSize:4
OverallDifficulty:7
ApproachRate:9
SliderMultiplier:1.4
SliderTickRate:1

[Events]
//Background and Video events
0,0,"ash-and-pikachu-origin-story-movie.png",0,0
//Break Periods
//Storyboard Layer 0 (Background)
//Storyboard Layer 1 (Fail)
//Storyboard Layer 2 (Pass)
//Storyboard Layer 3 (Foreground)
//Storyboard Sound Samples

[TimingPoints]
4194.3820701304,413.793103448276,4,1,0,100,1,0
9786,-133.333333333333,4,1,0,100,0,0
10821,-100,4,1,0,100,0,0

[HitObjects]
169,224,3579,5,0,0:0:0:0:
229,82,3786,1,0,0:0:0:0:
96,245,3993,2,0,P|142:295|228:273,1,140
344,257,4608,1,0,0:0:0:0:
302,108,4815,1,0,0:0:0:0:
190,249,5021,1,0,0:0:0:0:
399,209,5228,2,0,L|376:113,1,70
175,181,5642,2,0,L|191:251,1,70
342,278,6056,1,0,0:0:0:0:
420,145,6263,1,0,0:0:0:0:
266,156,6470,1,0,0:0:0:0:
471,200,6677,1,0,0:0:0:0:
265,155,6884,1,0,0:0:0:0:
400,314,7090,1,0,0:0:0:0:
421,133,7297,5,0,0:0:0:0:
252,234,7504,1,0,0:0:0:0:
500,103,7711,2,0,P|409:45|368:70,1,140
272,152,8332,1,0,0:0:0:0:
150,247,8539,1,0,0:0:0:0:
285,319,8746,1,0,0:0:0:0:
199,142,8953,1,0,0:0:0:0:
223,335,9159,1,0,0:0:0:0:
263,107,9366,1,0,0:0:0:0:
269,359,9573,1,0,0:0:0:0:
333,131,9780,2,0,P|320:157|284:182,1,70
76,98,10194,2,0,P|107:73|135:57,1,52.5000020027161
146,316,10608,6,0,P|119:303|92:277,1,52.5000020027161
126,136,11021,1,0,0:0:0:0:
58,319,11228,1,0,0:0:0:0:
84,82,11435,1,0,0:0:0:0:
130,329,11642,2,0,P|171:320|203:305,1,70
335,241,12056,1,0,0:0:0:0:
146,188,12263,1,0,0:0:0:0:
300,67,12470,1,0,0:0:0:0:
217,244,12677,1,0,0:0:0:0:
248,22,12884,1,0,0:0:0:0:
287,269,13090,1,0,0:0:0:0:
96,150,13297,1,0,0:0:0:0:
306,72,13504,1,0,0:0:0:0:
105,224,13711,1,0,0:0:0:0:
238,9,13918,1,0,0:0:0:0:
170,266,14125,6,0,L|315:288,1,140
391,77,14746,2,0,L|252:51,1,140
369,242,15366,2,0,L|415:162,1,70
323,48,15780,1,0,0:0:0:0:
217,160,15987,1,0,0:0:0:0:
385,89,16194,1,0,0:0:0:0:
175,102,16401,1,0,0:0:0:0:
301,269,16608,1,0,0:0:0:0:
323,48,16815,1,0,0:0:0:0:
374,293,17021,1,0,0:0:0:0:
253,39,17228,6,0,P|289:40|345:50,1,70
423,161,17642,1,0,0:0:0:0:
316,272,17849,1,0,0:0:0:0:
255,107,18056,1,0,0:0:0:0:
479,112,18263,2,0,P|491:148|490:198,1,70
421,317,18677,1,0,0:0:0:0:
239,334,18884,1,0,0:0:0:0:
317,170,19090,1,0,0:0:0:0:
296,365,19297,1,0,0:0:0:0:
259,129,19504,1,0,0:0:0:0:
365,341,19711,1,0,0:0:0:0:
189,140,19918,1,0,0:0:0:0:
419,272,20125,1,0,0:0:0:0:
219,338,20332,1,0,0:0:0:0:
308,132,20539,1,0,0:0:0:0:
165,348,20746,6,0,P|200:364|247:368,1,70
365,268,21159,1,0,0:0:0:0:
270,128,21366,1,0,0:0:0:0:
225,290,21573,1,0,0:0:0:0:
315,85,21780,1,0,0:0:0:0:
163,304,21987,2,0,P|182:331|220:356,1,70
362,276,22401,1,0,0:0:0:0:
257,144,22608,1,0,0:0:0:0:
172,289,22815,1,0,0:0:0:0:
366,211,23021,1,0,0:0:0:0:
155,204,23228,1,0,0:0:0:0:
385,145,23435,1,0,0:0:0:0:
151,273,23642,1,0,0:0:0:0:
375,83,23849,1,0,0:0:0:0:
98,298,24056,6,0,P|128:322|175:338,1,70
304,252,24470,1,0,0:0:0:0:
152,179,24677,1,0,0:0:0:0:
336,111,24884,2,0,P|293:81|246:69,1,70
110,96,25297,1,0,0:0:0:0:
210,230,25504,1,0,0:0:0:0:
293,68,25711,2,0,P|259:46|223:36,1,70
61,106,26125,1,0,0:0:0:0:
137,271,26332,1,0,0:0:0:0:
119,61,26539,1,0,0:0:0:0:
73,294,26746,1,0,0:0:0:0:
75,27,26953,1,0,0:0:0:0:
119,316,27159,1,0,0:0:0:0:
357,143,27366,6,0,L|233:65,1,140
71,259,27987,2,0,L|213:355,1,140
374,276,28608,1,0,0:0:0:0:
278,104,28815,1,0,0:0:0:0:
179,288,29021,1,0,0:0:0:0:
237,57,29228,1,0,0:0:0:0:
229,323,29435,1,0,0:0:0:0:
177,33,29642,1,0,0:0:0:0:
288,335,29849,1,0,0:0:0:0:
54,229,30056,1,0,0:0:0:0:
428,165,30263,1,0,0:0:0:0:
74,30,30470,6,0,L|58:107,1,70
168,263,30884,1,0,0:0:0:0:
314,133,31090,1,0,0:0:0:0:
128,70,31297,1,0,0:0:0:0:
99,292,31504,2,0,P|126:318|186:336,1,70
325,232,31918,1,0,0:0:0:0:
230,60,32125,1,0,0:0:0:0:
90,226,32332,2,0,P|123:246|181:262,1,70
343,206,32746,1,0,0:0:0:0:
230,60,32953,1,0,0:0:0:0:
190,279,33159,1,0,0:0:0:0:
298,51,33366,1,0,0:0:0:0:
235,323,33573,1,0,0:0:0:0:
236,14,33780,1,0,0:0:0:0:
312,327,33987,6,0,P|339:288|352:253,1,70
332,70,34401,1,0,0:0:0:0:
152,148,34608,1,0,0:0:0:0:
304,271,34815,2,0,P|329:237|342:181,1,70
281,23,35228,1,0,0:0:0:0:
112,123,35435,1,0,0:0:0:0:
257,255,35642,1,0,0:0:0:0:
217,34,35849,1,0,0:0:0:0:
285,276,36056,1,0,0:0:0:0:
278,9,36263,1,0,0:0:0:0:
252,302,36470,1,0,0:0:0:0:
447,193,36677,1,0,0:0:0:0:
141,155,36884,1,0,0:0:0:0:
472,109,37090,6,0,L|388:69,1,70
98,211,37504,2,0,B|76:126|88:75|166:48|195:69|228:129|210:177|163:243|98:211,1,350
14,340,38746,1,0,0:0:0:0:
91,159,38953,1,0,0:0:0:0:
181,332,39159,1,0,0:0:0:0:
20,176,39366,1,0,0:0:0:0:
246,287,39573,1,0,0:0:0:0:
187,70,39780,1,0,0:0:0:0:
174,307,39987,1,0,0:0:0:0:
382,225,40194,1,0,0:0:0:0:
102,210,40401,1,0,0:0:0:0:
435,169,40608,6,0,L|308:92,1,140
104,281,41228,2,0,L|247:367,1,140
394,254,41849,1,0,0:0:0:0:
302,95,42056,1,0,0:0:0:0:
188,254,42263,1,0,0:0:0:0:
267,44,42470,1,0,0:0:0:0:
238,294,42677,1,0,0:0:0:0:
206,15,42884,1,0,0:0:0:0:
283,316,43090,1,0,0:0:0:0:
67,214,43297,1,0,0:0:0:0:
400,174,43504,1,0,0:0:0:0:
79,32,43711,6,0,L|56:129,1,70
128,255,44125,1,0,0:0:0:0:
266,159,44332,1,0,0:0:0:0:
126,65,44539,1,0,0:0:0:0:
52,246,44746,2,0,P|60:282|85:316,1,70
288,301,45159,1,0,0:0:0:0:
205,107,45366,1,0,0:0:0:0:
109,294,45573,6,0,P|128:327|159:349,1,70
389,307,45987,1,0,0:0:0:0:
327,91,46194,1,0,0:0:0:0:
301,327,46401,1,0,0:0:0:0:
311,75,46608,1,0,0:0:0:0:
363,353,46815,1,0,0:0:0:0:
156,209,47021,1,0,0:0:0:0:
405,116,47228,6,0,P|388:147|353:177,1,70
194,271,47642,1,0,0:0:0:0:
388,244,47849,1,0,0:0:0:0:
271,86,48056,1,0,0:0:0:0:
255,309,48263,1,0,0:0:0:0:
206,61,48470,1,0,0:0:0:0:
323,315,48677,1,0,0:0:0:0:
131,73,48884,6,0,P|145:105|180:135,1,70
355,190,49297,1,0,0:0:0:0:
261,17,49504,1,0,0:0:0:0:
188,199,49711,1,0,0:0:0:0:
332,27,49918,1,0,0:0:0:0:
213,249,50125,1,0,0:0:0:0:
293,4,50332,1,0,0:0:0:0:
143,273,50539,6,0,P|165:304|220:325,1,70
384,279,50953,1,0,0:0:0:0:
301,102,51159,1,0,0:0:0:0:
177,254,51366,2,0,P|198:283|249:311,1,70
448,270,51780,1,0,0:0:0:0:
361,63,51987,1,0,0:0:0:0:
207,225,52194,6,0,P|223:251|263:277,1,70
476,310,52608,1,0,0:0:0:0:
389,103,52815,1,0,0:0:0:0:
275,295,53021,1,0,0:0:0:0:
354,56,53228,1,0,0:0:0:0:
317,355,53435,1,0,0:0:0:0:
507,189,53642,1,0,0:0:0:0:
171,96,53849,6,0,L|118:230,1,140
403,309,54470,2,0,L|458:172,1,140
287,30,55090,1,0,0:0:0:0:
143,201,55297,1,0,0:0:0:0:
363,239,55504,1,0,0:0:0:0:
213,53,55711,1,0,0:0:0:0:
166,286,55918,1,0,0:0:0:0:
371,165,56125,1,0,0:0:0:0:
142,57,56332,1,0,0:0:0:0:
226,324,56539,1,0,0:0:0:0:
183,18,56746,1,0,0:0:0:0:
137,351,56953,1,0,0:0:0:0:
442,215,57159,6,0,L|403:126,1,70
218,38,57573,1,0,0:0:0:0:
97,226,57780,1,0,0:0:0:0:
320,244,57987,1,0,0:0:0:0:
150,57,58194,1,0,0:0:0:0:
120,307,58401,1,0,0:0:0:0:
364,170,58608,1,0,0:0:0:0:
66,89,58815,1,0,0:0:0:0:
426,139,59228,5,0,0:0:0:0:
96,204,59435,1,0,0:0:0:0:
450,289,59642,1,0,0:0:0:0:
