osu file format v14

[General]
AudioFilename: audio.mp3
AudioLeadIn: 0
PreviewTime: 197130
Countdown: 0
SampleSet: Soft
StackLeniency: 0.7
Mode: 0
LetterboxInBreaks: 0
WidescreenStoryboard: 0

[Editor]
Bookmarks: 46505,75076,132219,160790,215076,249362,249719,250076,250433,250790,251148,251505,251862,252219,252576,252933,253290,253648,254005,254362,254719,255076,255433,255790,256148,256505,256862,257219,257576,257933,258290,258648,259005,259362,259719,260076,260433,260790
DistanceSpacing: 0.4
BeatDivisor: 4
GridSize: 16
TimelineZoom: 2.1

[Metadata]
Title:Yajirushi->
TitleUnicode:やじるし→
Artist:Pokapoka Ion
ArtistUnicode:ぽかぽかイオン
Creator:Tycani
Version:Warmth
Source:スローループ
Tags:fuiba fuyu slow loop sloop anime opening op japanese pop j-pop jpop pokaxion 東山奈央 touyama toyama nao 安野希世乃 yasuno kiyono first 1st single 2022 海凪ひより minagi hiyori 吉永恋 yoshinaga koi まんがタイムきららキャラット manga time kirara carat 芳文社 hobunsha
BeatmapID:3679494
BeatmapSetID:1795149

[Difficulty]
HPDrainRate:6
CircleSize:4
OverallDifficulty:8
ApproachRate:9
SliderMultiplier:1.7
SliderTickRate:1

[Events]
//Background and Video events
0,0,"98307476_p0.jpg",0,0
//Break Periods
//Storyboard Layer 0 (Background)
//Storyboard Layer 1 (Fail)
//Storyboard Layer 2 (Pass)
//Storyboard Layer 3 (Foreground)
//Storyboard Layer 4 (Overlay)
//Storyboard Sound Samples

[TimingPoints]
697,357.142857142857,4,2,1,50,1,0
697,-125,4,2,1,50,0,0
5696,-200,4,2,1,50,0,0
6232,-125,4,2,1,50,0,0
9268,-125,4,2,1,65,0,0
9357,-125,4,2,1,50,0,0
10875,-125,4,2,1,60,0,0
11411,-166.666666666667,4,2,1,60,0,0
11768,-200,4,2,1,60,0,0
12125,-125,4,2,1,65,0,0
19982,-153.846153846154,4,2,1,65,0,0
20696,-125,4,2,1,65,0,0
23554,-100,4,2,1,70,0,0
34982,-133.333333333333,4,2,1,60,0,0
40696,-117.647058823529,4,2,1,65,0,0
42125,-105.263157894737,4,2,1,70,0,0
43554,-95.2380952380952,4,2,1,80,0,0
46411,-83.3333333333333,4,2,1,85,0,0
69268,-76.9230769230769,4,2,1,85,0,0
74982,-200,4,2,1,50,0,0
76411,-200,4,2,1,30,0,0
76500,-200,4,2,1,50,0,0
80696,-153.846153846154,4,2,1,50,0,0
86411,-125,4,2,1,65,0,0
94982,-125,4,2,1,70,0,0
97125,-125,4,2,1,75,0,0
97839,-100,4,2,1,70,0,0
109268,-90.9090909090909,4,2,1,75,0,0
120696,-133.333333333333,4,2,1,60,0,0
126411,-117.647058823529,4,2,1,65,0,0
127839,-105.263157894737,4,2,1,70,0,0
129268,-95.2380952380952,4,2,1,80,0,0
131411,-61.4795955012042,4,2,1,80,0,0
132125,-80,4,2,1,85,0,0
154982,-74.0740740740741,4,2,1,85,0,0
160696,-166.666666666667,4,2,1,85,0,0
161054,-83.3333333333333,4,2,1,85,0,0
166411,-166.666666666667,4,2,1,85,0,0
166768,-83.3333333333333,4,2,1,85,0,0
185518,-90.9090909090909,4,2,1,75,0,0
186054,-90.9090909090909,4,2,1,65,0,0
186411,-133.333333333333,4,2,1,50,0,0
197750,-133.333333333333,4,2,1,5,0,0
197839,-133.333333333333,4,2,1,50,0,0
200607,-133.333333333333,4,2,1,5,0,0
200696,-133.333333333333,4,2,1,50,0,0
212125,-117.647058823529,4,2,1,50,0,0
214268,-500,4,2,1,70,0,0
214804,-500,4,2,1,30,0,0
214982,-76.9230769230769,4,2,1,85,0,0
237839,-71.4285714285714,4,2,1,85,0,0
249268,-66.6666666666667,4,2,1,90,0,1
249625,-71.4285714285714,4,2,1,90,0,1
260607,-71.4285714285714,4,2,1,90,0,0
261054,-71.4285714285714,4,2,1,60,0,0
261232,-200,4,2,1,69,0,0
261321,-200,4,2,1,5,0,0

[Colours]
Combo1 : 191,162,210
Combo2 : 11,200,181
Combo3 : 243,139,199

[HitObjects]
158,38,518,5,0,3:0:0:0:
163,54,607,1,0,3:0:0:0:
168,70,697,6,0,B|251:78|210:107|311:128,1,136,2|0,3:2|0:0,0:0:0:0:
371,67,1232,1,0,3:0:0:0:
367,58,1589,1,0,0:0:0:0:
460,135,1768,6,0,P|463:201|421:252,1,136,2|0,3:2|0:0,0:0:0:0:
390,334,2304,2,0,P|323:337|272:295,1,136,0|0,3:2|0:0,0:0:0:0:
258,202,2839,5,2,3:2:0:0:
260,212,3018,1,0,0:0:0:0:
167,291,3196,1,2,3:2:0:0:
165,281,3375,1,0,0:0:0:0:
40,226,3554,6,0,B|112:196|77:166|157:143,1,136,2|0,3:2|0:0,0:0:0:0:
204,76,4089,1,0,3:0:0:0:
194,70,4446,1,0,0:0:0:0:
265,132,4625,6,0,B|337:107|310:82|389:59,1,136,2|0,3:2|0:0,0:0:0:0:
442,0,5161,2,0,B|467:72|492:45|515:124,1,136,0|0,3:0|0:0,0:0:0:0:
426,195,5696,6,0,B|417:208|417:208|434:277,1,85,2|0,3:0|0:0,0:0:0:0:
340,342,6232,1,2,0:0:0:0:
340,342,6321,1,2,0:0:0:0:
340,342,6411,1,2,3:2:0:0:
250,298,6589,1,2,0:0:0:0:
180,367,6768,2,0,P|142:369|113:349,1,68,2|2,0:0|3:2,0:0:0:0:
117,353,7125,1,2,0:0:0:0:
39,278,7304,2,0,P|55:252|52:211,1,68,2|0,0:0|3:0,0:0:0:0:
53,215,7661,1,2,0:0:0:0:
24,101,7839,6,0,P|38:105|88:126,1,68,2|2,0:0|3:2,0:0:0:0:
161,180,8196,2,0,P|191:165|224:155,1,68,2|2,0:0|0:0,0:0:0:0:
271,88,8554,1,2,3:2:0:0:
281,93,8732,1,2,0:0:0:0:
352,51,8911,1,2,3:2:0:0:
448,97,9089,1,2,0:0:0:0:
471,232,9268,5,2,3:0:0:0:
256,192,9357,12,0,10696,0:0:0:0:
345,351,10875,6,0,L|204:309,1,136,12|4,3:0|3:0,0:0:0:0:
64,144,11411,6,0,L|75:197,1,50.9999984436036,8|0,3:0|0:0,0:0:0:0:
141,243,11768,6,0,L|130:296,1,42.5,4|2,3:0|0:0,0:0:0:0:
168,104,12125,5,6,3:2:0:0:
168,104,12304,1,2,0:0:0:0:
227,163,12482,2,0,B|290:145|262:120|346:97,1,136,2|2,3:2|3:2,0:0:0:0:
376,24,13018,1,2,0:0:0:0:
376,24,13196,2,0,P|355:58|361:90,1,68,2|2,3:2|0:0,0:0:0:0:
471,154,13554,5,2,3:2:0:0:
405,203,13732,2,0,B|427:273|382:267|401:347,1,136,2|2,0:0|0:0,0:0:0:0:
398,336,14268,1,0,3:0:0:0:
116,379,14804,1,2,0:0:0:0:
189,307,14982,6,0,P|177:286|171:241,1,68,2|2,3:2|0:0,0:0:0:0:
224,160,15339,2,0,B|146:173|174:126|79:150,1,136,2|2,3:2|3:2,0:0:0:0:
80,138,15875,1,2,0:0:0:0:
2,75,16054,1,2,3:2:0:0:
16,67,16232,1,2,0:0:0:0:
117,6,16411,5,2,3:2:0:0:
179,59,16589,2,0,P|209:46|252:31,1,68,2|0,0:0|3:0,0:0:0:0:
242,34,16946,1,2,0:0:0:0:
348,12,17125,2,0,P|291:48|272:111,1,136,2|0,3:2|3:0,0:0:0:0:
329,166,17661,1,2,0:0:0:0:
295,333,17839,5,2,3:2:0:0:
251,263,18018,1,2,0:0:0:0:
307,346,18196,2,0,B|374:325|354:293|433:280,1,136,2|2,3:2|3:2,0:0:0:0:
469,215,18732,1,2,0:0:0:0:
469,215,18911,2,0,P|442:189|442:154,1,68,2|2,3:2|0:0,0:0:0:0:
498,48,19268,1,2,3:2:0:0:
418,77,19446,2,0,P|365:62|282:37,1,136,2|2,0:0|0:0,0:0:0:0:
63,59,19982,6,0,B|33:44|62:0|144:30|95:75|181:89,1,165.749992412568,2|2,3:0|0:0,0:0:0:0:
0,161,20696,6,0,P|53:145|84:139,1,68,2|0,3:2|0:0,0:0:0:0:
136,176,21054,1,2,3:2:0:0:
23,334,21411,6,0,P|33:285|42:258,1,68,2|0,3:2|0:0,0:0:0:0:
123,195,21769,1,2,3:2:0:0:
218,384,22125,6,0,P|183:352|165:331,1,68,2|0,3:2|0:0,0:0:0:0:
138,208,22483,1,2,3:2:0:0:
313,352,22839,5,4,1:3:0:0:
313,352,23375,6,0,L|322:311,1,34,2|2,0:0|0:0,0:0:0:0:
422,168,23554,5,6,1:2:0:0:
357,213,23732,1,2,0:0:0:0:
270,146,23911,2,0,P|229:136|175:119,1,85,2|2,1:2|0:0,0:0:0:0:
342,114,24268,2,0,B|250:147|303:178|211:229,1,170,2|2,1:2|1:2,0:0:0:0:
218,224,24804,1,2,0:0:0:0:
74,297,24982,1,2,1:2:0:0:
87,306,25161,2,0,P|115:271|108:225,1,85,2|0,0:0|1:0,0:0:0:0:
26,127,25518,1,2,0:0:0:0:
26,127,25607,1,2,0:0:0:0:
26,127,25696,2,0,B|86:145|86:145|108:133,1,85,0|0,1:0|3:0,0:0:0:0:
121,35,26054,2,0,B|181:17|181:17|203:29,1,85,0|2,1:0|3:2,0:0:0:0:
347,161,26411,5,2,1:2:0:0:
301,96,26589,1,2,0:0:0:0:
373,19,26768,2,0,P|424:31|461:38,1,85,2|2,1:2|0:0,0:0:0:0:
356,171,27125,2,0,P|397:162|439:152,1,85,2|2,1:2|0:0,0:0:0:0:
288,86,27482,1,2,1:2:0:0:
224,159,27661,1,2,0:0:0:0:
268,275,27839,1,2,1:2:0:0:
259,284,28018,2,0,P|209:271|172:265,1,85,2|0,0:0|1:0,0:0:0:0:
59,358,28375,1,2,0:0:0:0:
59,358,28464,1,2,0:0:0:0:
59,358,28554,2,0,B|51:326|51:326|55:314|55:314|47:275,1,85,0|0,1:0|3:0,0:0:0:0:
247,366,28911,2,0,B|255:334|255:334|251:322|251:322|259:283,1,85,0|2,1:0|3:2,0:0:0:0:
119,141,29268,5,2,1:2:0:0:
196,108,29446,1,2,0:0:0:0:
284,196,29625,2,0,P|295:145|299:108,1,85,2|2,1:2|0:0,0:0:0:0:
410,136,29982,2,0,P|399:187|395:224,1,85,2|2,1:2|0:0,0:0:0:0:
182,192,30339,1,2,1:2:0:0:
196,108,30518,1,2,0:0:0:0:
167,288,30696,1,2,1:2:0:0:
167,288,30875,2,0,P|119:308|113:348,1,85,2|0,0:0|1:0,0:0:0:0:
251,374,31232,1,2,0:0:0:0:
251,374,31321,1,2,0:0:0:0:
251,374,31411,2,0,B|321:348|292:315|393:278,1,170,2|0,1:2|1:0,0:0:0:0:
399,291,31946,1,2,0:0:0:0:
483,167,32125,6,0,P|431:137|359:108,1,127.5,2|0,1:2|0:0,0:0:0:0:
361,94,32482,2,0,P|307:112|277:130,1,85,2|0,1:2|0:0,0:0:0:0:
210,2,32839,6,0,P|179:54|151:126,1,127.5,2|0,1:2|0:0,0:0:0:0:
136,123,33196,2,0,P|153:176|171:206,1,85,2|0,1:2|0:0,0:0:0:0:
99,288,33554,6,0,P|151:318|223:347,1,127.5,2|0,1:2|0:0,0:0:0:0:
220,362,33911,2,0,P|273:344|304:326,1,85,2|0,1:2|0:0,0:0:0:0:
428,241,34268,6,0,L|419:290,1,42.5,2|0,3:0|0:0,0:0:0:0:
416,312,34446,1,0,1:0:0:0:
451,132,34625,1,8,0:0:0:0:
432,226,34804,1,2,1:2:0:0:
468,19,34982,6,0,B|396:27|410:56|350:70,1,127.500004863739,6|0,1:2|3:0,0:0:0:0:
304,138,35518,1,2,1:2:0:0:
132,12,35696,2,0,B|142:28|142:28|119:151,1,127.500004863739,10|0,0:0|3:0,0:0:0:0:
57,180,36232,1,2,1:2:0:0:
111,322,36411,6,0,L|103:253,1,63.7500024318696,2|0,0:0|1:0,0:0:0:0:
265,351,36768,1,2,1:2:0:0:
280,268,36946,1,2,3:0:0:0:
97,344,37125,1,10,0:0:0:0:
188,319,37304,2,0,L|180:388,1,63.7500024318696,2|0,0:0|0:0,0:0:0:0:
158,193,37661,1,2,0:0:0:0:
158,193,37750,1,2,0:0:0:0:
158,193,37839,6,0,B|227:170|200:148|276:129,1,127.500004863739,2|0,1:2|3:0,0:0:0:0:
315,57,38375,1,2,1:2:0:0:
456,159,38554,2,0,B|475:70|475:70|448:36,1,127.500004863739,10|0,0:0|3:0,0:0:0:0:
380,0,39089,1,2,1:2:0:0:
282,193,39268,6,0,L|266:123,1,63.7500024318696,2|8,0:0|0:0,0:0:0:0:
392,224,39625,1,2,1:2:0:0:
388,234,39804,1,0,0:0:0:0:
195,182,39982,1,8,0:0:0:0:
199,192,40161,2,0,P|134:210|76:236,1,127.500004863739,2|2,0:0|0:0,0:0:0:0:
6,84,40696,6,0,B|12:96|28:100|28:100|78:59|144:62,1,144.500002756119,6|0,1:2|3:0,0:0:0:0:
144,74,41232,1,2,1:2:0:0:
307,28,41411,1,10,0:0:0:0:
299,37,41946,2,0,L|262:27,1,36.1250006890297,2|0,0:0|0:0,0:0:0:0:
435,11,42125,6,0,B|404:52|417:110|417:110|439:127|449:161,1,161.499995687485,6|0,1:2|3:0,0:0:0:0:
437,171,42661,1,2,1:2:0:0:
481,353,42839,1,10,0:0:0:0:
486,341,43196,1,0,3:0:0:0:
416,300,43375,1,2,0:0:0:0:
258,376,43554,6,0,B|210:358|210:358|190:331|190:331|144:311,1,133.874995914459,6|0,1:2|0:0,0:0:0:0:
120,329,43911,1,8,3:0:0:0:
301,264,44089,1,8,3:0:0:0:
188,206,44268,1,4,3:0:0:0:
193,218,44446,1,4,3:0:0:0:
140,62,44625,6,0,B|71:75|111:193|241:130|185:72|304:74,1,267.749991828919,12|0,0:0|1:0,0:0:0:0:
469,148,45339,1,8,0:0:0:0:
461,160,45696,5,4,3:0:0:0:
467,204,45785,1,4,3:0:0:0:
474,248,45874,1,8,3:0:0:0:
481,292,45963,1,8,3:0:0:0:
487,336,46053,1,8,0:0:0:0:
352,370,46232,1,0,1:0:0:0:
243,183,46411,6,0,B|170:210|206:241|122:283,1,152.999995330811,6|0,1:2|0:0,0:0:0:0:
112,311,46768,2,0,P|56:287|51:243,1,101.999996887207,10|0,0:0|0:0,0:0:0:0:
86,78,47125,1,2,1:2:0:0:
152,119,47304,1,2,1:2:0:0:
251,45,47482,1,10,0:0:0:0:
331,124,47661,1,2,0:0:0:0:
316,117,47750,1,2,0:0:0:0:
302,110,47839,5,2,1:2:0:0:
407,27,48018,2,0,P|414:65|434:130,1,101.999996887207,2|8,0:0|0:0,0:0:0:0:
401,285,48375,1,2,0:0:0:0:
488,217,48554,1,0,1:2:0:0:
473,212,48732,1,2,1:2:0:0:
257,164,48911,1,10,0:0:0:0:
264,201,49000,1,0,3:0:0:0:
271,239,49089,1,0,3:0:0:0:
278,276,49178,1,0,3:0:0:0:
285,314,49268,6,0,P|218:333|181:346,1,101.999996887207,0|0,1:0|0:0,0:0:0:0:
36,225,49625,2,0,P|103:206|140:193,1,101.999996887207,10|0,0:0|0:0,0:0:0:0:
224,37,49982,1,2,1:2:0:0:
149,74,50161,1,2,1:2:0:0:
4,20,50339,1,10,0:0:0:0:
42,127,50518,1,2,0:0:0:0:
48,113,50607,1,2,0:0:0:0:
54,99,50696,5,2,1:2:0:0:
133,195,50875,2,0,P|183:204|248:220,1,101.999996887207,2|8,0:0|0:0,0:0:0:0:
309,311,51232,1,2,0:0:0:0:
309,311,51321,1,2,0:0:0:0:
309,311,51411,6,0,B|258:324|279:347|224:369,2,101.999996887207,0|0|8,1:0|1:0|0:0,0:0:0:0:
452,164,51946,1,8,0:0:0:0:
439,203,52036,1,8,0:0:0:0:
427,241,52125,6,0,P|365:219|341:131,1,152.999995330811,4|0,1:2|0:0,0:0:0:0:
347,131,52482,2,0,P|290:119|237:99,1,101.999996887207,10|0,0:0|0:0,0:0:0:0:
159,19,52839,1,2,1:2:0:0:
90,63,53018,1,2,1:2:0:0:
58,187,53196,1,10,0:0:0:0:
70,199,53375,2,0,P|124:171|132:129,1,101.999996887207,2|0,0:0|1:0,0:0:0:0:
90,63,53732,1,2,0:0:0:0:
165,281,53911,5,10,0:0:0:0:
97,332,54089,2,0,B|48:310|72:293|11:274,1,101.999996887207,0|2,1:0|0:0,0:0:0:0:
105,346,54446,1,0,1:0:0:0:
186,160,54625,1,10,0:0:0:0:
279,233,54804,1,0,1:0:0:0:
279,233,54893,1,8,0:0:0:0:
279,233,54982,6,0,P|327:192|354:51,1,203.999993774414,6|8,1:2|0:0,0:0:0:0:
240,11,55518,1,2,0:0:0:0:
76,117,55696,2,0,P|143:141|186:150,1,101.999996887207,6|0,1:2|1:0,0:0:0:0:
124,298,56054,2,0,P|76:279|27:267,1,101.999996887207,8|2,0:0|0:0,0:0:0:0:
151,47,56411,6,0,P|181:115|250:156,1,152.999995330811,6|0,1:2|0:0,0:0:0:0:
279,233,56768,2,0,P|320:201|380:190,1,101.999996887207,8|0,0:0|1:0,0:0:0:0:
440,239,57125,1,0,1:0:0:0:
474,48,57304,5,8,0:0:0:0:
438,35,57393,1,8,0:0:0:0:
401,42,57482,1,8,0:0:0:0:
371,66,57571,1,8,0:0:0:0:
341,89,57661,1,8,0:0:0:0:
304,97,57750,1,8,0:0:0:0:
268,85,57839,6,0,B|213:103|213:103|188:132|188:132|128:152,1,152.999995330811,4|0,1:2|0:0,0:0:0:0:
65,108,58196,2,0,P|62:58|115:36,1,101.999996887207,10|0,0:0|0:0,0:0:0:0:
224,208,58554,1,2,1:2:0:0:
154,254,58732,1,2,1:2:0:0:
0,189,58911,1,10,0:0:0:0:
89,181,59089,1,2,0:0:0:0:
85,195,59179,1,2,0:0:0:0:
81,209,59268,5,2,1:2:0:0:
126,339,59446,1,2,0:0:0:0:
234,376,59625,2,0,P|287:361|334:341,1,101.999996887207,10|0,0:0|1:0,0:0:0:0:
384,199,59982,1,2,0:0:0:0:
381,210,60161,1,0,1:0:0:0:
422,93,60339,1,8,0:0:0:0:
378,102,60429,1,8,3:0:0:0:
335,114,60517,1,4,3:0:0:0:
292,125,60606,1,4,3:0:0:0:
249,136,60696,6,0,P|204:96|239:16,1,152.999995330811,0|0,1:0|0:0,0:0:0:0:
254,3,61054,2,0,L|363:26,1,101.999996887207,10|0,0:0|0:0,0:0:0:0:
453,114,61411,1,2,1:2:0:0:
415,183,61589,1,2,1:2:0:0:
479,331,61768,1,10,0:0:0:0:
394,280,61946,1,2,0:0:0:0:
389,294,62036,1,2,0:0:0:0:
385,308,62125,6,0,P|322:329|286:343,1,101.999996887207,2|2,1:2|0:0,0:0:0:0:
129,253,62482,1,10,0:0:0:0:
206,295,62661,2,0,P|232:262|228:202,1,101.999996887207,0|0,1:0|0:0,0:0:0:0:
166,151,63018,1,0,1:0:0:0:
330,30,63196,2,0,P|277:63|234:71,1,101.999996887207,8|2,0:0|0:0,0:0:0:0:
8,188,63554,6,0,B|-28:160|21:134|113:153|41:224|136:247,1,203.999993774414,6|8,1:2|0:0,0:0:0:0:
175,147,64089,1,2,0:0:0:0:
292,290,64268,2,0,P|350:268|395:254,1,101.999996887207,2|0,1:2|1:0,0:0:0:0:
429,185,64625,1,8,0:0:0:0:
282,305,64804,2,0,L|228:285,1,50.9999984436036,2|0,3:0|0:0,0:0:0:0:
340,371,64982,6,0,P|317:318|272:175,1,203.999993774414,6|8,1:2|0:0,0:0:0:0:
370,100,65518,1,2,0:0:0:0:
232,9,65696,2,0,B|180:31|202:44|146:75,1,101.999996887207,2|0,1:2|1:0,0:0:0:0:
18,18,66054,1,8,0:0:0:0:
1,158,66232,1,2,0:0:0:0:
5,172,66321,1,2,0:0:0:0:
9,186,66411,6,0,B|66:208|66:208|81:232|81:232|144:255,1,152.999995330811,6|0,1:2|0:0,0:0:0:0:
156,274,66768,2,0,L|258:246,1,101.999996887207,10|0,0:0|1:0,0:0:0:0:
266,102,67125,1,6,1:2:0:0:
344,83,67304,1,0,1:2:0:0:
440,288,67482,1,10,0:0:0:0:
469,139,67661,1,2,0:0:0:0:
462,152,67750,1,2,0:0:0:0:
455,165,67839,6,0,P|422:118|425:73,1,101.999996887207,6|0,1:2|0:0,0:0:0:0:
440,288,68196,2,0,P|393:321|348:318,1,101.999996887207,10|0,0:0|1:0,0:0:0:0:
150,274,68554,2,0,B|210:296|179:315|235:341,1,101.999996887207,6|8,1:2|3:0,0:0:0:0:
266,102,68911,1,8,0:0:0:0:
259,142,69000,1,8,0:0:0:0:
253,182,69089,1,0,1:0:0:0:
276,6,69268,6,0,B|176:36|214:62|117:100,1,165.749992412568,6|0,1:2|0:0,0:0:0:0:
81,146,69625,2,0,P|50:139|36:67,1,110.499994941712,10|0,0:0|0:0,0:0:0:0:
173,187,69982,1,2,1:2:0:0:
168,199,70161,1,0,1:0:0:0:
126,346,70339,1,8,0:0:0:0:
58,281,70518,1,2,0:0:0:0:
58,281,70607,1,2,0:0:0:0:
58,281,70696,6,0,B|89:299|108:329|108:329|162:284|250:267,1,220.999989883423,2|8,1:2|0:0,0:0:0:0:
255,277,71232,1,0,1:0:0:0:
387,359,71411,2,0,P|349:320|355:261,1,110.499994941712,2|2,0:0|1:2,0:0:0:0:
505,157,71768,1,10,0:0:0:0:
495,174,71946,1,0,1:0:0:0:
417,40,72125,6,0,B|329:14|347:74|247:49,1,165.749992412568,4|0,1:2|0:0,0:0:0:0:
190,2,72482,2,0,B|147:18|147:18|135:32|135:32|93:50,1,110.499994941712,10|0,0:0|0:0,0:0:0:0:
21,201,72839,1,2,1:2:0:0:
85,155,73018,1,0,1:0:0:0:
217,222,73196,1,8,0:0:0:0:
208,208,73554,5,6,1:2:0:0:
1,300,73732,1,2,1:2:0:0:
160,101,73911,1,10,0:0:0:0:
112,336,74089,1,8,3:0:0:0:
104,303,74179,1,8,3:0:0:0:
96,270,74268,1,8,3:0:0:0:
292,375,74446,2,0,B|235:353|264:324|194:301,2,110.499994941712,4|4|4,3:0|3:0|3:0,0:0:0:0:
459,294,74982,6,0,B|412:280|387:243|387:243|451:209|469:162|469:162|416:104|416:38|416:38,2,340,4|0|2,0:0|0:0|0:0,0:0:0:0:
459,294,78732,1,2,0:0:0:0:
381,346,78911,1,2,0:0:0:0:
370,339,79089,1,2,0:0:0:0:
268,238,79268,6,0,P|261:196|285:157,1,85,2|0,0:0|0:0,0:0:0:0:
338,38,79804,2,0,P|358:75|351:116,1,85,2|0,0:0|0:0,0:0:0:0:
281,160,80339,1,2,0:0:0:0:
156,131,80518,1,2,0:0:0:0:
183,120,80607,1,2,0:0:0:0:
210,110,80696,6,0,B|155:82|187:62|122:39,1,110.499994941712,2|2,0:0|0:0,0:0:0:0:
59,5,81232,1,2,0:0:0:0:
4,96,81411,2,0,P|13:132|15:156,1,55.2499974708558,2|0,0:0|0:0,0:0:0:0:
95,211,81768,1,2,0:0:0:0:
99,202,81946,1,2,0:0:0:0:
15,280,82125,1,2,0:0:0:0:
63,351,82304,1,2,0:0:0:0:
63,351,82393,1,2,0:0:0:0:
63,351,82482,2,0,P|100:347|127:335,1,55.2499974708558,2|2,0:0|0:0,0:0:0:0:
201,255,82839,2,0,P|253:284|312:301,1,110.499994941712,2|2,0:0|0:0,0:0:0:0:
362,237,83375,1,2,0:0:0:0:
357,221,83464,1,2,0:0:0:0:
352,205,83554,2,0,P|364:161|374:91,1,110.499994941712,2|2,0:0|0:0,0:0:0:0:
485,26,84089,2,0,P|455:44|434:52,1,55.2499974708558,2|0,0:0|0:0,0:0:0:0:
436,51,84446,1,2,0:0:0:0:
195,94,84625,6,0,B|184:11|302:-4|322:86|314:158|254:232|169:173|106:212|99:287,1,441.999979766847,2|0,3:0|3:0,0:0:0:0:
112,295,86232,1,0,3:0:0:0:
333,216,86411,6,0,L|311:323,1,102,4|0,3:0|0:0,0:0:0:0:
308,330,86768,6,0,P|366:313|445:297,1,136,2|2,0:0|0:0,0:0:0:0:
492,224,87304,1,2,0:0:0:0:
486,207,87482,1,2,0:0:0:0:
495,78,87661,2,0,B|419:96|460:123|374:153,2,136,2|2|2,0:0|0:0|0:0,0:0:0:0:
354,13,88554,6,0,L|364:53,1,34,2|0,3:0|0:0,0:0:0:0:
249,43,88732,6,0,L|277:72,1,34,2|0,3:0|0:0,0:0:0:0:
184,148,88911,6,0,L|263:170,1,68,2|0,3:0|0:0,0:0:0:0:
426,260,89268,6,0,B|375:281|400:294|341:325,1,102,4|0,3:0|0:0,0:0:0:0:
333,313,89625,6,0,P|264:301|189:279,1,136,2|2,0:0|0:0,0:0:0:0:
116,340,90161,1,2,0:0:0:0:
105,344,90339,1,2,0:0:0:0:
55,175,90518,2,0,P|12:212|27:295,2,136,2|2|2,0:0|0:0|0:0,0:0:0:0:
110,85,91411,6,0,L|143:96,1,34,2|0,3:0|0:0,0:0:0:0:
221,1,91589,6,0,L|229:35,1,34,2|0,3:0|0:0,0:0:0:0:
340,49,91768,6,0,L|289:94,1,68,2|0,3:0|0:0,0:0:0:0:
185,240,92125,6,0,L|289:265,1,102,4|0,3:0|0:0,0:0:0:0:
348,317,92482,6,0,P|385:287|386:203,1,136,2|2,0:0|0:0,0:0:0:0:
374,189,93018,1,2,0:0:0:0:
423,120,93196,1,2,0:0:0:0:
420,109,93286,1,2,0:0:0:0:
417,99,93375,2,0,L|347:80,1,68,2|0,0:0|0:0,0:0:0:0:
267,8,93732,2,0,L|197:27,1,68,2|0,0:0|0:0,0:0:0:0:
118,110,94089,1,2,0:0:0:0:
115,101,94446,1,2,0:0:0:0:
137,188,94804,1,0,3:0:0:0:
62,342,94982,5,2,3:2:0:0:
49,355,95161,2,0,P|15:330|12:298,1,68,2|0,0:0|0:0,0:0:0:0:
217,346,95518,5,2,3:2:0:0:
246,374,95697,2,0,P|280:349|283:317,1,68,2|0,0:0|0:0,0:0:0:0:
163,106,96054,6,0,P|186:174|225:243,1,136,2|0,3:2|0:0,0:0:0:0:
374,188,96589,5,8,3:0:0:0:
330,100,96768,1,4,3:0:0:0:
327,112,96946,1,4,3:0:0:0:
385,281,97125,5,8,0:0:0:0:
294,31,97304,1,8,0:0:0:0:
294,31,97839,6,0,P|254:42|205:50,1,85,6|2,1:2|0:0,0:0:0:0:
121,9,98196,2,0,P|103:92|71:170,1,170,2|2,1:2|1:2,0:0:0:0:
53,278,98732,1,2,3:2:0:0:
44,286,98911,2,0,P|9:263|17:220,1,85,2|2,1:2|3:2,0:0:0:0:
124,331,99268,1,2,1:2:0:0:
171,271,99446,2,0,B|267:247|240:316|342:300,1,170,2|2,0:0|0:0,0:0:0:0:
460,201,99982,2,0,L|437:291,1,85,2|0,1:2|3:0,0:0:0:0:
290,134,100339,2,0,L|313:224,1,85,0|2,1:0|3:2,0:0:0:0:
429,83,100696,5,2,1:2:0:0:
417,88,100875,1,2,0:0:0:0:
348,31,101054,2,0,B|254:12|282:62|179:50,1,170,2|2,1:2|1:2,0:0:0:0:
103,8,101589,1,2,3:2:0:0:
15,104,101768,2,0,P|27:51|28:14,1,85,2|2,1:2|3:2,0:0:0:0:
181,125,102125,1,2,1:2:0:0:
109,178,102304,2,0,P|97:125|96:88,1,85,2|0,0:0|1:0,0:0:0:0:
224,24,102661,1,2,0:0:0:0:
224,24,102750,1,2,0:0:0:0:
224,24,102839,2,0,L|309:44,1,85,0|0,1:0|3:0,0:0:0:0:
410,72,103196,1,0,1:0:0:0:
408,84,103286,1,0,3:0:0:0:
406,96,103375,1,0,3:0:0:0:
404,108,103464,1,0,3:0:0:0:
402,120,103554,6,0,P|412:161|420:207,1,85,2|2,1:2|0:0,0:0:0:0:
309,222,103911,2,0,P|299:181|291:135,1,85,2|0,1:2|0:0,0:0:0:0:
494,205,104268,2,0,B|408:238|459:284|368:320,1,170,2|2,1:2|1:2,0:0:0:0:
364,332,104804,1,2,3:2:0:0:
210,344,104982,1,2,1:2:0:0:
223,356,105161,2,0,P|250:321|244:280,1,85,2|0,3:2|1:0,0:0:0:0:
119,219,105518,1,2,0:0:0:0:
124,230,105607,1,2,0:0:0:0:
128,241,105696,2,0,L|148:154,1,85,0|0,1:0|3:0,0:0:0:0:
139,147,105964,1,0,3:0:0:0:
131,136,106054,2,0,L|218:116,1,85,0|2,1:0|3:2,0:0:0:0:
417,70,106411,6,0,L|328:48,1,85,2|0,1:2|0:0,0:0:0:0:
258,32,106768,1,2,1:2:0:0:
289,181,106946,1,0,3:0:0:0:
286,168,107036,1,0,3:0:0:0:
283,155,107125,2,0,L|372:177,1,85,2|0,1:2|3:0,0:0:0:0:
440,197,107482,1,2,1:2:0:0:
452,201,107661,1,0,3:0:0:0:
334,49,107839,6,0,B|244:76|296:122|195:157,1,170,2|2,1:2|1:2,0:0:0:0:
96,138,108375,1,0,3:0:0:0:
33,311,108554,1,2,1:2:0:0:
25,269,108643,1,2,0:0:0:0:
18,227,108732,1,10,0:0:0:0:
134,297,108911,1,8,0:0:0:0:
253,224,109089,1,8,0:0:0:0:
396,362,109268,6,0,P|383:318|377:261,1,93.5000028533936,6|2,1:2|0:0,0:0:0:0:
487,127,109625,1,10,0:0:0:0:
416,168,109804,1,2,0:0:0:0:
333,104,109982,2,0,P|333:52|361:10,1,93.5000028533936,2|2,1:2|1:2,0:0:0:0:
487,127,110339,1,10,0:0:0:0:
348,229,110518,1,2,0:0:0:0:
336,221,110607,1,2,0:0:0:0:
324,213,110696,1,2,1:2:0:0:
245,133,110875,2,0,P|191:149|139:172,1,93.5000028533936,2|8,0:0|0:0,0:0:0:0:
75,280,111232,1,2,0:0:0:0:
64,293,111411,2,0,P|35:266|46:200,1,93.5000028533936,0|0,1:0|1:0,0:0:0:0:
121,70,111768,1,8,0:0:0:0:
28,99,111946,1,2,0:0:0:0:
33,112,112036,1,2,0:0:0:0:
37,125,112125,6,0,P|83:142|128:165,1,93.5000028533936,2|2,1:2|0:0,0:0:0:0:
213,283,112482,2,0,P|254:262|298:246,1,93.5000028533936,10|2,0:0|0:0,0:0:0:0:
419,113,112839,2,0,P|393:151|363:187,1,93.5000028533936,2|0,1:2|1:0,0:0:0:0:
245,56,113196,1,10,0:0:0:0:
291,130,113375,1,2,0:0:0:0:
299,118,113464,1,2,0:0:0:0:
307,106,113554,1,2,1:2:0:0:
149,44,113732,2,0,P|166:78|183:136,1,93.5000028533936,2|8,0:0|0:0,0:0:0:0:
109,264,114089,1,2,0:0:0:0:
98,253,114268,2,0,L|194:227,1,93.5000028533936,0|0,1:0|3:0,0:0:0:0:
283,341,114625,2,0,L|379:315,1,93.5000028533936,8|2,0:0|3:2,0:0:0:0:
469,202,114982,5,2,1:2:0:0:
466,213,115161,1,2,0:0:0:0:
301,152,115339,1,10,0:0:0:0:
304,163,115518,1,2,0:0:0:0:
490,45,115696,1,2,1:2:0:0:
427,111,115875,2,0,P|380:101|337:80,1,93.5000028533936,2|8,1:2|0:0,0:0:0:0:
303,13,116232,1,2,0:0:0:0:
166,152,116411,1,2,1:2:0:0:
100,101,116589,2,0,P|62:118|8:132,1,93.5000028533936,2|8,0:0|0:0,0:0:0:0:
148,27,116946,1,2,0:0:0:0:
160,33,117036,1,2,0:0:0:0:
172,39,117125,2,0,P|187:109|197:137,1,93.5000028533936,2|0,1:2|1:0,0:0:0:0:
303,265,117482,2,0,P|288:195|278:167,1,93.5000028533936,8|2,0:0|0:0,0:0:0:0:
29,320,117839,6,0,P|94:339|172:352,1,140.25000428009,2|0,1:2|0:0,0:0:0:0:
180,370,118196,2,0,P|238:344|281:334,1,93.5000028533936,10|0,0:0|1:0,0:0:0:0:
431,224,118554,6,0,P|366:205|288:192,1,140.25000428009,2|0,1:2|0:0,0:0:0:0:
280,174,118911,2,0,P|222:200|179:210,1,93.5000028533936,10|0,0:0|1:0,0:0:0:0:
46,85,119268,5,2,1:2:0:0:
59,94,119446,1,0,1:0:0:0:
252,36,119625,1,10,0:0:0:0:
136,1,119804,1,8,0:0:0:0:
145,41,119893,1,8,0:0:0:0:
154,81,119982,1,8,0:0:0:0:
196,252,120161,5,8,3:0:0:0:
176,169,120339,1,8,3:0:0:0:
173,158,120518,1,4,3:0:0:0:
88,294,120696,6,0,B|159:311|120:344|200:374,1,127.500004863739,6|0,1:2|3:0,0:0:0:0:
254,328,121232,1,2,1:2:0:0:
386,380,121411,2,0,B|372:359|372:359|394:250,1,127.500004863739,10|0,0:0|3:0,0:0:0:0:
452,205,121946,1,2,1:2:0:0:
382,64,122125,6,0,P|395:107|399:129,1,63.7500024318696,2|8,0:0|0:0,0:0:0:0:
459,41,122482,2,0,P|359:12|314:-11,1,127.500004863739,2|10,1:2|0:0,0:0:0:0:
259,100,123018,2,0,P|200:124|138:139,1,127.500004863739,2|2,1:2|0:0,0:0:0:0:
128,130,123464,1,2,0:0:0:0:
118,121,123554,6,0,P|70:160|82:222,1,127.500004863739,2|0,1:2|3:0,0:0:0:0:
140,264,124089,1,2,1:2:0:0:
352,159,124268,2,0,B|282:184|324:214|244:250,1,127.500004863739,10|0,0:0|3:0,0:0:0:0:
193,192,124804,1,2,1:2:0:0:
126,286,124982,6,0,P|138:330|143:356,1,63.7500024318696,2|8,0:0|0:0,0:0:0:0:
336,238,125339,2,0,P|312:326|302:378,1,127.500004863739,2|10,1:2|0:0,0:0:0:0:
118,277,125875,1,8,3:0:0:0:
218,298,126054,1,8,3:0:0:0:
205,295,126232,1,4,3:0:0:0:
16,139,126411,6,0,B|61:124|61:124|103:133|103:133|156:115,1,144.500002756119,6|0,1:2|3:0,0:0:0:0:
220,31,126946,1,2,1:2:0:0:
228,38,127036,1,2,0:0:0:0:
235,45,127125,2,0,P|302:24|383:9,1,144.500002756119,10|0,0:0|3:0,0:0:0:0:
451,59,127661,1,2,0:0:0:0:
478,205,127839,6,0,P|437:188|392:174,1,80.7499978437424,6|8,1:2|0:0,0:0:0:0:
390,191,128196,1,0,3:0:0:0:
221,137,128375,1,2,1:2:0:0:
224,148,128464,1,2,0:0:0:0:
227,159,128554,1,10,0:0:0:0:
190,230,128732,2,0,P|150:240|111:258,1,80.7499978437424,0|0,1:2|0:0,0:0:0:0:
68,379,129089,1,10,0:0:0:0:
0,153,129268,6,0,B|73:175|46:216|105:242,1,133.874995914459,6|0,1:2|0:0,0:0:0:0:
114,256,129625,1,8,3:0:0:0:
221,137,129804,1,8,3:0:0:0:
147,62,129982,1,4,3:0:0:0:
150,73,130161,1,4,3:0:0:0:
263,303,130339,6,0,P|318:265|335:146,1,178.499994552612,14|0,0:0|0:0,0:0:0:0:
339,160,130875,1,0,1:0:0:0:
150,73,131054,1,8,0:0:0:0:
256,27,131232,1,4,3:0:0:0:
256,27,131321,1,4,3:0:0:0:
256,27,131411,5,2,1:2:0:0:
264,45,131500,1,2,1:2:0:0:
267,67,131589,1,2,1:2:0:0:
264,89,131678,1,2,1:2:0:0:
251,111,131768,1,10,0:0:0:0:
230,133,131857,1,10,0:0:0:0:
206,161,131946,1,10,0:0:0:0:
198,196,132035,1,10,0:0:0:0:
212,237,132125,6,0,L|375:267,1,159.375,6|0,1:2|0:0,0:0:0:0:
390,283,132482,2,0,P|429:263|434:201,1,106.25,10|0,0:0|0:0,0:0:0:0:
341,47,132839,1,2,1:2:0:0:
344,149,133018,2,0,P|398:130|452:111,1,106.25,2|8,1:2|0:0,0:0:0:0:
286,231,133375,6,0,B|205:207|247:174|142:144,1,159.375,2|0,1:2|0:0,0:0:0:0:
135,127,133732,1,2,1:2:0:0:
95,284,133911,1,8,0:0:0:0:
11,158,134089,1,2,0:0:0:0:
16,173,134179,1,2,0:0:0:0:
21,187,134268,2,0,P|45:128|45:83,1,106.25,2|2,1:2|1:2,0:0:0:0:
255,160,134625,2,0,B|198:177|225:205|169:235,1,106.25,8|0,0:0|1:2,0:0:0:0:
174,245,134893,1,8,0:0:0:0:
170,260,134982,6,0,P|250:278|287:288,1,106.25,4|0,1:2|0:0,0:0:0:0:
447,176,135339,2,0,P|367:158|330:148,1,106.25,10|0,0:0|0:0,0:0:0:0:
272,48,135696,1,2,1:2:0:0:
208,96,135875,1,2,1:2:0:0:
55,36,136054,1,10,0:0:0:0:
143,9,136232,1,2,0:0:0:0:
140,24,136321,1,2,0:0:0:0:
137,39,136411,5,2,1:2:0:0:
36,132,136589,2,0,P|50:194|59:244,1,106.25,2|8,0:0|0:0,0:0:0:0:
121,282,136946,1,2,1:2:0:0:
239,196,137125,1,0,0:0:0:0:
229,192,137304,1,0,1:0:0:0:
121,282,137482,2,0,P|164:272|188:256,1,53.125,8|0,0:0|0:0,0:0:0:0:
244,107,137661,1,8,0:0:0:0:
244,107,137750,1,8,0:0:0:0:
244,107,137839,6,0,P|298:137|398:142,1,159.375,4|0,1:2|0:0,0:0:0:0:
411,127,138196,2,0,P|384:100|390:31,1,106.25,10|0,0:0|0:0,0:0:0:0:
496,194,138554,1,2,1:2:0:0:
445,263,138732,2,0,P|376:248|341:236,1,106.25,2|8,1:2|0:0,0:0:0:0:
187,54,139089,6,0,P|204:126|230:267,1,212.5,2|2,1:2|1:2,0:0:0:0:
64,342,139625,1,10,0:0:0:0:
70,216,139804,2,0,B|88:277|57:271|76:336,1,106.25,0|2,1:0|0:0,0:0:0:0:
249,365,140161,1,0,1:0:0:0:
213,250,140339,2,0,L|272:228,1,53.125,10|0,0:0|0:0,0:0:0:0:
363,190,140518,1,8,0:0:0:0:
402,174,140607,1,8,0:0:0:0:
441,161,140696,6,0,P|399:81|276:70,1,212.5,6|8,1:2|0:0,0:0:0:0:
189,7,141232,1,2,0:0:0:0:
73,125,141411,2,0,P|89:180|99:234,1,106.25,6|0,1:2|1:0,0:0:0:0:
225,197,141768,2,0,P|209:142|199:88,1,106.25,8|2,0:0|1:2,0:0:0:0:
2,208,142125,6,0,B|102:225|49:270|144:303,1,159.375,6|0,1:2|0:0,0:0:0:0:
187,352,142482,2,0,L|303:320,1,106.25,8|0,0:0|1:0,0:0:0:0:
453,342,142839,1,8,3:0:0:0:
376,278,143018,1,8,0:0:0:0:
383,238,143107,1,8,0:0:0:0:
390,199,143196,1,8,0:0:0:0:
398,160,143285,1,8,0:0:0:0:
405,121,143375,1,8,0:0:0:0:
463,20,143554,6,0,B|406:45|406:45|386:78|386:78|325:102,1,159.375,6|0,1:2|0:0,0:0:0:0:
316,117,143911,2,0,P|258:99|212:89,1,106.25,10|2,0:0|0:0,0:0:0:0:
61,7,144268,2,0,P|74:66|88:111,1,106.25,2|2,1:2|1:2,3:0:0:0:
101,122,144625,1,10,0:0:0:0:
64,278,144804,1,2,0:0:0:0:
56,263,144893,1,2,0:0:0:0:
49,248,144982,6,0,P|111:266|157:273,1,106.25,2|2,1:2|0:0,0:0:0:0:
298,374,145339,1,8,0:0:0:0:
234,335,145518,2,0,P|286:325|337:310,1,106.25,0|2,1:2|0:0,0:0:0:0:
374,235,145875,1,2,0:0:0:0:
319,82,146054,1,10,0:0:0:0:
250,166,146232,1,0,1:0:0:0:
263,174,146321,1,8,0:0:0:0:
276,182,146411,6,0,P|248:124|227:23,1,159.375,4|0,1:2|0:0,0:0:0:0:
206,15,146768,2,0,P|161:22|100:30,1,106.25,10|0,0:0|0:0,0:0:0:0:
16,137,147125,1,2,1:2:0:0:
24,153,147304,1,2,1:2:0:0:
88,281,147482,1,10,0:0:0:0:
150,175,147661,6,0,P|116:241|102:275,1,106.25,2|0,0:0|1:0,0:0:0:0:
88,281,148018,1,2,0:0:0:0:
232,138,148196,1,10,0:0:0:0:
291,197,148375,2,0,P|362:173|411:159,1,106.25,0|0,1:0|0:0,0:0:0:0:
392,164,148732,1,0,1:0:0:0:
442,16,148911,1,8,0:0:0:0:
493,92,149089,1,2,0:0:0:0:
487,107,149179,1,2,0:0:0:0:
481,121,149268,6,0,B|364:165|439:215|323:275,1,212.5,6|8,1:2|0:0,0:0:0:0:
219,377,149804,1,2,0:0:0:0:
204,365,149982,2,0,P|172:317|182:263,1,106.25,2|0,1:2|1:0,0:0:0:0:
283,140,150339,1,8,0:0:0:0:
323,257,150518,2,0,L|267:232,1,53.125,2|0,3:0|0:0,0:0:0:0:
140,104,150696,6,0,B|102:119|102:119|86:135|86:135|37:158,1,106.25,4|0,1:2|1:0,0:0:0:0:
194,7,151054,1,8,0:0:0:0:
284,155,151232,1,2,0:0:0:0:
373,80,151411,2,0,P|317:62|264:36,1,106.25,2|0,1:2|1:0,0:0:0:0:
494,134,151768,2,0,P|432:171|366:244,1,159.375,8|0,0:0|0:0,0:0:0:0:
354,263,152125,6,0,B|314:281|314:281|302:298|302:298|262:314,1,106.25,6|0,1:2|0:0,0:0:0:0:
43,207,152482,2,0,P|77:306|148:323,1,159.375,10|0,0:0|0:0,0:0:0:0:
136,340,152839,2,0,P|150:265|161:231,1,106.25,6|0,1:2|1:0,0:0:0:0:
226,80,153196,1,10,0:0:0:0:
214,93,153375,2,0,L|158:78,1,53.125,2|0,3:0|0:0,0:0:0:0:
326,21,153554,5,6,1:2:0:0:
328,36,153643,1,2,0:0:0:0:
330,51,153732,1,10,0:0:0:0:
287,236,153911,1,8,0:0:0:0:
366,283,154089,1,2,3:0:0:0:
249,306,154268,2,0,P|303:285|359:272,1,106.25,0|8,1:0|3:0,0:0:0:0:
461,109,154625,1,8,0:0:0:0:
444,148,154714,1,8,0:0:0:0:
427,187,154804,1,0,1:0:0:0:
400,9,154982,6,0,B|302:27|352:68|247:108,1,172.125000656605,6|0,1:2|0:0,0:0:0:0:
247,121,155339,2,0,P|195:102|116:79,1,114.750000437737,10|0,0:0|0:0,0:0:0:0:
69,21,155696,1,2,1:2:0:0:
69,21,155875,1,0,1:0:0:0:
13,150,156054,1,10,0:0:0:0:
93,238,156232,1,2,0:0:0:0:
101,222,156321,1,2,0:0:0:0:
109,206,156411,6,0,P|52:221|-11:246,1,114.750000437737,0|0,1:0|0:0,0:0:0:0:
182,155,156768,2,0,P|227:214|325:252,1,172.125000656605,8|0,0:0|0:0,0:0:0:0:
330,267,157125,1,2,1:2:0:0:
401,226,157304,1,2,1:2:0:0:
437,56,157482,1,10,0:0:0:0:
495,137,157661,1,0,1:0:0:0:
480,146,157750,1,8,0:0:0:0:
465,155,157839,6,0,P|381:122|236:85,1,229.500000875473,4|10,1:2|0:0,0:0:0:0:
237,76,158375,1,0,3:0:0:0:
102,198,158554,2,0,P|78:140|66:77,1,114.750000437737,2|0,1:2|0:0,0:0:0:0:
284,245,158911,2,0,P|308:187|320:124,1,114.750000437737,8|0,0:0|0:0,0:0:0:0:
31,285,159268,5,14,0:0:0:0:
272,229,159446,1,2,1:2:0:0:
14,275,159625,1,10,0:0:0:0:
157,359,159804,1,8,0:0:0:0:
164,308,159893,1,8,0:0:0:0:
171,257,159982,1,8,0:0:0:0:
132,95,160161,1,8,3:0:0:0:
136,111,160250,1,8,3:0:0:0:
140,127,160339,1,4,3:0:0:0:
144,143,160429,1,4,3:0:0:0:
148,159,160518,1,4,3:0:0:0:
171,257,160696,6,0,L|221:241,1,50.9999984436036,0|0,1:0|1:0,0:0:0:0:
335,0,161054,6,0,B|312:34|312:34|349:142,1,152.999995330811,14|0,0:0|0:0,0:0:0:0:
362,159,161411,1,10,0:0:0:0:
473,114,161589,1,2,1:2:0:0:
439,320,161768,2,0,B|355:291|403:268|305:241,1,152.999995330811,10|0,0:0|0:0,0:0:0:0:
288,250,162125,6,0,P|294:303|305:354,1,101.999996887207,14|2,0:0|1:2,0:0:0:0:
150,370,162482,2,0,P|144:317|133:266,1,101.999996887207,10|6,0:0|1:2,0:0:0:0:
178,130,162839,1,10,0:0:0:0:
174,142,163018,1,2,1:2:0:0:
15,85,163196,1,10,0:0:0:0:
102,16,163375,1,0,1:0:0:0:
105,31,163464,1,8,0:0:0:0:
107,45,163554,6,0,P|158:79|303:103,1,203.999993774414,6|8,1:2|0:0,0:0:0:0:
503,94,164089,1,6,1:2:0:0:
492,82,164179,1,2,0:0:0:0:
481,70,164268,2,0,P|442:143|443:168,1,101.999996887207,2|0,0:0|1:0,0:0:0:0:
503,230,164625,1,8,0:0:0:0:
401,330,164804,6,0,P|333:346|200:386,1,203.999993774414,6|0,1:2|1:0,0:0:0:0:
63,305,165339,1,8,0:0:0:0:
71,317,165429,1,0,1:0:0:0:
79,329,165518,1,0,1:0:0:0:
138,261,165696,1,2,1:2:0:0:
15,177,165875,1,8,3:0:0:0:
29,181,165964,1,8,3:0:0:0:
43,185,166054,1,4,3:0:0:0:
57,189,166143,1,4,3:0:0:0:
71,193,166232,1,4,3:0:0:0:
116,79,166411,6,0,L|130:144,1,50.9999984436036,0|0,1:0|1:0,0:0:0:0:
309,21,166768,6,0,P|294:130|264:234,1,203.999993774414,14|2,0:0|1:2,0:0:0:0:
339,307,167304,1,2,0:0:0:0:
479,227,167482,2,0,P|455:168|439:122,1,101.999996887207,14|0,0:0|0:0,0:0:0:0:
415,366,167839,6,0,P|299:321|206:294,1,203.999993774414,4|8,1:2|0:0,0:0:0:0:
28,361,168375,1,4,1:2:0:0:
69,341,168464,1,0,1:0:0:0:
110,321,168554,1,2,1:2:0:0:
154,203,168732,1,2,0:0:0:0:
69,54,168911,1,10,0:0:0:0:
15,172,169089,6,0,B|125:121|47:85|182:38,1,203.999993774414,4|2,1:2|3:0,0:0:0:0:
330,136,169625,1,8,0:0:0:0:
245,0,169804,6,0,B|259:71|259:71|245:126|245:126|263:211,1,203.999993774414,6|10,1:2|0:0,1:2:0:0:
226,383,170339,1,8,0:0:0:0:
56,347,170518,6,0,P|128:320|262:282,1,203.999993774414,6|8,1:2|0:0,0:0:0:0:
262,296,171054,1,0,1:0:0:0:
503,313,171232,6,0,B|472:324|449:342|449:342|403:280|323:238,1,203.999993774414,6|4,1:2|3:0,0:0:0:0:
414,60,171768,1,8,3:0:0:0:
399,103,171857,1,8,3:0:0:0:
384,146,171946,1,4,3:0:0:0:
300,19,172125,6,0,B|193:47|235:91|118:130,1,203.999993774414,6|8,1:2|0:0,0:0:0:0:
62,254,172839,1,0,1:0:0:0:
62,254,173018,1,0,1:0:0:0:
126,302,173196,2,0,P|162:278|152:217,1,101.999996887207,8|0,0:0|0:0,0:0:0:0:
59,94,173554,2,0,P|117:108|223:145,1,152.999995330811,0|0,1:0|0:0,0:0:0:0:
221,161,173911,2,0,P|283:135|322:125,1,101.999996887207,10|0,0:0|1:0,0:0:0:0:
405,39,174268,1,2,0:0:0:0:
478,94,174446,2,0,P|455:155|444:193,1,101.999996887207,2|8,1:2|0:0,0:0:0:0:
260,374,174804,6,0,B|333:350|333:350|359:302|359:302|445:274,1,203.999993774414,6|0,1:2|1:0,0:0:0:0:
282,175,175339,1,8,0:0:0:0:
134,334,175518,6,0,B|86:199|86:199|127:147,1,203.999993774414,4|0,1:2|1:0,0:0:0:0:
153,28,176054,1,8,0:0:0:0:
295,161,176232,6,0,B|184:122|246:77|127:40,1,203.999993774414,4|0,1:2|1:0,0:0:0:0:
275,0,176768,1,10,0:0:0:0:
398,154,176946,1,4,1:2:0:0:
434,75,177125,1,2,0:0:0:0:
227,138,177304,1,10,0:0:0:0:
270,124,177393,1,8,0:0:0:0:
313,111,177482,1,8,0:0:0:0:
149,166,177661,1,4,3:0:0:0:
45,287,177839,6,0,B|5:274|28:233|79:236|143:275|71:320|176:350,1,203.999993774414,4|8,1:2|0:0,0:0:0:0:
230,288,178375,1,0,3:0:0:0:
403,316,178554,1,0,1:0:0:0:
337,377,178732,2,0,P|323:319|317:270,1,101.999996887207,0|8,1:0|0:0,0:0:0:0:
413,174,179089,1,0,3:0:0:0:
407,188,179179,1,0,3:0:0:0:
402,202,179268,6,0,B|285:182|356:133|224:101,1,203.999993774414,0|8,1:0|0:0,0:0:0:0:
85,4,179804,2,0,P|124:44|168:76,1,101.999996887207,0|0,1:0|0:0,0:0:0:0:
160,71,180161,1,2,1:2:0:0:
128,252,180339,1,10,0:0:0:0:
24,81,180518,6,0,P|81:57|233:3,1,203.999993774414,6|2,1:2|1:2,0:0:0:0:
18,99,181054,1,8,0:0:0:0:
218,269,181232,6,0,B|143:248|143:248|117:199|117:199|43:178,1,203.999993774414,6|8,1:2|3:0,0:0:0:0:
138,360,181768,1,8,3:0:0:0:
281,174,181946,6,0,P|302:247|418:265,1,203.999993774414,6|2,1:2|1:2,0:0:0:0:
454,109,182482,1,8,0:0:0:0:
266,331,182661,6,0,P|241:217|211:131,1,203.999993774414,6|8,1:2|3:0,0:0:0:0:
338,11,183196,1,4,3:0:0:0:
334,25,183286,1,4,3:0:0:0:
330,39,183375,6,0,B|251:18|251:18|208:42|208:42|124:22,1,203.999993774414,6|0,1:2|1:0,0:0:0:0:
46,211,183911,2,0,L|21:108,1,101.999996887207,8|0,0:0|1:0,0:0:0:0:
255,266,184268,2,0,L|280:163,1,101.999996887207,8|4,3:0|3:0,0:0:0:0:
149,284,184625,1,8,0:0:0:0:
21,111,184804,6,0,B|133:62|102:141|233:101,1,203.999993774414,4|8,1:2|3:0,0:0:0:0:
291,11,185339,1,4,3:0:0:0:
434,112,185518,2,0,P|451:67|458:14,1,93.5000028533936,4|0,3:2|3:0,0:0:0:0:
457,22,185875,1,4,3:0:0:0:
328,101,186054,1,4,3:0:0:0:
332,112,186232,1,4,3:0:0:0:
372,268,186411,6,0,P|405:275|440:281,1,63.7500024318696,6|2,0:0|0:0,0:0:0:0:
421,359,186768,2,0,P|389:353|358:346,1,63.7500024318696,2|2,0:0|0:0,0:0:0:0:
277,291,187125,1,2,0:0:0:0:
273,302,187304,2,0,P|239:314|146:318,1,127.500004863739,2|2,0:0|0:0,0:0:0:0:
63,219,187839,5,2,0:0:0:0:
65,228,188018,1,2,0:0:0:0:
67,237,188196,1,2,0:0:0:0:
48,135,188375,2,0,L|41:96,2,31.8750012159348,2|2|2,0:0|0:0|0:0,0:0:0:0:
63,219,188732,1,2,0:0:0:0:
131,165,188911,2,0,P|146:161|200:154,1,63.7500024318696,2|2,0:0|0:0,0:0:0:0:
329,10,189268,6,0,P|295:67|271:128,1,127.500004863739,2|2,0:0|0:0,0:0:0:0:
272,123,189804,1,2,0:0:0:0:
335,195,189982,1,2,0:0:0:0:
335,195,190161,2,0,P|364:207|392:223,1,63.7500024318696,2|2,0:0|0:0,0:0:0:0:
406,217,190518,1,2,0:0:0:0:
492,315,190696,6,0,P|426:344|368:374,1,127.500004863739,2|2,0:0|0:0,0:0:0:0:
377,369,191232,1,2,0:0:0:0:
291,295,191411,2,0,B|224:281,1,63.7500024318696,2|2,0:0|0:0,0:0:0:0:
184,355,191768,2,0,B|113:371,1,63.7500024318696,2|2,0:0|0:0,0:0:0:0:
36,278,192125,6,0,P|26:216|58:162,1,127.500004863739,2|2,0:0|0:0,0:0:0:0:
58,161,192661,1,2,0:0:0:0:
149,202,192839,2,0,P|142:233|146:265,1,63.7500024318696,2|2,0:0|0:0,0:0:0:0:
229,270,193196,2,0,P|236:239|233:208,1,63.7500024318696,2|2,0:0|0:0,0:0:0:0:
256,130,193554,6,0,B|278:140|290:154|290:154|332:124|380:111,1,127.500004863739,2|2,0:0|0:0,0:0:0:0:
369,119,194089,1,2,0:0:0:0:
437,36,194268,1,2,0:0:0:0:
436,45,194446,1,2,0:0:0:0:
435,54,194625,1,2,0:0:0:0:
434,63,194804,1,2,0:0:0:0:
498,204,194982,6,0,B|387:232|446:285|347:319,1,191.250007295609,2|2,0:0|0:0,0:0:0:0:
287,373,195696,1,2,0:0:0:0:
277,371,195875,1,2,0:0:0:0:
268,366,196054,1,2,0:0:0:0:
261,358,196232,1,2,0:0:0:0:
242,224,196411,1,2,0:0:0:0:
234,242,196589,2,0,P|205:255|170:263,2,63.7500024318696,2|2|2,0:0|0:0|0:0,0:0:0:0:
352,86,197125,5,2,0:0:0:0:
276,30,197304,1,2,0:0:0:0:
160,78,197482,2,0,P|167:133|180:175,1,95.6250036478044,2|0,0:0|0:0,0:0:0:0:
137,235,197839,6,0,B|27:259|16:131|90:76|191:68|306:137|216:300|271:379|412:370|475:308,1,637.500024318696,4|0,0:0|0:0,0:0:0:0:
461,319,199982,5,2,0:0:0:0:
419,260,200161,1,2,0:0:0:0:
479,207,200339,2,0,P|471:168|422:156,1,95.6250036478044,2|0,0:0|0:0,0:0:0:0:
419,260,200696,6,0,B|485:189|444:67|325:46|252:108|244:181|244:181|234:278|116:328|22:253|19:157|69:103,1,765.000029182435,4|0,0:0|0:0,0:0:0:0:
136,355,203375,5,2,0:0:0:0:
181,291,203554,2,0,B|250:317|216:342|283:378,1,127.500004863739,2|0,0:0|0:0,0:0:0:0:
285,369,204089,1,2,0:0:0:0:
411,336,204268,2,0,P|434:303|418:222,1,127.500004863739,2|0,0:0|0:0,0:0:0:0:
327,168,204804,1,2,0:0:0:0:
431,83,204982,6,0,B|383:96|362:141|362:141|325:100|263:104,1,191.250007295609,2|2,0:0|0:0,0:0:0:0:
143,91,205696,2,0,B|151:40|201:29|262:74|250:162|162:139|161:208|187:244,1,255.000009727478,2|0,0:0|0:0,0:0:0:0:
190,253,206768,1,2,0:0:0:0:
235,303,207125,1,0,0:0:0:0:
359,325,207481,1,2,0:0:0:0:
471,171,207840,1,0,0:0:0:0:
412,59,208196,1,2,0:0:0:0:
352,32,208554,1,0,0:0:0:0:
318,29,208911,1,2,0:0:0:0:
126,300,209268,6,0,B|121:212|51:217|21:185|-3:98|112:17|170:115|170:115|269:34|349:156|298:279|210:210|132:256|136:347,1,765.000029182435,6|0,0:0|0:0,0:0:0:0:
223,384,211589,1,0,0:0:0:0:
289,349,211768,1,0,0:0:0:0:
296,337,211946,1,0,0:0:0:0:
376,104,212125,6,0,B|363:62|306:32|231:61|221:146|274:184|274:184|313:214|325:277|273:338|189:321|169:259,1,505.750009646416,2|0,0:0|0:0,0:0:0:0:
169,261,214268,6,0,L|180:209,1,51,2|0,0:3|0:0,0:0:0:0:
56,47,214982,6,0,B|146:24|117:80|217:68,1,165.749992412568,4|0,1:2|0:0,0:0:0:0:
286,111,215339,2,0,P|318:46|340:8,1,110.499994941712,10|0,0:0|0:0,0:0:0:0:
417,191,215696,1,2,1:2:0:0:
499,140,215875,2,0,P|450:112|401:89,1,110.499994941712,2|10,1:2|0:0,0:0:0:0:
228,212,216232,1,2,0:0:0:0:
241,202,216321,1,2,0:0:0:0:
255,193,216411,5,2,1:2:0:0:
110,130,216589,2,0,P|136:197|147:243,1,110.499994941712,2|8,0:0|0:0,0:0:0:0:
64,366,216946,1,2,1:2:0:0:
20,246,217125,1,0,0:0:0:0:
29,256,217304,1,2,1:2:0:0:
212,371,217482,1,10,0:0:0:0:
139,202,217661,1,0,1:0:0:0:
142,218,217750,1,8,0:0:0:0:
145,234,217839,6,0,B|181:220|181:220|197:203|197:203|251:183,1,110.499994941712,4|0,1:2|0:0,0:0:0:0:
464,66,218196,2,0,P|413:77|378:224,1,220.999989883423,10|2,0:0|1:2,0:0:0:0:
496,306,218732,1,2,1:2:0:0:
308,293,218911,1,10,0:0:0:0:
471,177,219089,1,2,0:0:0:0:
467,193,219179,1,2,0:0:0:0:
463,209,219268,5,2,1:2:0:0:
362,109,219446,2,0,P|420:82|478:61,1,110.499994941712,2|8,0:0|0:0,0:0:0:0:
274,220,219804,2,0,B|155:176|233:142|96:97,1,220.999989883423,2|0,1:2|1:2,0:0:0:0:
278,60,220339,1,8,0:0:0:0:
141,241,220518,1,8,0:0:0:0:
101,221,220607,1,8,0:0:0:0:
61,201,220696,6,0,B|180:155|157:248|285:217,1,220.999989883423,4|10,1:2|0:0,0:0:0:0:
341,157,221232,1,0,0:0:0:0:
486,279,221411,1,2,1:2:0:0:
424,329,221589,2,0,P|386:300|386:225,1,110.499994941712,2|10,1:2|0:0,0:0:0:0:
480,30,221946,6,0,P|444:100|392:239,1,220.999989883423,2|2,1:2|1:2,0:0:0:0:
195,334,222482,1,10,0:0:0:0:
301,274,222661,2,0,P|251:301|198:318,1,110.499994941712,0|2,1:0|0:0,0:0:0:0:
133,270,223018,1,0,1:0:0:0:
246,64,223196,2,0,P|219:114|202:167,1,110.499994941712,10|0,0:0|1:0,0:0:0:0:
211,178,223464,1,8,0:0:0:0:
219,192,223554,6,0,B|99:163|177:91|18:68,1,220.999989883423,6|8,1:2|0:0,0:0:0:0:
123,256,224089,1,2,0:0:0:0:
303,136,224268,2,0,B|341:124|341:124|367:134|367:134|414:121,1,110.499994941712,6|0,1:2|1:0,0:0:0:0:
222,45,224625,1,8,0:0:0:0:
265,240,224804,1,0,1:0:0:0:
265,240,224893,1,0,1:0:0:0:
265,240,224982,5,14,0:0:0:0:
30,159,225161,1,0,1:0:0:0:
180,311,225339,1,8,0:0:0:0:
141,106,225518,1,0,1:0:0:0:
141,106,225607,1,0,1:0:0:0:
141,106,225696,1,8,0:0:0:0:
132,146,225785,1,8,0:0:0:0:
124,187,225874,1,8,0:0:0:0:
115,227,225963,1,8,0:0:0:0:
107,268,226054,1,4,3:0:0:0:
81,277,226143,1,4,3:0:0:0:
55,286,226232,1,4,3:0:0:0:
29,295,226321,1,4,3:0:0:0:
3,304,226411,6,0,B|72:326|72:326|92:354|92:354|158:375,1,165.749992412568,4|0,1:2|0:0,0:0:0:0:
223,345,226768,2,0,P|247:295|226:246,1,110.499994941712,10|0,0:0|0:0,0:0:0:0:
141,106,227125,1,2,1:2:0:0:
212,141,227304,1,2,1:2:0:0:
357,62,227482,1,10,0:0:0:0:
329,182,227661,1,2,0:0:0:0:
321,167,227750,1,2,0:0:0:0:
313,152,227839,6,0,P|320:81|330:39,1,110.499994941712,2|2,1:2|0:0,0:0:0:0:
443,234,228196,1,10,0:0:0:0:
509,181,228375,2,0,P|502:110|492:68,1,110.499994941712,0|2,1:2|0:0,0:0:0:0:
483,63,228732,1,2,1:2:0:0:
336,243,228911,1,8,0:0:0:0:
267,172,229089,1,8,0:0:0:0:
275,128,229179,1,8,0:0:0:0:
284,84,229268,6,0,B|188:112|246:142|143:186,1,165.749992412568,4|0,1:2|0:0,0:0:0:0:
141,200,229625,2,0,P|76:175|19:166,1,110.499994941712,10|0,0:0|1:0,0:0:0:0:
186,320,229982,2,0,P|251:345|308:354,1,110.499994941712,2|2,0:0|1:2,0:0:0:0:
353,298,230339,1,10,0:0:0:0:
277,142,230518,1,2,0:0:0:0:
272,157,230607,1,2,0:0:0:0:
267,172,230696,6,0,P|336:142|373:131,1,110.499994941712,2|2,1:2|0:0,0:0:0:0:
136,206,231054,1,10,0:0:0:0:
245,262,231232,2,0,P|192:244|142:221,1,110.499994941712,0|0,1:2|0:0,0:0:0:0:
98,137,231589,1,0,1:0:0:0:
331,3,231768,2,0,P|299:66|270:163,1,165.749992412568,12|0,0:0|0:0,0:0:0:0:
267,172,232125,6,0,B|146:132|227:79|89:38,1,220.999989883423,6|8,1:2|0:0,0:0:0:0:
41,237,232661,1,2,0:0:0:0:
34,221,232750,1,2,0:0:0:0:
27,205,232839,2,0,P|79:222|133:249,1,110.499994941712,2|0,1:2|1:0,0:0:0:0:
199,353,233196,1,8,0:0:0:0:
406,281,233375,1,2,3:0:0:0:
325,380,233554,6,0,P|316:318|303:259,1,110.499994941712,2|0,0:0|1:0,0:0:0:0:
368,73,233911,1,8,0:0:0:0:
465,135,234089,1,2,0:0:0:0:
459,151,234179,1,2,0:0:0:0:
453,167,234268,2,0,P|421:184|346:200,1,110.499994941712,2|0,1:2|1:0,0:0:0:0:
171,8,234625,2,0,P|215:76|257:171,1,165.749992412568,8|0,0:0|0:0,0:0:0:0:
308,97,234982,6,0,B|246:124|246:124|217:190|217:190|141:229,1,220.999989883423,6|10,1:2|0:0,0:0:0:0:
30,150,235518,1,0,1:0:0:0:
136,342,235696,6,0,B|107:309|107:309|146:134,1,220.999989883423,6|10,1:2|0:0,0:0:0:0:
23,263,236232,1,2,1:3:0:0:
214,371,236411,6,0,B|266:349|241:331|309:300,1,110.499994941712,6|0,1:2|3:0,0:0:0:0:
483,233,236768,1,10,0:0:0:0:
313,97,236946,5,4,1:2:0:0:
398,222,237125,1,2,0:0:0:0:
451,35,237304,1,8,3:0:0:0:
401,239,237482,1,4,3:0:0:0:
404,255,237571,1,4,3:0:0:0:
407,271,237661,1,4,3:0:0:0:
302,79,237839,6,0,B|262:71|234:56|234:56|193:69|193:69|165:57|125:52,1,178.499994552612,6|0,1:2|0:0,0:0:0:0:
55,2,238196,2,0,B|92:50|92:50|64:124,1,118.999996368408,8|0,0:0|0:0,0:0:0:0:
34,290,238554,1,0,1:0:0:0:
181,169,238732,2,0,P|102:189|64:203,1,118.999996368408,0|8,1:0|0:0,0:0:0:0:
216,87,239089,6,0,P|223:169|368:199,1,237.999992736817,0|0,1:0|1:0,0:0:0:0:
460,41,239625,2,0,P|432:102|414:158,1,118.999996368408,8|0,0:0|0:0,0:0:0:0:
415,151,239982,1,2,1:2:0:0:
490,209,240161,1,2,0:0:0:0:
433,367,240339,1,10,0:0:0:0:
329,302,240518,1,0,1:0:0:0:
345,295,240607,1,8,0:0:0:0:
361,288,240696,6,0,B|265:255|281:327|169:301,1,178.499994552612,4|0,1:2|0:0,0:0:0:0:
115,367,241054,2,0,L|92:235,1,118.999996368408,8|0,0:0|0:0,0:0:0:0:
58,54,241411,2,0,L|35:186,1,118.999996368408,0|0,1:0|1:0,0:0:0:0:
266,107,241768,2,0,P|227:24|135:16,1,178.499994552612,8|0,0:0|0:0,0:0:0:0:
140,22,242125,5,0,1:0:0:0:
163,162,242304,2,0,B|226:145|202:116|274:105,1,118.999996368408,0|8,1:0|0:0,0:0:0:0:
365,30,242661,1,0,3:0:0:0:
362,47,242750,1,0,3:0:0:0:
359,64,242839,1,2,1:2:0:0:
277,24,243018,1,2,1:2:0:0:
461,118,243196,2,0,L|489:308,1,178.499994552612,14|0,0:0|0:0,0:0:0:0:
438,352,243554,6,0,B|394:338|394:338|380:312|380:312|331:295,1,118.999996368408,6|0,1:2|0:0,0:0:0:0:
86,375,243911,2,0,B|130:361|130:361|144:335|144:335|193:318,1,118.999996368408,8|0,0:0|0:0,0:0:0:0:
301,166,244268,5,2,1:2:0:0:
233,222,244446,1,2,1:2:0:0:
115,163,244625,2,0,P|93:121|125:43,1,118.999996368408,10|0,0:0|0:0,0:0:0:0:
258,33,244982,6,0,B|233:48|201:82|201:82|151:26|48:-5,1,237.999992736817,0|8,1:0|0:0,0:0:0:0:
9,221,245518,2,0,P|37:147|45:98,1,118.999996368408,0|0,1:0|0:0,0:0:0:0:
43,107,245875,1,0,1:0:0:0:
69,291,246054,2,0,P|143:263|192:255,1,118.999996368408,8|0,0:0|1:0,0:0:0:0:
357,323,246411,6,0,P|295:285|271:180,1,178.499994552612,4|0,1:2|0:0,0:0:0:0:
281,171,246768,2,0,L|406:142,1,118.999996368408,8|0,0:0|0:0,0:0:0:0:
182,256,247125,2,0,L|57:227,1,118.999996368408,0|0,1:0|1:0,0:0:0:0:
286,154,247482,2,0,L|411:125,1,118.999996368408,8|0,0:0|1:0,0:0:0:0:
410,111,247750,1,0,1:0:0:0:
418,95,247839,5,14,0:0:0:0:
330,264,248018,1,2,1:2:0:0:
247,67,248196,1,10,0:0:0:0:
443,200,248375,1,10,0:0:0:0:
451,246,248464,1,8,0:0:0:0:
461,293,248554,1,10,0:0:0:0:
254,336,248732,1,8,0:0:0:0:
245,290,248821,1,8,0:0:0:0:
236,243,248911,1,10,0:0:0:0:
293,161,249089,1,2,1:2:0:0:
293,161,249179,1,2,1:2:0:0:
293,161,249268,6,0,B|186:140|255:82|130:65,1,191.250007295609,14|0,0:0|0:0,0:0:0:0:
136,65,249625,1,10,0:0:0:0:
94,264,249804,1,2,1:2:0:0:
0,113,249982,2,0,P|17:179|27:235,1,118.999996368408,10|0,0:0|1:0,0:0:0:0:
191,313,250339,1,10,0:0:0:0:
91,277,250518,1,2,1:2:0:0:
199,172,250696,6,0,P|238:160|371:98,1,178.499994552612,10|0,0:0|0:0,0:0:0:0:
362,102,251054,1,10,0:0:0:0:
340,276,251232,1,2,1:2:0:0:
349,322,251321,1,0,1:0:0:0:
359,368,251411,5,12,0:0:0:0:
292,33,251768,1,12,0:0:0:0:
300,45,252125,5,14,0:0:0:0:
121,9,252304,1,2,1:2:0:0:
114,139,252482,2,0,P|128:80|138:15,1,118.999996368408,10|2,0:0|1:2,0:0:0:0:
21,267,252839,2,0,P|90:231|200:197,1,178.499994552612,10|0,0:0|0:0,0:0:0:0:
185,200,253196,1,10,0:0:0:0:
220,364,253375,1,2,1:2:0:0:
302,307,253554,6,0,P|325:246|331:121,1,178.499994552612,10|0,0:0|0:0,0:0:0:0:
332,133,253911,1,10,0:0:0:0:
501,195,254089,1,2,1:2:0:0:
457,214,254179,1,2,1:2:0:0:
413,232,254268,5,14,0:0:0:0:
100,134,254625,1,14,0:0:0:0:
232,0,254982,6,0,P|246:106|267:182,1,178.499994552612,14|0,0:0|0:0,0:0:0:0:
264,174,255339,1,10,0:0:0:0:
217,358,255518,1,2,1:2:0:0:
139,291,255696,2,0,P|204:274|258:254,1,118.999996368408,10|0,0:0|1:0,0:0:0:0:
403,109,256054,2,0,P|361:211|336:283,1,178.499994552612,10|0,0:0|0:0,0:0:0:0:
338,275,256411,5,10,0:0:0:0:
462,221,256589,1,2,1:2:0:0:
281,114,256768,1,10,0:0:0:0:
467,27,256946,1,2,1:2:0:0:
477,73,257036,1,2,1:2:0:0:
487,119,257125,5,14,0:0:0:0:
419,384,257482,1,14,0:0:0:0:
263,227,257839,6,0,B|220:250|220:250|202:270|202:270|160:290,1,118.999996368408,14|0,0:0|1:0,0:0:0:0:
1,110,258196,2,0,P|99:166|173:176,1,178.499994552612,10|0,0:0|0:0,0:0:0:0:
162,175,258554,1,10,0:0:0:0:
216,14,258732,1,0,1:2:0:0:
380,57,258911,2,0,P|305:85|258:110,1,118.999996368408,10|2,0:0|1:2,0:0:0:0:
260,149,259179,1,0,1:0:0:0:
250,195,259268,5,14,0:0:0:0:
467,278,259446,1,0,1:0:0:0:
180,324,259625,5,12,0:0:0:0:
396,193,259804,1,0,1:0:0:0:
294,370,259982,5,8,0:0:0:0:
288,333,260071,1,8,0:0:0:0:
282,296,260160,1,8,0:0:0:0:
277,259,260249,1,8,0:0:0:0:
271,222,260339,1,8,0:0:0:0:
266,186,260428,1,8,0:0:0:0:
260,149,260517,1,8,0:0:0:0:
255,112,260606,1,8,0:0:0:0:
77,263,261054,5,2,0:0:0:0:
73,280,261143,1,2,0:0:0:0:
69,297,261232,2,0,B|64:209|-6:214|-36:182|-60:95|55:14|113:112|113:112|212:31|292:153|241:276|153:207|75:253|79:344,1,765.000029182435,2|0,0:0|0:0,0:0:0:0:
