osu file format v14

[General]
AudioFilename: audio.mp3
AudioLeadIn: 0
PreviewTime: 45230
Countdown: 0
SampleSet: Soft
StackLeniency: 0.7
Mode: 0
LetterboxInBreaks: 0
WidescreenStoryboard: 1

[Editor]
DistanceSpacing: 1.1
BeatDivisor: 2
GridSize: 4
TimelineZoom: 1

[Metadata]
Title:Yajirushi-> (TV Size)
TitleUnicode:やじるし→ (TV Size)
Artist:Pokapoka Ion
ArtistUnicode:ぽかぽかイオン
Creator:Garden
Version:Normal
Source:スローループ
Tags:slow loop anime opening short version japanese pop jpop j-pop pokaxion 東山奈央 touyama nao 安野希世乃 yasuno kiyono fishing Moegi Firika Rage Quit zhuizhui
BeatmapID:3445597
BeatmapSetID:1685918

[Difficulty]
HPDrainRate:3
CircleSize:3
OverallDifficulty:4
ApproachRate:5.5
SliderMultiplier:1.1
SliderTickRate:1

[Events]
//Background and Video events
0,0,"01.jpg",0,0
Video,-320,"SlowLoop-OP1.mp4"
//Break Periods
//Storyboard Layer 0 (Background)
//Storyboard Layer 1 (Fail)
//Storyboard Layer 2 (Pass)
//Storyboard Layer 3 (Foreground)
//Storyboard Layer 4 (Overlay)
//Storyboard Sound Samples

[TimingPoints]
320,357.142857142857,4,2,1,40,1,0
320,-111.111111111111,4,2,1,40,0,0
11748,-111.111111111111,4,2,1,50,0,0
23177,-100,4,2,1,50,0,0
46034,-100,4,2,1,60,0,1
74605,-100,4,2,1,60,0,0
86391,-100,4,2,1,30,0,0
89069,-100,4,2,1,5,0,0

[Colours]
Combo1 : 180,180,218
Combo2 : 255,205,155

[HitObjects]
185,341,320,6,0,P|119:348|17:371,2,148.49999546814,4|2|2,0:0|0:0|0:0,0:0:0:0:
296,329,1748,1,0,0:0:0:0:
296,329,1927,2,0,P|321:282|308:220,1,98.9999969787599,2|0,0:0|0:0,0:0:0:0:
293,188,2462,2,0,L|222:202,2,49.4999984893799,2|0|2,0:0|0:0|0:0,0:0:0:0:
359,101,3177,6,0,P|434:90|505:74,2,148.49999546814,2|2|2,0:0|0:0|0:0,0:0:0:0:
255,97,4605,1,0,0:0:0:0:
255,97,4784,2,0,P|223:46|114:75,1,148.49999546814,2|2,0:0|0:0,0:0:0:0:
59,116,5677,2,0,P|59:139|71:174,1,49.4999984893799,0|2,0:0|0:0,0:0:0:0:
82,217,6034,6,0,P|19:268|43:344,1,148.49999546814,2|2,0:3|0:0,0:0:0:0:
135,368,6927,1,0,0:0:0:0:
135,368,7105,2,0,P|189:366|242:348,1,98.9999969787599,2|0,0:0|0:0,0:0:0:0:
276,322,7641,2,0,P|269:266|252:223,1,98.9999969787599,2|0,0:0|0:0,0:0:0:0:
228,177,8177,1,2,0:0:0:0:
138,115,8534,1,2,0:0:0:0:
195,22,8891,6,0,P|242:29|297:31,1,98.9999969787599,2|0,0:0|0:0,0:0:0:0:
347,31,9427,1,2,0:0:0:0:
458,16,9784,1,0,0:0:0:0:
458,16,9962,2,0,P|445:72|443:119,1,98.9999969787599,2|0,0:0|0:0,0:0:0:0:
455,165,10498,2,0,P|384:167|346:227,1,148.49999546814,12|14,0:3|0:3,0:0:0:0:
369,334,11391,1,4,0:3:0:0:
262,361,11748,6,0,P|208:362|138:343,1,98.9999969787599,4|2,3:2|0:0,0:0:0:0:
63,312,12462,2,0,P|66:269|85:203,1,98.9999969787599,2|2,0:0|3:2,0:0:0:0:
127,187,12998,2,0,P|136:158|138:127,1,49.4999984893799,0|2,0:0|0:0,0:0:0:0:
107,94,13355,1,2,3:2:0:0:
203,43,13712,2,0,P|281:65|276:144,1,148.49999546814,2|2,0:0|0:0,0:0:0:0:
273,178,14427,1,0,0:0:0:0:
273,178,14605,6,0,P|232:174|204:168,2,49.4999984893799,2|0|2,3:2|0:0|0:0,0:0:0:0:
381,191,15319,2,0,P|367:252|365:329,1,98.9999969787599,2|2,0:0|3:2,0:0:0:0:
373,346,15855,1,0,0:0:0:0:
373,346,16034,2,0,P|311:337|263:338,1,98.9999969787599,2|0,0:0|0:0,0:0:0:0:
233,301,16569,2,0,P|197:300|153:286,1,49.4999984893799,0|2,0:0|3:2,0:0:0:0:
74,305,17105,2,0,P|76:270|87:235,1,49.4999984893799,2|0,0:0|3:2,0:0:0:0:
84,201,17462,6,0,P|54:196|21:197,2,49.4999984893799,2|0|2,3:2|0:0|0:0,0:0:0:0:
192,192,18177,2,0,P|205:138|202:87,1,98.9999969787599,2|2,0:0|3:2,0:0:0:0:
205,44,18712,1,0,0:0:0:0:
205,44,18891,2,0,P|264:53|320:48,1,98.9999969787599,2|0,0:0|0:0,0:0:0:0:
354,31,19427,2,0,P|428:43|445:112,1,148.49999546814,2|2,0:0|0:0,0:0:0:0:
434,162,20141,1,0,0:0:0:0:
434,162,20319,5,2,3:2:0:0:
328,190,20677,1,2,0:0:0:0:
299,295,21034,1,2,3:2:0:0:
377,371,21391,1,2,3:2:0:0:
482,343,21748,1,2,0:0:0:0:
510,238,22105,1,2,0:0:0:0:
434,162,22462,1,2,3:0:0:0:
243,12,23177,6,0,P|231:76|212:128,1,110,4|0,3:2|3:0,0:0:0:0:
105,164,23891,2,0,P|69:226|84:262,1,110,2|0,3:2|3:0,0:0:0:0:
115,306,24427,2,0,P|102:342|98:380,2,55,2|0|2,0:0|3:0|0:0,0:0:0:0:
208,229,25141,2,0,P|305:216|332:140,1,165,2|0,0:0|3:0,0:0:0:0:
337,106,25855,1,2,0:0:0:0:
337,106,26034,6,0,P|333:71|325:36,2,55,0|2|0,3:0|0:0|3:0,0:0:0:0:
446,157,26748,2,0,P|476:193|451:268,1,110,2|0,3:2|3:0,0:0:0:0:
435,303,27284,2,0,P|437:339|448:373,2,55,2|0|2,0:0|3:0|0:0,0:0:0:0:
328,258,27998,1,2,0:0:0:0:
328,258,28177,2,0,P|320:230|326:188,2,55,2|2|0,3:2|0:0|3:0,0:0:0:0:
246,346,28891,6,0,P|200:358|112:355,1,110,4|0,3:2|3:0,0:0:0:0:
45,280,29605,2,0,P|17:227|47:173,1,110,2|0,3:2|3:0,0:0:0:0:
74,138,30141,2,0,P|67:113|63:72,2,55,2|0|2,0:0|3:0|0:0,0:0:0:0:
152,229,30855,2,0,P|255:208|266:143,1,165,2|0,0:0|3:0,0:0:0:0:
257,107,31569,1,2,0:0:0:0:
257,107,31748,5,2,3:2:0:0:
365,55,32105,1,2,3:2:0:0:
465,124,32462,1,2,3:2:0:0:
454,245,32819,1,2,3:2:0:0:
344,296,33177,1,2,3:2:0:0:
245,227,33534,1,2,3:2:0:0:
257,107,33891,2,0,P|261:76|283:35,2,55,2|4|2,3:0|3:0|1:2,0:0:0:0:
201,123,34427,5,4,3:0:0:0:
201,123,34605,2,0,P|120:119|79:193,1,165,4|0,3:2|3:0,0:0:0:0:
77,244,35319,2,0,B|177:257|108:306|253:329,1,165,2|0,1:2|3:0,0:0:0:0:
278,322,36034,1,2,0:0:0:0:
378,255,36391,1,2,3:2:0:0:
269,201,36748,2,0,P|274:148|304:83,1,110,0|0,1:0|0:0,0:0:0:0:
328,46,37284,5,0,3:0:0:0:
328,46,37462,2,0,P|405:26|466:90,1,165,2|0,3:2|3:0,0:0:0:0:
479,137,38177,2,0,P|470:216|444:305,1,165,2|0,1:2|3:0,0:0:0:0:
424,354,38891,1,2,0:0:0:0:
338,267,39248,1,0,3:0:0:0:
272,368,39605,2,0,P|207:362|162:345,1,110,0|0,1:0|0:0,0:0:0:0:
117,320,40141,5,0,3:0:0:0:
117,320,40319,2,0,B|100:247|158:203|169:240|223:202|207:140,1,220,4|2,3:2|1:2,0:0:0:0:
85,15,41569,1,0,3:0:0:0:
85,15,41748,2,0,P|187:40|320:58,1,220,4|2,3:2|1:2,0:0:0:0:
431,190,42998,5,0,1:0:0:0:
431,190,43177,2,0,P|357:182|300:260,1,165,4|4,3:2|0:3,0:0:0:0:
294,305,43891,2,0,P|266:308|240:316,1,55,2|0,0:0|3:0,0:0:0:0:
180,326,44248,2,0,P|96:251|139:157,1,220,4|0,1:2|1:0,0:0:0:0:
249,144,45319,6,0,P|257:116|262:89,1,55,2|0,3:0|1:0,0:0:0:0:
266,29,45677,2,0,P|319:40|390:50,1,110,2|4,1:2|3:2,0:0:0:0:
474,115,46391,5,2,1:2:0:0:
389,201,46748,2,0,P|360:195|319:186,2,55,2|0|0,3:2|3:0|1:0,0:0:0:0:
430,245,47284,2,0,P|441:284|393:343,1,110,2|2,0:0|0:0,0:0:0:0:
345,351,47819,1,0,1:0:0:0:
250,275,48177,6,0,P|222:268|189:260,1,55,2|0,0:0|3:0,0:0:0:0:
156,216,48534,2,0,P|167:158|190:96,1,110,0|2,1:0|3:0,0:0:0:0:
102,20,49248,5,2,1:2:0:0:
33,120,49605,1,2,3:2:0:0:
33,120,49784,2,0,P|23:154|20:182,1,55,0|0,3:0|1:0,0:0:0:0:
35,232,50141,2,0,P|36:285|84:312,1,110,2|2,0:0|0:0,0:0:0:0:
141,306,50677,1,0,1:0:0:0:
210,206,51034,6,0,P|216:173|225:140,1,55,2|0,0:0|3:0,0:0:0:0:
233,92,51391,2,0,P|294:80|353:60,1,110,0|2,1:0|3:0,0:0:0:0:
455,100,52105,5,2,1:2:0:0:
387,200,52462,2,0,P|354:205|317:217,1,55,2|0,3:2|3:0,0:0:0:0:
290,253,52819,1,0,1:0:0:0:
290,253,52998,2,0,P|295:298|239:339,1,110,2|2,3:2|0:0,0:0:0:0:
189,341,53534,1,2,1:2:0:0:
87,275,53891,1,2,3:2:0:0:
163,181,54248,1,2,1:2:0:0:
61,115,54605,6,0,P|52:53|140:21,1,165,2|2,3:2|0:0,0:0:0:0:
188,46,55319,2,0,P|273:25|373:15,1,165,2|2,3:2|3:2,0:0:0:0:
410,13,56034,1,2,3:0:0:0:
500,93,56391,1,0,1:2:0:0:
386,133,56748,6,0,P|378:159|373:201,1,55,2|0,3:2|1:0,0:0:0:0:
359,245,57105,2,0,P|306:251|226:271,1,110,0|4,1:0|3:2,0:0:0:0:
155,189,57819,5,2,1:2:0:0:
92,293,58177,2,0,P|92:326|84:358,2,55,2|0|0,3:2|3:0|1:0,0:0:0:0:
47,252,58712,2,0,P|17:198|69:135,1,110,2|2,0:0|0:0,0:0:0:0:
73,111,59248,1,2,1:2:0:0:
160,27,59605,6,0,P|197:34|234:37,1,55,2|0,0:0|3:0,0:0:0:0:
274,40,59962,2,0,P|260:92|256:157,1,110,0|2,1:0|3:0,0:0:0:0:
339,236,60677,5,2,1:2:0:0:
446,177,61034,1,2,3:2:0:0:
446,177,61212,2,0,P|452:141|456:100,1,55,0|0,3:0|1:0,0:0:0:0:
470,64,61569,2,0,P|415:60|361:48,1,110,2|2,0:0|0:0,0:0:0:0:
304,27,62105,2,0,P|221:30|186:100,1,165,0|2,1:0|3:2,0:0:0:0:
189,156,62819,1,0,1:0:0:0:
289,224,63177,6,0,P|274:275|270:344,1,110,4|0,3:2|1:0,0:0:0:0:
217,357,63712,1,2,0:0:0:0:
217,357,63891,2,0,P|165:346|95:337,1,110,2|0,3:2|1:0,0:0:0:0:
66,302,64427,1,4,3:2:0:0:
66,302,64605,1,2,0:0:0:0:
8,195,64962,2,0,P|14:160|35:110,1,55,0|2,1:0|0:0,0:0:0:0:
34,82,65319,2,0,P|88:99|156:109,1,110,2|0,3:2|1:0,0:0:0:0:
204,118,65855,1,2,0:0:0:0:
204,118,66034,5,4,3:2:0:0:
287,205,66391,1,2,1:2:0:0:
178,257,66748,1,0,3:0:0:0:
261,344,67105,2,0,P|315:361|383:371,1,110,0|2,1:0|0:0,0:0:0:0:
478,320,67819,1,0,1:0:0:0:
396,229,68177,1,0,3:0:0:0:
501,170,68534,1,2,1:2:0:0:
419,79,68891,6,0,P|364:63|272:49,1,110,4|2,3:2|1:2,0:0:0:0:
193,31,69605,2,0,P|171:98|246:144,1,165,2|2,3:2|0:0,0:0:0:0:
296,166,70319,2,0,P|315:208|328:283,1,110,2|0,3:2|1:0,0:0:0:0:
239,353,71034,2,0,P|212:362|165:371,1,55,2|0,0:0|3:0,0:0:0:0:
125,371,71391,2,0,P|106:329|93:254,1,110,2|4,1:2|3:2,0:0:0:0:
2,186,72105,5,2,1:2:0:0:
74,89,72462,2,0,P|170:86|207:141,1,165,2|0,3:2|3:0,0:0:0:0:
212,196,73177,1,4,1:2:0:0:
266,303,73534,1,2,1:2:0:0:
342,209,73891,2,0,P|349:154|361:100,1,110,0|0,1:0|1:0,0:0:0:0:
379,45,74427,1,0,1:0:0:0:
379,45,74605,5,4,3:2:0:0:
261,17,74962,1,0,1:0:0:0:
209,126,75319,1,0,1:2:0:0:
91,98,75677,2,0,P|80:72|81:34,2,55,0|2|0,1:0|3:2|1:0,0:0:0:0:
65,154,76212,1,2,3:2:0:0:
65,154,76391,2,0,P|34:206|56:254,1,110,0|0,1:0|1:0,0:0:0:0:
135,333,77105,2,0,P|163:326|194:323,1,55,0|2,1:0|3:2,0:0:0:0:
248,313,77462,5,4,1:2:0:0:
172,218,77819,1,0,1:0:0:0:
272,149,78177,1,0,1:0:0:0:
196,54,78534,2,0,P|172:60|131:67,2,55,0|2|0,1:0|3:2|1:0,0:0:0:0:
249,23,79069,1,2,3:2:0:0:
249,23,79248,2,0,P|307:6|363:1,1,110,0|0,1:0|1:0,0:0:0:0:
473,30,79962,2,0,P|480:51|481:94,1,55,0|2,1:0|3:2,0:0:0:0:
481,144,80319,5,4,1:2:0:0:
363,115,80677,1,0,1:0:0:0:
280,203,81034,1,0,1:0:0:0:
398,232,81391,2,0,P|408:259|412:303,1,55,0|2,1:0|3:2,0:0:0:0:
374,332,81748,2,0,P|319:350|250:362,1,110,0|0,1:0|1:0,0:0:0:0:
215,343,82284,1,0,3:0:0:0:
215,343,82462,1,0,1:0:0:0:
100,302,82819,2,0,P|90:275|86:231,1,55,0|2,1:0|3:2,0:0:0:0:
87,188,83177,5,4,1:2:0:0:
11,93,83534,1,0,1:0:0:0:
113,28,83891,1,0,1:0:0:0:
189,123,84248,2,0,P|222:130|260:129,1,55,0|0,1:0|3:0,0:0:0:0:
295,100,84605,2,0,P|322:101|349:108,1,55,4|2,1:2|3:2,0:0:0:0:
397,144,84962,1,0,1:0:0:0:
308,225,85319,5,2,1:2:0:0:
308,225,85498,2,0,P|294:265|298:295,2,55,2|2|2,1:2|1:2|1:2,0:0:0:0:
256,192,86391,12,0,89069,0:0:0:0:
