osu file format v14

[General]
AudioFilename: audio.mp3
AudioLeadIn: 0
PreviewTime: 45230
Countdown: 0
SampleSet: Soft
StackLeniency: 0.3
Mode: 0
LetterboxInBreaks: 0
WidescreenStoryboard: 1

[Editor]
Bookmarks: 29563
DistanceSpacing: 1.2
BeatDivisor: 4
GridSize: 4
TimelineZoom: 1.6

[Metadata]
Title:Yajirushi-> (TV Size)
TitleUnicode:やじるし→ (TV Size)
Artist:Pokapoka Ion
ArtistUnicode:ぽかぽかイオン
Creator:Garden
Version:Firika's Insane
Source:スローループ
Tags:slow loop anime opening short version japanese pop jpop j-pop pokaxion 東山奈央 touyama nao 安野希世乃 yasuno kiyono fishing Moegi Firika Rage Quit zhuizhui
BeatmapID:3445594
BeatmapSetID:1685918

[Difficulty]
HPDrainRate:5
CircleSize:3.8
OverallDifficulty:8
ApproachRate:9
SliderMultiplier:1.6
SliderTickRate:1

[Events]
//Background and Video events
0,0,"01.jpg",0,0
Video,-320,"SlowLoop-OP1.mp4"
//Break Periods
//Storyboard Layer 0 (Background)
//Storyboard Layer 1 (Fail)
//Storyboard Layer 2 (Pass)
//Storyboard Layer 3 (Foreground)
//Storyboard Layer 4 (Overlay)
//Storyboard Sound Samples

[TimingPoints]
320,357.142857142857,4,2,1,40,1,0
320,-133.333333333333,4,2,1,40,0,0
6034,-83.3333333333333,4,2,1,40,0,0
6391,-100,4,2,1,40,0,0
6748,-133.333333333333,4,2,1,40,0,0
7462,-83.3333333333333,4,2,1,40,0,0
7819,-100,4,2,1,40,0,0
8176,-133.333333333333,4,2,1,40,0,0
8891,-100,4,2,1,40,0,0
10498,-200,4,2,1,40,0,0
11034,-100,4,2,1,40,0,0
11748,-100,4,2,1,50,0,0
20855,-125,4,2,1,50,0,0
21569,-100,4,2,1,50,0,0
22105,-125,4,2,1,50,0,0
23177,-100,4,2,1,50,0,0
34605,-125,4,2,1,50,0,0
40319,-100,4,2,1,50,0,0
41748,-95.2380952380952,4,2,1,50,0,0
43177,-90.9090909090909,4,2,1,50,0,0
44248,-83.3333333333333,4,2,1,50,0,0
46034,-74.0740740740741,4,2,1,60,0,1
54248,-66.6666666666667,4,2,1,60,0,1
54605,-74.0740740740741,4,2,1,60,0,1
85944,-83.3333333333333,4,2,1,60,0,0
86034,-250,4,2,1,60,0,0
86391,-250,4,2,1,30,0,0
89069,-250,4,2,1,5,0,0

[Colours]
Combo1 : 180,180,218
Combo2 : 255,205,155

[HitObjects]
488,207,320,5,4,0:0:0:0:
488,207,498,2,0,L|503:127,1,60.0000022888184
425,97,855,2,0,L|303:125,1,120.000004577637,2|0,0:0|0:0,0:0:0:0:
316,211,1391,5,2,0:0:0:0:
316,211,1569,2,0,L|331:131,1,60.0000022888184
253,101,1927,2,0,L|165:121,1,90.0000034332277,2|0,0:0|0:0,0:0:0:0:
155,133,2284,1,0,0:0:0:0:
67,82,2462,6,0,P|37:70|4:80,2,60.0000022888184,2|0|2,0:0|0:0|0:0,0:0:0:0:
155,133,2998,2,0,L|161:176,1,30.0000011444092
176,182,3177,6,0,L|263:200,1,60.0000022888184,2|0,0:0|0:0,0:0:0:0:
318,155,3534,1,0,0:0:0:0:
318,155,3712,2,0,L|334:300,1,120.000004577637,2|0,0:0|0:0,0:0:0:0:
341,263,4159,1,0,0:0:0:0:
351,252,4249,6,0,L|438:234,1,60.0000022888184,2|0,0:0|0:0,0:0:0:0:
493,279,4606,1,0,0:0:0:0:
493,279,4784,2,0,L|509:134,1,120.000004577637,2|0,0:0|0:0,0:0:0:0:
436,104,5319,6,0,L|396:110,1,30.0000011444092,2|0,0:0|0:0,0:0:0:0:
383,98,5498,1,0,0:0:0:0:
319,199,5677,1,0,0:0:0:0:
206,212,5855,5,2,0:0:0:0:
206,212,5944,1,2,0:0:0:0:
206,212,6034,2,0,P|162:251|102:261,1,95.9999970703126,2|2,0:3|0:0,0:0:0:0:
48,170,6391,2,0,P|89:180|129:169,1,80,2|0,0:0|0:0,0:0:0:0:
141,65,6748,2,0,P|112:73|91:94,1,60.0000022888184,2|2,0:0|0:0,0:0:0:0:
206,212,7105,5,0,0:0:0:0:
256,114,7284,1,0,0:0:0:0:
306,212,7462,6,0,P|350:251|410:261,1,95.9999970703126,2|2,0:0|0:0,0:0:0:0:
464,170,7819,2,0,P|423:180|383:169,1,80,2|0,0:0|0:0,0:0:0:0:
370,65,8177,2,0,P|399:73|421:94,1,60.0000022888184,2|2,0:0|0:0,0:0:0:0:
306,212,8534,5,0,0:0:0:0:
256,114,8713,1,2,0:0:0:0:
380,47,8891,6,0,B|425:85|495:87|495:87|376:100|345:165|329:234|164:283|56:158|180:10|256:78|262:102,1,640,2|2,0:0|0:0,0:0:0:0:
256,114,10498,6,0,L|270:18,1,80,12|0,0:3|0:0,0:0:0:0:
97,179,11034,1,14,0:3:0:0:
49,185,11123,1,2,0:0:0:0:
67,140,11212,1,2,0:0:0:0:
169,26,11391,6,0,L|157:105,1,80,4|0,0:3|0:0,0:0:0:0:
131,268,11748,5,4,3:2:0:0:
131,268,12105,2,0,L|47:287,1,80,2|0,0:0|0:0,0:0:0:0:
190,192,12462,1,2,0:0:0:0:
378,229,12819,5,2,3:2:0:0:
378,229,13177,2,0,L|397:313,1,80,2|2,0:0|3:2,0:0:0:0:
302,170,13534,1,0,0:0:0:0:
269,359,13891,5,2,3:2:0:0:
419,324,14069,1,0,0:0:0:0:
302,170,14248,1,2,0:0:0:0:
131,268,14605,5,2,3:2:0:0:
131,268,14962,2,0,L|209:285,1,80,2|0,0:0|3:0,0:0:0:0:
45,311,15319,1,2,0:0:0:0:
91,126,15677,5,2,3:2:0:0:
91,126,16034,2,0,L|73:47,1,80,2|0,0:0|3:0,0:0:0:0:
171,183,16391,1,2,0:0:0:0:
357,134,16748,5,2,3:2:0:0:
259,13,16927,1,0,0:0:0:0:
171,183,17105,5,2,0:0:0:0:
246,125,17284,1,0,3:2:0:0:
300,277,17462,5,2,3:2:0:0:
300,277,17819,2,0,L|285:355,1,80,2|0,0:0|3:0,0:0:0:0:
382,225,18177,1,2,0:0:0:0:
162,265,18534,5,2,3:2:0:0:
162,265,18891,2,0,L|83:279,1,80,2|2,0:0|3:2,0:0:0:0:
218,187,19248,1,0,0:0:0:0:
223,193,19427,1,0,0:0:0:0:
42,150,19605,5,2,3:2:0:0:
220,80,19784,1,0,0:0:0:0:
162,265,19962,2,0,P|129:222|133:183,1,80,2|0,0:0|0:0,0:0:0:0:
304,133,20319,6,0,L|396:148,2,80,2|0|2,3:2|0:0|0:0,0:0:0:0:
220,80,20855,2,0,P|265:123|280:184,1,128,0|0,3:0|0:0,0:0:0:0:
252,280,21391,1,2,3:2:0:0:
36,179,21569,6,0,P|114:168|183:207,1,160,2|0,0:0|3:0,0:0:0:0:
103,334,22105,2,0,P|123:309|153:301,1,64,2|0,0:0|0:0,0:0:0:0:
252,280,22462,1,2,3:0:0:0:
358,345,22998,5,2,0:0:0:0:
358,345,23087,1,2,0:0:0:0:
358,345,23177,2,0,L|265:361,1,80,4|2,3:2|0:0,0:0:0:0:
182,325,23534,1,0,3:0:0:0:
182,325,23712,1,2,0:0:0:0:
265,201,23891,6,0,L|249:294,1,80,0|2,3:0|0:0,0:0:0:0:
182,325,24159,1,2,0:0:0:0:
182,325,24248,1,0,3:0:0:0:
89,212,24427,1,2,0:0:0:0:
231,100,24605,5,0,3:0:0:0:
142,133,24784,2,0,P|103:120|89:80,1,80,2|0,0:0|3:0,0:0:0:0:
199,14,25141,2,0,P|278:8|351:37,1,160,2|2,0:0|0:0,0:0:0:0:
443,121,25677,1,0,3:0:0:0:
309,157,25855,5,2,0:0:0:0:
309,157,25944,1,2,0:0:0:0:
309,157,26034,2,0,L|292:252,1,80,0|2,3:0|0:0,0:0:0:0:
333,323,26391,1,0,3:0:0:0:
185,347,26569,1,2,0:0:0:0:
333,323,26748,2,0,P|309:354|271:365,1,80,0|2,3:0|0:0,0:0:0:0:
185,347,27016,1,2,0:0:0:0:
185,347,27105,1,0,3:0:0:0:
294,235,27284,1,2,0:0:0:0:
456,287,27462,5,0,3:0:0:0:
417,199,27641,2,0,P|431:153|461:135,1,80,2|0,0:0|0:0,0:0:0:0:
298,227,27998,1,2,0:0:0:0:
298,227,28087,1,2,0:0:0:0:
298,227,28177,2,0,L|250:219,2,40,2|2|2,3:2|0:0|0:0,0:0:0:0:
167,245,28534,1,0,3:0:0:0:
337,144,28712,1,2,0:0:0:0:
116,35,28891,6,0,L|129:130,1,80,4|2,3:2|0:0,0:0:0:0:
81,201,29248,1,0,3:0:0:0:
81,201,29427,1,2,0:0:0:0:
224,233,29605,2,0,P|199:202|161:191,1,80,0|2,3:0|0:0,0:0:0:0:
81,201,29873,1,2,0:0:0:0:
81,201,29962,1,0,3:0:0:0:
163,350,30141,1,2,0:0:0:0:
315,276,30319,5,0,3:0:0:0:
224,233,30498,2,0,P|210:175|232:141,1,80,2|0,0:0|3:0,0:0:0:0:
327,282,30855,2,0,P|361:233|375:113,1,160,2|2,0:0|0:0,0:0:0:0:
331,28,31391,1,0,3:0:0:0:
482,86,31569,5,2,0:0:0:0:
482,86,31659,1,2,0:0:0:0:
482,86,31748,2,0,L|496:174,1,80,2|0,3:2|0:0,0:0:0:0:
364,231,32105,2,0,L|378:143,1,80,2|0,3:2|0:0,0:0:0:0:
245,61,32462,5,2,3:2:0:0:
272,169,32641,1,0,0:0:0:0:
133,260,32819,5,2,3:2:0:0:
168,134,32998,1,0,0:0:0:0:
22,24,33177,6,0,P|63:92|64:172,2,160,2|2|2,3:2|3:2|3:0,0:0:0:0:
168,134,34069,1,4,3:0:0:0:
342,80,34248,6,0,P|332:101|298:104,1,40,2|0,1:2|0:0,0:0:0:0:
245,61,34427,1,4,3:0:0:0:
423,30,34605,6,0,P|448:58|481:207,1,192,4|0,3:2|3:0,0:0:0:0:
266,178,35319,2,0,B|281:132|281:132|363:132|394:205,1,192,2|0,1:2|3:0,0:0:0:0:
354,283,36034,6,0,L|282:296,1,64,2|0,0:0|1:0,0:0:0:0:
402,198,36391,2,0,P|446:241|449:303,1,128,2|0,3:2|1:0,0:0:0:0:
304,315,36927,2,0,P|323:290|354:283,1,64,2|0,0:0|0:0,0:0:0:0:
448,304,37284,1,0,3:0:0:0:
300,196,37462,6,0,P|206:209|125:258,1,192,2|0,3:2|3:0,0:0:0:0:
22,104,38177,2,0,B|37:58|37:58|119:58|150:131,1,192,2|0,1:2|3:0,0:0:0:0:
71,184,38891,5,2,0:0:0:0:
65,193,39069,1,0,1:0:0:0:
150,131,39248,2,0,L|234:145,1,64,0|0,3:0|0:0,0:0:0:0:
194,273,39605,5,0,1:0:0:0:
300,196,39784,2,0,L|383:209,1,64,2|0,0:0|0:0,0:0:0:0:
476,314,40141,5,2,3:2:0:0:
466,326,40230,1,2,0:0:0:0:
451,331,40319,2,0,B|416:291|420:196|533:218|512:127|488:85,1,240,4|0,3:2|3:0,0:0:0:0:
431,25,41034,2,0,P|428:99|500:113,1,160,2|0,1:2|0:0,0:0:0:0:
418,17,41569,1,0,3:0:0:0:
265,36,41748,6,0,P|389:52|499:113,1,251.999992309571,4|0,3:2|3:0,0:0:0:0:
322,184,42462,2,0,P|236:197|162:242,1,167.999994873047,2|0,1:2|0:0,0:0:0:0:
93,364,42998,1,0,1:0:0:0:
322,184,43177,6,0,P|328:258|229:284,1,176.000005371094,4|12,3:2|0:3,0:0:0:0:
167,237,43712,1,4,0:3:0:0:
263,111,43891,5,2,0:0:0:0:
76,256,44069,1,0,3:0:0:0:
9,20,44248,2,0,B|64:-8|139:17|163:64|175:144|68:156|59:109,1,287.999991210938,4|0,1:2|3:0,0:0:0:0:
222,25,44962,5,0,1:0:0:0:
222,25,45319,6,0,L|272:35,1,47.9999985351563,2|0,3:0|3:0,0:0:0:0:
368,81,45498,1,0,1:0:0:0:
376,90,45587,1,0,1:0:0:0:
384,99,45677,1,2,1:2:0:0:
312,191,45855,1,0,3:0:0:0:
471,88,46034,6,0,P|497:142|443:245,1,162.000000617981,4|0,3:2|0:0,0:0:0:0:
442,246,46391,2,0,P|395:216|311:216,1,108.000000411987,2|0,1:2|0:0,0:0:0:0:
263,237,46659,1,2,0:0:0:0:
255,246,46748,5,2,3:2:0:0:
289,67,46927,1,0,3:0:0:0:
247,255,47105,1,0,1:0:0:0:
56,102,47284,2,0,P|123:124|171:201,1,162.000000617981,2|0,0:0|0:0,0:0:0:0:
149,209,47641,2,0,P|95:212|28:186,1,108.000000411987,2|0,0:0|1:0,0:0:0:0:
188,43,47998,5,2,3:2:0:0:
195,53,48088,1,2,0:0:0:0:
199,64,48177,1,2,0:0:0:0:
149,209,48355,1,0,3:0:0:0:
289,67,48534,2,0,P|360:68|447:109,1,162.000000617981,0|2,1:0|0:0,0:0:0:0:
459,123,48891,2,0,L|474:240,1,108.000000411987,2|0,3:0|0:0,0:0:0:0:
306,366,49248,6,0,L|326:205,1,162.000000617981,2|0,1:2|0:0,0:0:0:0:
330,181,49605,1,2,3:2:0:0:
204,316,49784,1,0,3:0:0:0:
22,247,49962,1,0,1:0:0:0:
148,112,50141,6,0,P|195:208|204:316,2,216.000000823975,2|2|2,0:0|0:0|3:2,0:0:0:0:
33,38,51034,5,2,0:0:0:0:
161,215,51212,1,0,3:0:0:0:
317,84,51391,1,0,1:0:0:0:
437,211,51569,5,2,0:0:0:0:
429,202,51659,1,2,0:0:0:0:
421,193,51748,2,0,P|427:118|492:31,1,162.000000617981,2|0,3:0|0:0,0:0:0:0:
495,36,52105,2,0,L|381:50,1,108.000000411987,2|0,1:2|0:0,0:0:0:0:
317,84,52373,1,2,0:0:0:0:
305,82,52462,5,2,3:2:0:0:
161,215,52641,1,0,3:0:0:0:
191,14,52819,1,0,1:0:0:0:
305,82,52998,6,0,P|331:138|325:207,1,108.000000411987,2|0,3:2|3:0,0:0:0:0:
288,288,53355,1,2,0:0:0:0:
20,127,53534,6,0,P|94:158|147:217,1,162.000000617981,2|0,1:2|0:0,0:0:0:0:
182,67,53891,6,0,P|230:131|247:209,1,162.000000617981,2|0,3:2|0:0,0:0:0:0:
120,311,54248,6,0,P|163:234|247:209,1,180.000006866455,2|0,1:2|0:0,0:0:0:0:
311,271,54605,6,0,P|394:305|469:209,1,216.000000823975,2|0,3:2|1:2,0:0:0:0:
442,88,55141,1,2,0:0:0:0:
311,271,55319,6,0,B|236:274|252:197|182:135|116:191,1,216.000000823975,2|0,3:2|1:0,0:0:0:0:
11,260,55855,1,2,3:2:0:0:
170,90,56034,6,0,P|216:125|228:183,1,108.000000411987,2|0,3:0|0:0,0:0:0:0:
101,361,56391,2,0,L|131:201,1,162.000000617981,0|2,1:2|0:0,0:0:0:0:
136,178,56748,1,2,3:2:0:0:
311,271,56927,5,0,1:0:0:0:
275,310,57016,1,0,1:0:0:0:
231,296,57105,1,0,1:0:0:0:
68,94,57284,5,0,1:0:0:0:
104,55,57373,1,0,1:0:0:0:
148,69,57462,2,0,P|239:114|339:109,1,162.000000617981,4|0,3:2|0:0,0:0:0:0:
322,111,57819,2,0,P|365:80|418:73,1,108.000000411987,2|0,1:2|0:0,0:0:0:0:
497,89,58087,1,2,0:0:0:0:
503,100,58176,5,2,3:2:0:0:
404,261,58355,1,0,3:0:0:0:
322,111,58533,1,0,1:0:0:0:
207,183,58712,6,0,P|142:160|105:71,1,162.000000617981,2|0,0:0|0:0,0:0:0:0:
104,55,59069,1,2,0:0:0:0:
351,36,59248,2,0,P|359:115|333:192,1,162.000000617981,2|0,1:2|0:0,0:0:0:0:
319,212,59605,5,2,0:0:0:0:
200,191,59783,1,0,3:0:0:0:
361,23,59962,2,0,P|389:97|383:178,1,162.000000617981,0|2,1:0|0:0,0:0:0:0:
373,202,60319,2,0,P|440:178|496:186,1,108.000000411987,2|0,3:0|0:0,0:0:0:0:
217,84,60677,6,0,L|200:191,1,108.000000411987,2|0,1:2|0:0,0:0:0:0:
140,245,60944,1,2,0:0:0:0:
129,251,61034,1,2,3:2:0:0:
22,130,61212,1,0,3:0:0:0:
179,8,61390,1,0,1:0:0:0:
286,129,61569,6,0,P|209:89|102:96,1,162.000000617981,2|0,0:0|0:0,0:0:0:0:
112,96,61927,1,2,0:0:0:0:
36,300,62105,2,0,L|271:269,1,216.000000823975,0|0,1:0|0:0,0:0:0:0:
355,295,62640,1,2,3:2:0:0:
232,375,62819,1,0,1:0:0:0:
316,214,62998,2,0,L|307:160,1,54.0000002059937,2|0,0:0|0:0,0:0:0:0:
350,84,63177,6,0,P|409:91|470:245,1,216.000000823975,4|0,3:2|1:0,0:0:0:0:
454,308,63712,1,2,0:0:0:0:
316,214,63891,6,0,P|247:199|126:289,1,216.000000823975,2|0,3:2|1:0,0:0:0:0:
105,370,64427,1,4,3:2:0:0:
322,230,64605,6,0,P|242:173|109:146,1,216.000000823975,2|0,0:0|1:0,0:0:0:0:
7,162,65141,1,2,0:0:0:0:
280,5,65319,6,0,P|251:67|217:214,1,216.000000823975,2|0,3:2|1:0,0:0:0:0:
236,362,65855,1,2,0:0:0:0:
481,222,66034,6,0,P|496:264|413:326,1,162.000000617981,4|0,3:2|0:0,0:0:0:0:
393,317,66391,2,0,L|366:205,1,108.000000411987,2|0,1:2|0:0,0:0:0:0:
175,106,66748,2,0,L|280:132,1,108.000000411987,0|2,3:0|3:2,0:0:0:0:
160,299,67105,2,0,L|-25:338,1,162.000000617981,0|0,1:0|0:0,0:0:0:0:
8,309,67462,6,0,P|45:270|106:255,1,108.000000411987,4|0,0:0|3:0,0:0:0:0:
247,328,67819,1,0,1:0:0:0:
447,213,67998,2,0,P|428:272|332:277,1,162.000000617981,4|0,3:2|0:0,0:0:0:0:
322,267,68355,2,0,L|307:204,1,54.0000002059937,8|0,3:0|0:0,0:0:0:0:
335,84,68534,1,2,1:2:0:0:
375,75,68623,1,0,1:0:0:0:
405,103,68712,1,0,1:0:0:0:
455,230,68891,5,4,3:2:0:0:
122,368,69248,2,0,B|132:262|210:290|214:162,1,216.000000823975,2|2,1:2|3:2,0:0:0:0:
165,72,69784,1,0,0:0:0:0:
59,102,69962,1,0,1:0:0:0:
225,7,70141,6,0,P|285:11|393:61,1,162.000000617981,2|0,0:0|0:0,0:0:0:0:
394,69,70498,1,0,3:0:0:0:
360,217,70677,1,0,1:0:0:0:
213,178,70855,1,0,3:0:0:0:
165,72,71034,6,0,P|109:76|44:115,2,108.000000411987,2|0|2,0:0|3:0|1:2,0:0:0:0:
395,116,71569,1,0,0:0:0:0:
395,116,71659,1,2,0:0:0:0:
395,116,71748,1,4,3:2:0:0:
150,251,72105,6,0,P|81:243|56:191,1,108.000000411987,2|0,1:2|0:0,0:0:0:0:
165,72,72462,2,0,B|175:178|253:150|257:278,1,216.000000823975,2|0,3:2|1:0,0:0:0:0:
209,367,72998,1,0,3:0:0:0:
198,362,73087,1,0,3:0:0:0:
187,360,73177,5,4,1:2:0:0:
357,301,73355,1,0,3:0:0:0:
150,251,73534,1,2,1:2:0:0:
372,193,73712,2,0,L|380:136,1,54.0000002059937,0|0,1:0|1:0,0:0:0:0:
305,6,73891,5,0,1:0:0:0:
266,0,73980,1,0,1:0:0:0:
233,22,74069,1,0,1:0:0:0:
223,60,74158,1,0,1:0:0:0:
241,95,74248,1,0,1:0:0:0:
253,101,74337,1,0,1:0:0:0:
265,107,74426,1,0,1:0:0:0:
277,113,74515,1,0,1:0:0:0:
289,119,74605,6,0,L|416:97,1,108.000000411987,4|2,3:2|3:2,0:0:0:0:
492,159,74962,1,0,1:0:0:0:
492,159,75141,1,2,3:2:0:0:
379,278,75319,6,0,L|219:249,1,162.000000617981,0|0,1:2|0:0,0:0:0:0:
196,245,75677,1,0,1:0:0:0:
89,363,75855,1,2,3:2:0:0:
5,177,76034,6,0,B|26:193|26:193|39:278,2,108.000000411987,0|2|0,1:0|3:2|1:0,0:0:0:0:
194,54,76569,1,0,3:0:0:0:
192,95,76658,1,0,3:0:0:0:
157,116,76747,5,0,1:0:0:0:
61,88,76927,1,2,3:2:0:0:
273,12,77105,5,0,1:0:0:0:
196,245,77284,1,2,3:2:0:0:
289,119,77462,6,0,L|416:97,1,108.000000411987,4|2,1:2|3:2,0:0:0:0:
492,159,77819,1,0,1:0:0:0:
492,159,77998,1,2,3:2:0:0:
379,278,78176,6,0,L|219:249,1,162.000000617981,0|0,1:0|0:0,0:0:0:0:
196,245,78534,1,0,1:0:0:0:
89,363,78712,1,2,3:2:0:0:
5,177,78891,6,0,B|26:193|26:193|39:278,2,108.000000411987,0|2|0,1:0|3:2|1:0,0:0:0:0:
194,54,79427,1,0,3:0:0:0:
192,95,79516,1,0,3:0:0:0:
157,116,79605,6,0,L|19:91,1,108.000000411987,0|2,1:0|3:2,0:0:0:0:
302,225,79962,2,0,L|196:245,1,108.000000411987,0|2,1:0|3:2,0:0:0:0:
393,159,80319,6,0,L|412:52,1,108.000000411987,4|2,1:2|3:2,0:0:0:0:
508,130,80676,1,0,1:0:0:0:
508,130,80855,1,2,3:2:0:0:
299,85,81034,6,0,L|100:118,1,162.000000617981,0|0,1:0|0:0,0:0:0:0:
115,117,81391,1,0,1:0:0:0:
286,212,81569,1,2,3:2:0:0:
299,85,81748,5,0,1:0:0:0:
168,275,81926,1,2,3:2:0:0:
115,117,82105,5,0,1:0:0:0:
264,306,82284,1,0,3:0:0:0:
268,310,82373,1,0,3:0:0:0:
272,314,82462,5,0,1:0:0:0:
93,365,82641,1,2,3:2:0:0:
198,189,82819,5,0,1:0:0:0:
288,335,82998,1,2,3:2:0:0:
393,159,83177,6,0,L|412:52,1,108.000000411987,4|2,1:2|3:2,0:0:0:0:
508,130,83534,1,0,1:0:0:0:
508,130,83713,1,2,3:2:0:0:
299,85,83892,6,0,L|100:118,1,162.000000617981,0|0,1:0|0:0,0:0:0:0:
115,117,84249,1,0,1:0:0:0:
286,212,84427,1,0,3:0:0:0:
290,216,84516,1,0,3:0:0:0:
294,220,84605,1,4,1:2:0:0:
299,85,84784,5,2,3:2:0:0:
167,274,84962,2,0,P|175:195|219:127,1,162.000000617981,0|0,1:0|3:0,0:0:0:0:
299,85,85319,5,2,1:2:0:0:
339,83,85408,1,0,1:0:0:0:
376,98,85497,1,2,1:2:0:0:
404,127,85586,1,0,1:0:0:0:
416,165,85677,5,2,1:2:0:0:
423,112,85766,1,0,1:0:0:0:
448,65,85855,1,2,1:2:0:0:
488,28,85944,1,0,1:0:0:0:
488,28,86391,6,0,L|514:24,2,21.3333333333333,2|2|2,0:3|0:0|0:0,0:0:0:0:
