osu file format v14

[General]
AudioFilename: audio.mp3
AudioLeadIn: 0
PreviewTime: 45230
Countdown: 0
SampleSet: Soft
StackLeniency: 0.7
Mode: 0
LetterboxInBreaks: 0
WidescreenStoryboard: 1

[Editor]
DistanceSpacing: 2.2
BeatDivisor: 4
GridSize: 4
TimelineZoom: 2.4

[Metadata]
Title:Yajirushi-> (TV Size)
TitleUnicode:やじるし→ (TV Size)
Artist:Pokapoka Ion
ArtistUnicode:ぽかぽかイオン
Creator:Garden
Version:Expert
Source:スローループ
Tags:slow loop anime opening short version japanese pop jpop j-pop pokaxion 東山奈央 touyama nao 安野希世乃 yasuno kiyono fishing Moegi Firika Rage Quit zhuizhui
BeatmapID:3445595
BeatmapSetID:1685918

[Difficulty]
HPDrainRate:6
CircleSize:4
OverallDifficulty:8.5
ApproachRate:9
SliderMultiplier:1.8
SliderTickRate:1

[Events]
//Background and Video events
0,0,"01.jpg",0,0
Video,-320,"SlowLoop-OP1.mp4"
//Break Periods
//Storyboard Layer 0 (Background)
//Storyboard Layer 1 (Fail)
//Storyboard Layer 2 (Pass)
//Storyboard Layer 3 (Foreground)
//Storyboard Layer 4 (Overlay)
//Storyboard Sound Samples

[TimingPoints]
320,357.142857142857,4,2,1,40,1,0
320,-111.111111111111,4,2,1,40,0,0
10498,-117.647058823529,4,2,1,40,0,0
11034,-50,4,2,1,40,0,0
11212,-66.6666666666667,4,2,1,40,0,0
11748,-100,4,2,1,50,0,0
23177,-111.111111111111,4,2,1,50,0,0
33891,-71.4285714285714,4,2,1,50,0,0
34605,-111.111111111111,4,2,1,50,0,0
37284,-66.6666666666667,4,2,1,50,0,0
37462,-111.111111111111,4,2,1,50,0,0
40319,-100,4,2,1,50,0,0
41034,-125,4,2,1,50,0,0
41391,-100,4,2,1,50,0,0
42462,-125,4,2,1,50,0,0
43177,-83.3333333333333,4,2,1,50,0,0
45319,-71.4285714285714,4,2,1,50,0,0
46034,-83.3333333333333,4,2,1,60,0,1
55855,-71.4285714285714,4,2,1,60,0,1
57462,-83.3333333333333,4,2,1,60,0,1
74605,-83.3333333333333,4,2,1,60,0,0
86391,-100,4,2,1,30,0,0
89069,-100,4,2,1,5,0,0

[Colours]
Combo1 : 180,180,218
Combo2 : 255,205,155

[HitObjects]
74,193,141,6,0,P|63:217|67:243,1,45
9,304,320,2,0,P|70:255|175:264,1,161.999995056153,4|0,0:0|0:0,0:0:0:0:
146,106,855,2,0,P|163:161|220:172,1,121.499996292114,2|0,0:0|0:0,0:0:0:0:
220,171,1212,1,0,0:0:0:0:
299,240,1391,6,0,P|303:201|334:159,1,80.9999975280763,2|0,0:0|0:0,0:0:0:0:
405,131,1748,1,0,0:0:0:0:
255,8,1927,2,0,P|311:18|329:73,1,121.499996292114,2|0,0:0|0:0,0:0:0:0:
328,74,2284,1,0,0:0:0:0:
440,4,2462,5,2,0:0:0:0:
325,166,2641,1,0,0:0:0:0:
483,287,2819,1,2,0:0:0:0:
492,200,2998,5,0,0:0:0:0:
461,188,3087,1,0,0:0:0:0:
437,212,3177,1,2,0:0:0:0:
483,287,3355,5,0,0:0:0:0:
423,353,3534,1,0,0:0:0:0:
339,321,3712,2,0,P|340:289|365:238,1,80.9999975280763,2|0,0:0|0:0,0:0:0:0:
461,188,4069,5,0,0:0:0:0:
475,158,4159,1,0,0:0:0:0:
451,135,4248,2,0,P|383:157|289:180,1,161.999995056153,2|0,0:0|0:0,0:0:0:0:
162,42,4784,2,0,P|210:48|228:81,1,80.9999975280763,2|0,0:0|0:0,0:0:0:0:
211,240,5141,5,0,0:0:0:0:
211,240,5230,1,0,0:0:0:0:
211,240,5319,2,0,P|203:184|182:146,1,80.9999975280763,2|0,0:0|0:0,0:0:0:0:
295,178,5677,1,0,0:0:0:0:
79,86,5855,1,2,0:0:0:0:
65,124,5944,1,2,0:0:0:0:
97,148,6034,5,2,0:3:0:0:
226,72,6212,1,2,0:0:0:0:
97,1,6391,1,2,0:0:0:0:
192,181,6569,5,0,0:0:0:0:
207,171,6748,1,2,0:0:0:0:
192,162,6927,1,2,0:0:0:0:
430,245,7284,1,0,0:0:0:0:
415,236,7462,5,2,0:0:0:0:
286,312,7641,1,2,0:0:0:0:
415,383,7819,1,2,0:0:0:0:
320,203,7998,5,0,0:0:0:0:
305,213,8177,1,2,0:0:0:0:
320,222,8355,1,2,0:0:0:0:
415,236,8534,5,0,0:0:0:0:
467,51,8712,1,2,0:0:0:0:
503,68,8802,1,2,0:0:0:0:
500,108,8891,5,2,0:0:0:0:
327,48,9069,1,2,0:0:0:0:
208,188,9248,1,2,0:0:0:0:
260,260,9427,5,0,0:0:0:0:
208,333,9605,1,2,0:0:0:0:
123,305,9784,1,2,0:0:0:0:
119,215,9962,5,2,0:0:0:0:
208,333,10141,1,2,0:0:0:0:
208,188,10319,1,2,0:0:0:0:
42,313,10498,6,0,P|110:278|185:260,1,153.000002918243,12|0,0:3|0:0,0:0:0:0:
218,45,11034,6,0,P|233:83|196:114,1,90,14|0,0:3|0:0,0:0:0:0:
126,183,11212,1,2,0:0:0:0:
126,183,11302,1,2,0:0:0:0:
126,183,11391,2,0,B|190:177|219:229|188:235|228:291|302:277,1,202.500007724762,4|0,0:3|0:0,0:0:0:0:
311,274,11748,6,0,P|303:220|289:167,1,90,4|0,3:2|0:0,0:0:0:0:
456,85,12105,2,0,P|473:167|400:208,1,180,2|2,0:0|0:0,0:0:0:0:
399,207,12641,1,0,0:0:0:0:
297,93,12819,2,0,P|340:103|380:124,1,90,2|0,3:2|0:0,0:0:0:0:
203,64,13177,1,2,0:0:0:0:
372,31,13355,2,0,P|318:49|178:82,1,180,2|0,3:2|0:0,0:0:0:0:
67,3,13891,5,2,3:2:0:0:
140,144,14069,1,0,0:0:0:0:
213,285,14248,1,2,0:0:0:0:
116,323,14427,5,0,0:0:0:0:
116,323,14605,2,0,P|125:282|134:228,1,90,2|0,3:2|0:0,0:0:0:0:
256,205,14962,2,0,P|230:309|221:407,1,180,2|2,0:0|0:0,0:0:0:0:
221,381,15498,1,0,0:0:0:0:
404,294,15677,2,0,P|392:252|352:235,1,90,2|0,3:2|0:0,0:0:0:0:
381,120,16034,1,2,0:0:0:0:
256,205,16212,2,0,P|341:210|382:136,1,180,0|0,3:0|0:0,0:0:0:0:
454,43,16748,5,2,3:2:0:0:
294,124,16927,1,0,0:0:0:0:
134,205,17105,1,2,0:0:0:0:
106,111,17284,5,0,3:2:0:0:
106,111,17462,2,0,P|148:119|207:128,1,90,2|0,3:2|0:0,0:0:0:0:
199,323,17819,2,0,P|122:287|134:204,1,180,2|2,0:0|0:0,0:0:0:0:
133,204,18355,1,0,0:0:0:0:
275,258,18534,2,0,P|287:301|295:345,1,90,2|0,3:2|0:0,0:0:0:0:
386,270,18891,1,2,0:0:0:0:
198,323,19069,2,0,P|282:296|377:274,1,180,2|0,3:2|0:0,0:0:0:0:
444,342,19605,5,2,3:2:0:0:
401,186,19784,1,0,0:0:0:0:
358,30,19962,1,2,0:0:0:0:
452,10,20141,5,0,0:0:0:0:
452,10,20319,2,0,P|438:52|428:96,1,90,2|0,3:2|0:0,0:0:0:0:
493,160,20677,5,2,0:0:0:0:
358,30,20855,1,0,3:0:0:0:
314,210,21034,2,0,P|356:196|400:186,1,90,2|0,3:2|0:0,0:0:0:0:
358,30,21391,6,0,P|268:50|271:131,1,180,2|2,3:2|0:0,0:0:0:0:
266,124,21927,1,0,3:0:0:0:
314,210,22105,2,0,B|215:224|260:282|163:297,1,180,2|2,0:0|3:0,0:0:0:0:
71,372,22998,6,0,P|82:347|84:330,1,45,2|2,0:0|0:0,0:0:0:0:
87,247,23177,5,4,3:2:0:0:
7,227,23355,1,2,0:0:0:0:
166,211,23534,5,0,3:0:0:0:
87,233,23712,1,2,0:0:0:0:
220,139,23891,5,0,3:0:0:0:
162,197,24069,1,2,0:0:0:0:
234,45,24248,5,0,3:0:0:0:
215,124,24427,1,2,0:0:0:0:
370,170,24605,5,0,3:0:0:0:
370,170,24784,2,0,P|325:162|288:126,1,80.9999975280763,2|0,0:0|3:0,0:0:0:0:
371,13,25141,2,0,P|452:75|409:137,1,161.999995056153,2|2,0:0|0:0,0:0:0:0:
483,250,25677,2,0,P|503:215|503:175,1,80.9999975280763,0|2,3:0|0:0,0:0:0:0:
360,344,26034,5,0,3:0:0:0:
440,324,26212,1,2,0:0:0:0:
281,308,26391,5,0,3:0:0:0:
360,330,26569,1,2,0:0:0:0:
227,236,26748,5,0,3:0:0:0:
285,294,26927,1,2,0:0:0:0:
213,142,27105,5,0,3:0:0:0:
232,221,27284,1,2,0:0:0:0:
31,128,27462,5,0,3:0:0:0:
31,128,27641,2,0,P|76:201|155:191,1,161.999995056153,2|2,0:0|0:0,0:0:0:0:
144,197,28087,1,2,0:0:0:0:
144,197,28177,1,2,3:2:0:0:
185,44,28355,1,2,0:0:0:0:
120,119,28534,2,0,P|111:79|84:50,1,80.9999975280763,0|2,3:0|0:0,0:0:0:0:
265,22,28891,5,4,3:2:0:0:
247,100,29069,1,2,0:0:0:0:
335,130,29248,5,0,3:0:0:0:
257,112,29427,1,2,0:0:0:0:
329,218,29605,5,0,3:0:0:0:
347,140,29784,1,2,0:0:0:0:
417,245,29962,5,0,3:0:0:0:
339,227,30141,1,2,0:0:0:0:
358,357,30319,5,0,3:0:0:0:
358,357,30498,2,0,P|406:354|434:311,1,80.9999975280763,2|0,0:0|3:0,0:0:0:0:
490,196,30855,2,0,P|486:109|410:100,1,161.999995056153,2|2,0:0|0:0,0:0:0:0:
417,245,31391,1,0,3:0:0:0:
499,282,31569,1,2,0:0:0:0:
324,271,31748,6,0,L|346:173,1,80.9999975280763,2|0,3:2|0:0,0:0:0:0:
341,191,32105,2,0,L|243:169,1,80.9999975280763,2|0,3:2|0:0,0:0:0:0:
246,324,32462,6,0,L|166:306,1,80.9999975280763,2|0,3:2|0:0,0:0:0:0:
166,306,32819,2,0,L|183:226,1,80.9999975280763,2|0,3:2|0:0,0:0:0:0:
0,151,33177,6,0,P|13:76|88:63,1,161.999995056153,2|2,3:2|3:2,0:0:0:0:
153,140,33712,1,2,0:0:0:0:
153,140,33802,1,2,0:0:0:0:
153,140,33891,2,0,L|89:158,1,62.9999980773926,2|0,3:0|0:0,0:0:0:0:
239,14,34069,2,0,L|221:78,1,62.9999980773926,4|0,3:0|0:0,0:0:0:0:
182,226,34248,1,2,1:2:0:0:
182,226,34427,6,0,L|242:208,1,62.9999980773926,4|0,3:0|0:0,0:0:0:0:
399,161,34605,2,0,P|282:183|276:299,1,242.999992584229,4|0,3:2|3:0,0:0:0:0:
416,382,35319,2,0,B|416:285|351:334|354:240,1,161.999995056153,2|0,1:2|0:0,0:0:0:0:
448,242,35855,5,0,3:0:0:0:
448,242,36034,2,0,P|495:221|506:176,1,80.9999975280763,2|0,0:0|1:0,0:0:0:0:
487,107,36391,2,0,P|411:96|323:74,1,161.999995056153,2|0,3:2|1:0,0:0:0:0:
223,12,36927,2,0,P|232:44|241:97,1,80.9999975280763,2|0,0:0|0:0,0:0:0:0:
194,261,37284,6,0,P|164:245|159:213,1,67.5000025749208,0|0,3:0|0:0,0:0:0:0:
81,83,37462,2,0,P|196:81|245:184,1,242.999992584229,2|0,3:2|3:0,0:0:0:0:
140,331,38177,2,0,B|230:331|190:266|280:267,1,161.999995056153,2|0,1:2|0:0,0:0:0:0:
416,158,38712,5,0,3:0:0:0:
333,193,38891,1,2,0:0:0:0:
368,274,39069,1,0,1:0:0:0:
450,239,39248,1,0,3:0:0:0:
450,239,39605,5,0,1:0:0:0:
416,158,39784,2,0,P|422:118|445:76,1,80.9999975280763,2|0,0:0|0:0,0:0:0:0:
325,98,40141,5,0,3:0:0:0:
509,9,40319,2,0,P|489:77|311:110,1,270,4|0,3:2|3:0,0:0:0:0:
105,175,41034,2,0,P|135:113|203:109,1,144,2|0,1:2|0:0,0:0:0:0:
314,112,41569,5,0,3:0:0:0:
200,16,41748,2,0,P|231:130|252:304,1,270,4|0,3:2|3:0,0:0:0:0:
437,323,42462,2,0,P|403:255|331:258,1,144,2|0,1:2|0:0,0:0:0:0:
320,338,42998,5,0,1:0:0:0:
326,355,43087,1,0,1:0:0:0:
319,374,43177,2,0,P|243:359|139:349,1,161.999995056153,4|0,3:2|0:0,0:0:0:0:
134,346,43534,2,0,P|122:321|118:295,1,53.9999983520508,12|0,0:3|0:0,0:0:0:0:
42,237,43712,2,0,P|38:210|26:186,1,53.9999983520508,4|0,0:3|0:0,0:0:0:0:
215,268,43891,5,2,0:0:0:0:
44,382,44069,1,0,3:0:0:0:
212,175,44248,2,0,B|283:170|318:221|281:245|315:303|358:335|417:313|425:278|429:234|383:217,1,323.999990112305,4|0,1:2|3:0,0:0:0:0:
393,222,44962,1,0,1:0:0:0:
283,34,45319,6,0,P|280:64|300:87,1,62.9999980773926,2|0,3:0|3:0,0:0:0:0:
480,186,45498,1,0,1:0:0:0:
480,186,45587,1,0,1:0:0:0:
480,186,45677,2,0,P|440:138|343:153,1,125.999996154785,2|0,1:2|3:0,0:0:0:0:
215,268,46034,1,4,3:2:0:0:
215,268,46391,6,0,P|299:236|393:219,1,161.999995056153,2|0,1:2|0:0,0:0:0:0:
393,222,46748,1,2,3:2:0:0:
475,66,46927,1,0,3:0:0:0:
284,209,47105,1,0,1:0:0:0:
446,384,47284,2,0,P|453:330|471:279,1,107.999996704102,2|0,0:0|3:0,0:0:0:0:
379,32,47641,2,0,P|371:85|353:136,1,107.999996704102,2|0,0:0|1:0,0:0:0:0:
353,135,47998,2,0,P|383:125|407:121,1,53.9999983520508,2|0,3:2|0:0,0:0:0:0:
475,66,48177,5,2,0:0:0:0:
369,221,48355,1,0,3:0:0:0:
186,161,48534,1,0,1:0:0:0:
289,363,48712,5,2,0:0:0:0:
326,340,48802,1,2,0:0:0:0:
320,297,48891,1,2,3:0:0:0:
320,297,49248,6,0,P|236:329|142:346,1,161.999995056153,2|0,1:2|0:0,0:0:0:0:
139,345,49605,1,2,3:2:0:0:
56,183,49784,1,0,3:0:0:0:
231,302,49962,1,0,1:0:0:0:
34,384,50141,2,0,P|51:333|58:279,1,107.999996704102,2|0,0:0|3:0,0:0:0:0:
249,107,50498,2,0,P|231:157|222:211,1,107.999996704102,2|0,0:0|1:0,0:0:0:0:
222,211,50855,2,0,P|195:215|169:224,1,53.9999983520508,2|0,3:2|0:0,0:0:0:0:
165,63,51034,5,2,0:0:0:0:
309,245,51212,1,0,3:0:0:0:
512,131,51391,1,0,1:0:0:0:
410,378,51569,5,2,0:0:0:0:
373,355,51659,1,2,0:0:0:0:
379,312,51748,1,2,3:0:0:0:
379,312,52105,6,0,P|456:304|494:234,1,161.999995056153,2|0,1:2|0:0,0:0:0:0:
465,216,52462,2,0,P|427:190|430:108,1,107.999996704102,2|0,3:2|3:0,0:0:0:0:
324,94,52819,1,0,1:0:0:0:
511,14,52998,2,0,P|411:53|308:85,1,215.999993408203,2|2,3:2|0:0,0:0:0:0:
125,76,53534,6,0,P|177:72|215:108,1,107.999996704102,2|0,1:2|3:0,0:0:0:0:
421,136,53891,2,0,P|398:183|348:198,1,107.999996704102,2|0,3:2|3:0,0:0:0:0:
221,363,54248,2,0,P|191:319|203:268,1,107.999996704102,2|2,1:2|0:0,0:0:0:0:
298,279,54516,1,2,0:0:0:0:
296,295,54605,2,0,P|211:326|85:358,1,215.999993408203,2|0,3:2|1:2,0:0:0:0:
150,204,55141,5,2,0:0:0:0:
148,192,55230,1,2,0:0:0:0:
146,180,55319,2,0,P|65:176|16:292,1,215.999993408203,2|0,3:2|1:0,0:0:0:0:
220,236,55855,6,0,P|238:215|238:176,1,62.9999980773926,2|0,3:2|0:0,0:0:0:0:
138,79,56034,2,0,B|209:68|252:129|202:121|263:202|349:181,1,251.999992309571,2|0,3:0|1:2,0:0:0:0:
369,46,56569,5,2,0:0:0:0:
373,57,56659,1,2,0:0:0:0:
376,68,56748,2,0,P|346:88|306:86,1,62.9999980773926,2|0,3:2|0:0,0:0:0:0:
319,277,56927,5,0,1:0:0:0:
352,281,57016,1,0,1:0:0:0:
389,273,57105,1,0,1:0:0:0:
420,250,57194,1,0,1:0:0:0:
440,219,57284,1,0,1:0:0:0:
447,182,57373,1,0,1:0:0:0:
441,145,57462,1,4,3:2:0:0:
294,4,57819,6,0,P|338:87|349:169,1,161.999995056153,2|0,1:2|0:0,0:0:0:0:
347,181,58177,1,2,3:2:0:0:
411,9,58355,1,0,3:0:0:0:
250,137,58534,1,0,1:0:0:0:
465,311,58712,2,0,P|382:275|248:238,1,215.999993408203,2|2,0:0|0:0,0:0:0:0:
140,359,59248,2,0,P|191:365|229:329,1,107.999996704102,2|0,1:2|3:0,0:0:0:0:
64,118,59605,5,2,0:0:0:0:
162,269,59784,1,0,3:0:0:0:
21,378,59962,1,0,1:0:0:0:
261,240,60141,5,2,0:0:0:0:
254,197,60230,1,2,0:0:0:0:
212,185,60319,1,2,3:0:0:0:
212,185,60677,6,0,P|297:165|373:128,1,161.999995056153,2|0,1:2|0:0,0:0:0:0:
387,118,61034,1,2,3:2:0:0:
223,79,61212,1,0,3:0:0:0:
362,239,61391,1,0,1:0:0:0:
512,2,61569,2,0,P|476:108|454:216,1,215.999993408203,2|2,0:0|0:0,0:0:0:0:
362,239,62105,1,0,1:0:0:0:
507,384,62284,2,0,P|410:334|273:314,1,215.999993408203,2|2,3:2|3:2,0:0:0:0:
315,116,62819,1,0,1:0:0:0:
315,116,62998,6,0,P|301:138|299:165,1,53.9999983520508,2|0,0:0|0:0,0:0:0:0:
361,238,63177,2,0,P|321:332|220:332,1,215.999993408203,4|0,3:2|1:0,0:0:0:0:
208,146,63712,1,2,0:0:0:0:
108,338,63891,2,0,B|140:214|192:286|220:161,1,215.999993408203,2|0,3:2|1:0,0:0:0:0:
80,61,64427,6,0,P|100:100|116:175,1,107.999996704102,4|0,3:2|0:0,0:0:0:0:
40,232,64784,1,0,3:0:0:0:
191,80,64962,1,0,1:0:0:0:
0,5,65141,1,2,0:0:0:0:
115,162,65319,2,0,P|218:116|323:106,1,215.999993408203,2|0,3:2|1:0,0:0:0:0:
489,168,65855,6,0,P|465:183|424:184,1,53.9999983520508,2|0,0:0|0:0,0:0:0:0:
395,282,66034,2,0,P|444:243|432:193,1,107.999996704102,4|0,3:2|0:0,0:0:0:0:
405,0,66391,2,0,P|367:63|345:238,1,215.999993408203,2|0,1:2|3:0,0:0:0:0:
288,5,66927,1,2,3:2:0:0:
457,113,67105,1,0,1:0:0:0:
245,233,67284,6,0,P|189:232|137:202,1,107.999996704102,4|2,3:2|0:0,0:0:0:0:
340,201,67641,1,0,3:0:0:0:
173,318,67819,1,0,1:0:0:0:
83,45,67998,6,0,P|191:51|204:164,1,215.999993408203,4|8,3:2|3:0,0:0:0:0:
419,261,68534,1,2,1:2:0:0:
415,298,68623,1,0,1:0:0:0:
387,324,68712,1,0,1:0:0:0:
349,329,68802,1,0,1:0:0:0:
319,305,68891,6,0,P|321:262|351:180,1,107.999996704102,4|0,3:2|0:0,0:0:0:0:
385,25,69248,2,0,P|437:32|466:77,1,107.999996704102,2|0,1:2|0:0,0:0:0:0:
245,233,69605,2,0,P|385:157|382:111,1,215.999993408203,2|0,3:2|1:0,0:0:0:0:
153,220,70141,1,2,0:0:0:0:
153,220,70230,1,2,0:0:0:0:
153,220,70319,2,0,P|132:262|132:334,1,107.999996704102,2|0,3:2|0:0,0:0:0:0:
63,170,70677,1,0,1:0:0:0:
155,120,70855,6,0,P|207:98|259:96,1,107.999996704102,0|2,3:0|0:0,0:0:0:0:
63,170,71212,1,0,3:0:0:0:
287,4,71391,2,0,P|362:38|356:110,1,161.999995056153,2|0,1:2|0:0,0:0:0:0:
344,140,71748,6,0,P|409:136|462:115,1,107.999996704102,4|0,3:2|0:0,0:0:0:0:
318,316,72105,2,0,P|280:281|283:229,1,107.999996704102,2|0,1:2|0:0,0:0:0:0:
504,370,72462,2,0,P|470:253|350:267,1,215.999993408203,2|0,3:2|1:0,0:0:0:0:
449,121,72998,5,0,3:0:0:0:
479,98,73088,1,0,3:0:0:0:
466,63,73177,1,4,1:2:0:0:
283,228,73355,1,0,3:0:0:0:
267,0,73534,1,2,1:2:0:0:
332,122,73712,5,0,1:0:0:0:
338,131,73802,1,0,1:0:0:0:
344,140,73891,2,0,P|354:100|362:76,1,53.9999983520508,0|0,1:0|1:0,0:0:0:0:
147,40,74069,2,0,P|136:79|129:104,1,53.9999983520508,0|0,1:0|1:0,0:0:0:0:
204,277,74248,1,0,1:0:0:0:
191,230,74337,1,0,1:0:0:0:
157,194,74427,1,0,1:0:0:0:
109,183,74516,1,0,1:0:0:0:
61,192,74605,5,4,3:2:0:0:
226,363,74784,1,2,3:2:0:0:
449,284,74962,1,0,1:0:0:0:
469,46,75141,1,2,3:2:0:0:
386,20,75319,5,0,1:2:0:0:
386,20,75677,5,0,1:0:0:0:
469,133,75855,1,2,3:2:0:0:
336,90,76034,1,0,1:0:0:0:
469,46,76212,1,2,3:2:0:0:
386,160,76391,5,0,1:0:0:0:
386,20,76569,1,0,3:0:0:0:
386,20,76659,1,0,3:0:0:0:
386,20,76748,1,0,1:0:0:0:
469,133,76927,1,2,3:2:0:0:
336,90,77105,1,0,1:0:0:0:
469,46,77284,1,2,3:2:0:0:
386,160,77462,5,4,1:2:0:0:
207,2,77641,1,2,3:2:0:0:
52,181,77819,1,0,1:0:0:0:
231,339,77998,1,2,3:2:0:0:
154,380,78177,5,0,1:0:0:0:
154,380,78534,5,0,1:0:0:0:
222,255,78712,1,2,3:2:0:0:
94,313,78891,1,0,1:0:0:0:
231,339,79069,1,2,3:2:0:0:
135,238,79248,5,0,1:0:0:0:
154,380,79427,1,0,3:0:0:0:
154,380,79516,1,0,3:0:0:0:
154,380,79605,1,0,1:0:0:0:
222,255,79784,1,2,3:2:0:0:
94,313,79962,1,0,1:0:0:0:
231,339,80141,1,2,3:2:0:0:
135,238,80319,5,4,1:2:0:0:
246,27,80498,1,2,3:2:0:0:
478,77,80677,1,0,1:0:0:0:
489,314,80855,1,2,3:2:0:0:
430,380,81034,5,0,1:0:0:0:
430,380,81391,5,0,1:0:0:0:
445,240,81569,1,2,3:2:0:0:
352,344,81748,1,0,1:0:0:0:
489,314,81927,1,2,3:2:0:0:
361,258,82105,5,0,1:0:0:0:
430,380,82284,1,0,3:0:0:0:
430,380,82373,1,0,3:0:0:0:
430,380,82462,1,0,1:0:0:0:
445,240,82641,1,2,3:2:0:0:
352,344,82819,1,0,1:0:0:0:
489,314,82998,1,2,3:2:0:0:
361,258,83177,5,4,1:2:0:0:
152,370,83355,1,2,3:2:0:0:
40,159,83534,1,0,1:0:0:0:
249,47,83712,1,2,3:2:0:0:
166,0,83891,5,0,1:0:0:0:
166,0,84248,5,0,1:0:0:0:
154,89,84427,1,0,3:0:0:0:
156,104,84516,1,0,3:0:0:0:
168,114,84605,1,4,1:2:0:0:
76,41,84784,5,2,3:2:0:0:
253,159,84962,1,0,1:0:0:0:
153,365,85141,2,0,P|130:378|103:380,1,53.9999983520508,2|0,3:2|3:0,0:0:0:0:
7,350,85319,5,2,1:2:0:0:
17,319,85409,1,0,1:0:0:0:
40,296,85498,1,2,1:2:0:0:
70,285,85587,1,0,1:0:0:0:
102,284,85677,1,2,1:2:0:0:
132,261,85766,1,0,1:0:0:0:
134,223,85855,1,2,1:2:0:0:
106,196,85944,1,0,1:0:0:0:
228,268,86391,6,0,L|221:297,4,30,2|2|2|2|2,0:3|0:0|0:0|0:0|0:0,0:0:0:0:
256,192,86659,12,0,89069,0:0:0:0:
