osu file format v14

[General]
AudioFilename: audio.mp3
AudioLeadIn: 0
PreviewTime: 45230
Countdown: 0
SampleSet: Soft
StackLeniency: 0.7
Mode: 0
LetterboxInBreaks: 0
WidescreenStoryboard: 1

[Editor]
DistanceSpacing: 1.2
BeatDivisor: 2
GridSize: 4
TimelineZoom: 1

[Metadata]
Title:Yajirushi-> (TV Size)
TitleUnicode:やじるし→ (TV Size)
Artist:Pokapoka Ion
ArtistUnicode:ぽかぽかイオン
Creator:Garden
Version:Easy
Source:スローループ
Tags:slow loop anime opening short version japanese pop jpop j-pop pokaxion 東山奈央 touyama nao 安野希世乃 yasuno kiyono fishing Moegi Firika Rage Quit zhuizhui
BeatmapID:3445593
BeatmapSetID:1685918

[Difficulty]
HPDrainRate:2
CircleSize:2.5
OverallDifficulty:2
ApproachRate:3
SliderMultiplier:0.799999999999999
SliderTickRate:1

[Events]
//Background and Video events
0,0,"01.jpg",0,0
Video,-320,"SlowLoop-OP1.mp4"
//Break Periods
//Storyboard Layer 0 (Background)
//Storyboard Layer 1 (Fail)
//Storyboard Layer 2 (Pass)
//Storyboard Layer 3 (Foreground)
//Storyboard Layer 4 (Overlay)
//Storyboard Sound Samples

[TimingPoints]
320,357.142857142857,4,2,1,40,1,0
320,-111.111111111111,4,2,1,40,0,0
11748,-100,4,2,1,50,0,0
46034,-100,4,2,1,60,0,1
74605,-100,4,2,1,60,0,0
86391,-100,4,2,1,30,0,0
89069,-100,4,2,1,5,0,0

[Colours]
Combo1 : 180,180,218
Combo2 : 255,205,155

[HitObjects]
193,227,320,6,0,P|87:231|13:317,2,215.999993408203,4|2|2,0:0|0:0|0:0,0:0:0:0:
329,333,3177,2,0,P|434:328|509:243,2,215.999993408203,2|2|2,0:0|0:0|0:0,0:0:0:0:
193,227,6034,6,0,L|156:-3,2,215.999993408203,2|2|2,0:3|0:0|0:0,0:0:0:0:
329,333,8891,2,0,L|366:103,2,215.999993408203,2|2|14,0:0|0:0|0:3,0:0:0:0:
139,365,11748,6,0,P|71:324|78:242,1,160,4|2,3:2|0:0,0:0:0:0:
119,169,12819,1,2,3:2:0:0:
119,169,13177,2,0,P|166:161|224:142,1,79.9999999999999,2|0,0:0|0:0,0:0:0:0:
247,70,13891,1,2,3:2:0:0:
430,126,14605,6,0,P|435:84|453:32,2,79.9999999999999,2|2|2,3:2|0:0|0:0,0:0:0:0:
485,212,15677,1,2,3:2:0:0:
485,212,16034,2,0,P|480:251|469:289,1,79.9999999999999,2|0,0:0|0:0,0:0:0:0:
386,339,16748,1,2,3:2:0:0:
220,241,17462,6,0,P|262:161|334:156,1,160,2|2,3:2|0:0,0:0:0:0:
421,129,18534,1,2,3:2:0:0:
421,129,18891,2,0,P|434:77|431:44,1,79.9999999999999,2|0,0:0|0:0,0:0:0:0:
346,7,19605,1,2,3:2:0:0:
163,66,20319,6,0,P|120:63|62:41,2,79.9999999999999,2|2|2,3:2|0:0|3:2,0:0:0:0:
262,57,21391,1,2,3:2:0:0:
262,57,21748,2,0,P|264:136|244:213,1,160,2|2,0:0|3:0,0:0:0:0:
104,345,23177,6,0,P|65:334|25:336,2,79.9999999999999,4|0|2,3:2|3:0|3:2,0:0:0:0:
165,271,24248,1,0,3:0:0:0:
247,320,24605,2,0,P|310:336|380:323,2,120,2|2|0,3:2|0:0|3:0,0:0:0:0:
165,271,26034,6,0,P|136:195|208:122,1,160,2|0,3:2|3:0,0:0:0:0:
260,89,27105,1,2,3:2:0:0:
179,36,27462,2,0,P|116:20|46:33,2,120,2|2|0,3:2|0:0|3:0,0:0:0:0:
260,89,28891,6,0,P|263:132|288:171,1,79.9999999999999,4|0,3:2|3:0,0:0:0:0:
371,211,29605,1,2,3:2:0:0:
371,211,29962,1,0,3:0:0:0:
457,252,30319,2,0,P|489:299|486:368,2,120,2|2|0,3:2|0:0|3:0,0:0:0:0:
371,211,31748,6,0,P|375:171|399:140,1,79.9999999999999,2|2,3:2|3:2,0:0:0:0:
358,53,32462,2,0,P|307:44|267:15,1,79.9999999999999,2|2,3:2|3:2,0:0:0:0:
199,77,33177,2,0,P|194:116|170:148,2,79.9999999999999,2|2|2,3:2|3:2|3:0,0:0:0:0:
124,16,34248,1,2,1:2:0:0:
45,70,34605,6,0,P|22:142|79:192,1,160,4|2,3:2|1:2,0:0:0:0:
2,368,36034,2,0,P|92:315|153:323,1,160,2|0,0:0|1:0,0:0:0:0:
331,359,37462,6,0,P|414:328|412:258,1,160,2|2,3:2|1:2,0:0:0:0:
493,90,38891,2,0,P|431:130|327:131,1,160,2|0,0:0|1:0,0:0:0:0:
190,24,40319,6,0,L|168:197,1,160,4|2,3:2|1:2,0:0:0:0:
360,160,41748,2,0,L|382:333,1,160,4|2,3:2|1:2,0:0:0:0:
189,344,43177,6,0,P|111:349|61:287,1,160,4|2,3:2|0:0,0:0:0:0:
46,196,44248,2,0,P|131:176|209:135,1,160,4|0,1:2|1:0,0:0:0:0:
269,81,45319,1,2,3:0:0:0:
443,162,46034,6,0,P|403:168|367:186,1,79.9999999999999,4|2,3:2|1:2,0:0:0:0:
310,262,46748,2,0,P|321:318|384:335,2,120,2|2|0,3:2|0:0|1:0,0:0:0:0:
218,230,48177,1,2,0:0:0:0:
279,155,48534,2,0,P|270:108|224:73,1,79.9999999999999,0|2,1:0|3:0,0:0:0:0:
162,44,49248,5,2,1:2:0:0:
83,99,49605,2,0,P|24:78|13:21,2,120,2|2|0,3:2|0:0|1:0,0:0:0:0:
170,139,51034,1,2,0:0:0:0:
115,217,51391,2,0,P|119:261|142:302,1,79.9999999999999,0|2,1:0|3:0,0:0:0:0:
220,335,52105,5,2,1:2:0:0:
299,281,52462,2,0,P|366:297|371:367,2,120,2|2|2,3:2|3:2|1:2,0:0:0:0:
248,199,53891,1,2,3:2:0:0:
327,145,54248,1,2,1:2:0:0:
268,68,54605,6,0,B|177:58|211:128|120:106,2,160,2|2|2,3:2|3:2|3:0,0:0:0:0:
348,14,56391,1,0,1:2:0:0:
440,39,56748,1,2,3:2:0:0:
472,129,57105,2,0,P|470:168|451:204,1,79.9999999999999,0|4,1:0|3:2,0:0:0:0:
365,245,57819,5,2,1:2:0:0:
420,323,58177,2,0,P|477:324|512:371,2,120,2|2|2,3:2|0:0|1:2,0:0:0:0:
332,362,59605,1,2,0:0:0:0:
270,288,59962,2,0,P|259:258|267:194,1,79.9999999999999,0|2,1:0|3:0,0:0:0:0:
296,121,60677,5,2,1:2:0:0:
386,152,61034,2,0,P|457:144|483:98,2,120,2|2|0,3:2|0:0|1:0,0:0:0:0:
296,121,62462,2,0,P|260:117|218:105,1,79.9999999999999,2|0,0:0|1:0,0:0:0:0:
149,38,63177,6,0,P|75:32|23:121,1,160,4|2,3:2|3:2,0:0:0:0:
15,188,64248,1,0,1:0:0:0:
90,246,64605,2,0,P|174:263|259:254,1,160,2|2,0:0|3:2,0:0:0:0:
334,214,65677,1,0,1:0:0:0:
397,287,66034,6,0,P|385:325|386:365,1,79.9999999999999,4|2,3:2|1:2,0:0:0:0:
481,375,66748,2,0,P|492:336|491:296,1,79.9999999999999,2|0,3:2|1:0,0:0:0:0:
457,207,67462,2,0,P|507:150|442:74,1,160,2|2,0:0|0:0,0:0:0:0:
396,25,68534,1,2,1:2:0:0:
323,87,68891,6,0,P|314:125|316:165,1,79.9999999999999,4|2,3:2|1:2,0:0:0:0:
362,249,69605,2,0,P|280:282|195:284,1,160,2|2,3:2|3:2,0:0:0:0:
131,342,70677,1,0,1:0:0:0:
44,300,71034,2,0,P|28:263|34:223,1,79.9999999999999,2|2,0:0|1:2,0:0:0:0:
93,149,71748,5,4,3:2:0:0:
184,179,72105,1,2,1:2:0:0:
248,108,72462,2,0,P|333:71|403:73,1,160,2|4,3:2|1:2,0:0:0:0:
484,115,73534,1,2,1:2:0:0:
408,174,73891,2,0,P|398:224|412:263,1,79.9999999999999,0|0,1:0|1:0,0:0:0:0:
343,324,74605,5,4,3:2:0:0:
343,324,74962,2,0,P|307:339|260:341,1,79.9999999999999,0|0,1:0|1:2,0:0:0:0:
188,284,75677,2,0,P|148:286|111:301,2,79.9999999999999,0|0|0,1:0|1:0|1:0,0:0:0:0:
260,220,76748,2,0,P|261:178|241:134,1,79.9999999999999,0|0,1:0|1:0,0:0:0:0:
194,70,77462,5,4,1:2:0:0:
194,70,77819,2,0,P|161:84|97:81,1,79.9999999999999,0|0,1:0|1:0,0:0:0:0:
20,84,78534,2,0,P|9:46|7:6,2,79.9999999999999,0|0|0,1:0|1:0|1:0,0:0:0:0:
69,167,79605,2,0,P|80:205|82:245,1,79.9999999999999,0|0,1:0|1:0,0:0:0:0:
168,300,80319,5,4,1:2:0:0:
168,300,80677,2,0,P|208:299|264:266,1,79.9999999999999,0|0,1:0|1:0,0:0:0:0:
304,208,81391,2,0,P|340:192|380:191,2,79.9999999999999,0|0|0,1:0|1:0|1:0,0:0:0:0:
216,169,82462,2,0,P|205:130|209:75,1,79.9999999999999,0|0,1:0|1:0,0:0:0:0:
285,35,83177,5,4,1:2:0:0:
285,35,83534,2,0,P|327:33|367:18,1,79.9999999999999,0|0,1:0|1:0,0:0:0:0:
431,85,84248,2,0,P|468:73|508:71,2,79.9999999999999,0|4|0,1:0|1:2|1:0,0:0:0:0:
398,176,85319,2,0,P|416:218|359:263,1,120,2|2,1:2|1:2,0:0:0:0:
256,192,86391,12,0,89069,0:0:0:0:
