osu file format v14

[General]
AudioFilename: audio.mp3
AudioLeadIn: 0
PreviewTime: -1
Countdown: 1
SampleSet: Normal
StackLeniency: 1
Mode: 0
LetterboxInBreaks: 0
WidescreenStoryboard: 1

[Editor]
DistanceSpacing: 0.9
BeatDivisor: 8
GridSize: 4
TimelineZoom: 1

[Metadata]
Title:Esson baariin (Short Ver.)
TitleUnicode:Esson baariin (Short Ver.)
Artist:Poju
ArtistUnicode:Poju
Creator:RamGuyy
Version:Kolikko Advanced
Source:youtube
Tags:Finland, suomi
BeatmapID:1745541
BeatmapSetID:832818

[Difficulty]
HPDrainRate:6
CircleSize:3
OverallDifficulty:5
ApproachRate:8
SliderMultiplier:1.1
SliderTickRate:1

[Events]
//Background and Video events
0,0,"anime_anime_girls_bar_Clarisse_Granblue_Fantasy_Granblue_Fantasy-82679.jpg",0,0
//Break Periods
//Storyboard Layer 0 (Background)
//Storyboard Layer 1 (Fail)
//Storyboard Layer 2 (Pass)
//Storyboard Layer 3 (Foreground)
//Storyboard Sound Samples

[TimingPoints]
4070.55891660178,465.116279069767,4,1,0,100,1,0
4128,-100,4,1,0,100,0,1
15233,-100,4,1,0,100,0,0

[Colours]
Combo1 : 161,24,63
Combo2 : 24,84,161
Combo3 : 24,161,84
Combo4 : 136,24,161

[HitObjects]
350,84,349,5,0,0:0:0:0:
226,277,698,1,0,0:0:0:0:
126,168,1047,2,0,B|117:127|135:105|152:93,1,82.5
256,192,1686,12,0,3721,0:0:0:0:
360,95,4070,5,0,0:0:0:0:
200,228,4535,1,0,0:0:0:0:
310,295,5000,2,0,B|346:293|370:267|367:250,1,68.75
276,82,5465,1,0,0:0:0:0:
213,302,5931,1,0,0:0:0:0:
380,172,6396,1,0,0:0:0:0:
271,74,6861,2,0,B|246:71|192:73|141:95,1,123.75
238,263,7849,1,0,0:0:0:0:
389,43,8314,5,0,0:0:0:0:
359,277,8779,1,0,0:0:0:0:
136,96,9244,1,0,0:0:0:0:
284,155,9710,1,0,0:0:0:0:
183,192,10175,1,0,0:0:0:0:
275,83,10640,1,0,0:0:0:0:
327,155,10872,2,0,P|336:183|330:219,2,55
127,88,11570,1,0,0:0:0:0:
356,308,12035,5,0,0:0:0:0:
276,70,12500,1,0,0:0:0:0:
151,221,12965,2,0,P|167:236|205:240,1,55
351,119,13431,1,0,0:0:0:0:
357,303,13721,1,0,0:0:0:0:
320,185,13954,2,0,B|320:163|312:129|254:117,1,96.25
133,273,14651,2,0,P|171:299|186:300,1,55
381,270,15117,1,0,0:0:0:0:
364,82,15291,5,0,0:0:0:0:
168,85,15582,1,0,0:0:0:0:
294,211,15814,1,0,0:0:0:0:
168,85,16047,1,0,0:0:0:0:
363,65,16279,1,0,0:0:0:0:
356,200,16512,2,0,P|346:222|306:240,1,68.75
110,160,16977,1,0,0:0:0:0:
368,90,17210,1,0,0:0:0:0:
295,199,17442,6,0,B|273:221|240:226|208:220|192:190,1,110
253,72,18140,1,0,0:0:0:0:
132,122,18372,1,0,0:0:0:0:
375,243,18605,1,0,0:0:0:0:
186,287,18838,1,0,0:0:0:0:
119,146,19070,2,0,P|123:122|157:94,1,68.75
326,97,19535,1,0,0:0:0:0:
359,272,19768,5,0,0:0:0:0:
172,90,20000,1,0,0:0:0:0:
379,60,20233,1,0,0:0:0:0:
326,210,20465,1,0,0:0:0:0:
200,251,20698,2,0,P|171:250|144:230,2,55
263,85,21396,1,0,0:0:0:0:
334,280,21686,1,0,0:0:0:0:
339,131,21919,2,0,B|360:93|343:73|341:73,3,55
185,252,22849,1,0,0:0:0:0:
371,86,23082,5,0,0:0:0:0:
199,94,23314,1,0,0:0:0:0:
343,247,23547,1,0,0:0:0:0:
125,252,23779,1,0,0:0:0:0:
96,150,24012,2,0,P|93:129|116:98,1,55
371,88,24477,1,0,0:0:0:0:
198,259,24710,1,0,0:0:0:0:
373,241,24942,1,0,0:0:0:0:
185,124,25175,1,0,0:0:0:0:
314,69,25407,5,0,0:0:0:0:
229,267,25640,1,0,0:0:0:0:
389,176,25872,1,0,0:0:0:0:
129,137,26105,1,0,0:0:0:0:
232,87,26338,2,0,P|261:71|302:67,1,68.75
386,191,26803,1,0,0:0:0:0:
229,268,27035,1,0,0:0:0:0:
148,124,27268,1,0,0:0:0:0:
365,85,27500,5,0,0:0:0:0:
246,256,27733,2,0,B|215:273|180:244|179:241,1,68.75
76,97,28256,1,0,0:0:0:0:
254,188,28489,1,0,0:0:0:0:
185,88,28721,1,0,0:0:0:0:
123,163,28954,1,0,0:0:0:0:
242,172,29186,2,0,B|283:152|282:122|284:127,1,55
280,134,29651,1,0,0:0:0:0:
280,134,29826,1,0,0:0:0:0:
280,134,30058,1,0,0:0:0:0:
391,58,30349,5,0,0:0:0:0:
322,144,30582,1,0,0:0:0:0:
303,53,30814,1,0,0:0:0:0:
413,115,31047,1,0,0:0:0:0:
362,237,31221,2,0,B|348:257|298:264|281:238,2,82.5
362,237,32210,1,0,0:0:0:0:
170,89,32442,5,0,0:0:0:0:
358,51,32675,1,0,0:0:0:0:
212,211,32907,1,0,0:0:0:0:
404,152,33140,1,0,0:0:0:0:
204,65,33372,1,0,0:0:0:0:
298,225,33605,1,0,0:0:0:0:
142,163,33838,1,0,0:0:0:0:
283,87,34070,1,0,0:0:0:0:
