osu file format v14

[General]
AudioFilename: audio.mp3
AudioLeadIn: 0
PreviewTime: -1
Countdown: 1
SampleSet: Normal
StackLeniency: 1
Mode: 0
LetterboxInBreaks: 0
WidescreenStoryboard: 1

[Editor]
DistanceSpacing: 0.9
BeatDivisor: 8
GridSize: 4
TimelineZoom: 1

[Metadata]
Title:Esson baariin (Short Ver.)
TitleUnicode:Esson baariin (Short Ver.)
Artist:Poju
ArtistUnicode:Poju
Creator:RamGuyy
Version:Pian Easy
Source:youtube
Tags:Finland, suomi
BeatmapID:1745565
BeatmapSetID:832818

[Difficulty]
HPDrainRate:4
CircleSize:3
OverallDifficulty:5
ApproachRate:6
SliderMultiplier:1.1
SliderTickRate:1

[Events]
//Background and Video events
0,0,"anime_anime_girls_bar_Clarisse_Granblue_Fantasy_Granblue_Fantasy-82679.jpg",0,0
//Break Periods
//Storyboard Layer 0 (Background)
//Storyboard Layer 1 (Fail)
//Storyboard Layer 2 (Pass)
//Storyboard Layer 3 (Foreground)
//Storyboard Sound Samples

[TimingPoints]
4070.55891660178,465.116279069767,4,1,0,100,1,0
4128,-100,4,1,0,100,0,1
15407,-100,4,1,0,100,0,0

[Colours]
Combo1 : 161,24,63
Combo2 : 24,84,161
Combo3 : 24,161,84
Combo4 : 136,24,161

[HitObjects]
256,192,349,12,0,3605,0:0:0:0:
115,95,4070,5,0,0:0:0:0:
140,187,4535,1,0,0:0:0:0:
174,281,5000,1,0,0:0:0:0:
256,366,5465,2,0,P|300:357|349:257,1,165
299,157,6396,1,0,0:0:0:0:
236,45,6861,1,0,0:0:0:0:
137,105,7326,2,0,B|119:142|132:215|136:217,1,110
197,294,8256,1,0,0:0:0:0:
280,236,8779,5,0,0:0:0:0:
330,166,9186,2,0,P|341:133|282:67,1,123.75
166,69,10175,1,0,0:0:0:0:
86,165,10640,1,0,0:0:0:0:
256,192,10931,12,0,11512,0:0:0:0:
206,276,12035,5,0,0:0:0:0:
321,227,12500,2,0,B|337:157|327:113|323:108,1,110
212,69,13431,1,0,0:0:0:0:
104,115,13896,1,0,0:0:0:0:
87,233,14361,1,0,0:0:0:0:
166,304,14884,2,0,P|204:323|263:308,1,96.25
330,223,15814,5,0,0:0:0:0:
304,124,16279,1,0,0:0:0:0:
218,77,16744,1,0,0:0:0:0:
121,94,17151,2,0,P|87:114|76:180,1,110
201,258,18140,1,0,0:0:0:0:
325,301,18605,2,0,B|380:266|371:229|358:203,1,110
288,126,19535,1,0,0:0:0:0:
188,102,20000,1,0,0:0:0:0:
108,154,20233,6,0,P|90:220|146:312,1,178.75
238,299,21163,1,0,0:0:0:0:
316,234,21628,1,0,0:0:0:0:
326,139,22093,1,0,0:0:0:0:
265,63,22558,1,0,0:0:0:0:
165,73,23082,1,0,0:0:0:0:
113,160,23547,2,0,P|93:204|124:266,2,110
176,102,24710,5,0,0:0:0:0:
253,74,25175,1,0,0:0:0:0:
341,84,25640,1,0,0:0:0:0:
413,145,26105,2,0,P|421:189|379:232,1,110
284,256,26803,1,0,0:0:0:0:
193,228,27268,1,0,0:0:0:0:
134,148,27733,1,0,0:0:0:0:
206,59,28198,6,0,P|254:92|259:100,1,68.75
270,211,28721,1,0,0:0:0:0:
313,297,29128,1,0,0:0:0:0:
356,215,29593,1,0,0:0:0:0:
332,135,30058,2,0,P|300:117|266:103,1,68.75
164,87,30814,2,0,L|136:93,2,27.5
162,211,31279,1,0,0:0:0:0:
243,271,31744,1,0,0:0:0:0:
336,258,32210,6,0,L|344:180,1,68.75
266,128,32675,5,0,0:0:0:0:
168,104,33140,1,0,0:0:0:0:
97,158,33605,1,0,0:0:0:0:
105,264,34070,2,0,P|130:273|166:279,1,55
