osu file format v14

[General]
AudioFilename: audio.mp3
AudioLeadIn: 0
PreviewTime: 25525
Countdown: 0
SampleSet: Soft
StackLeniency: 0.5
Mode: 0
LetterboxInBreaks: 0
WidescreenStoryboard: 1

[Editor]
Bookmarks: 76589,86802,137865
DistanceSpacing: 2
BeatDivisor: 4
GridSize: 32
TimelineZoom: 1.6

[Metadata]
Title:Love Infection
TitleUnicode:Love Infection
Artist::Poin7less
ArtistUnicode::Poin7less
Creator:Ogura Yui
Version:Hard
Source:
Tags:yuuma mpg mappers' guild fa featured artist electronic instrumental happy hardcore
BeatmapID:3574159
BeatmapSetID:1747369

[Difficulty]
HPDrainRate:4
CircleSize:3.2
OverallDifficulty:6
ApproachRate:7
SliderMultiplier:1.4
SliderTickRate:1

[Events]
//Background and Video events
0,0,"yuuma is pro mapper.jpg",0,0
//Break Periods
2,76789,85902
//Storyboard Layer 0 (Background)
//Storyboard Layer 1 (Fail)
//Storyboard Layer 2 (Pass)
//Storyboard Layer 3 (Foreground)
//Storyboard Layer 4 (Overlay)
//Storyboard Sound Samples

[TimingPoints]
5100,319.148936170213,4,2,1,50,1,0
15312,-125,4,2,1,60,0,0
22972,-125,4,2,1,70,0,0
25525,-100,4,2,1,80,0,0
45951,-100,4,2,1,70,0,0
65100,-100,4,2,1,80,0,0
66376,-100,4,2,1,70,0,0
70206,-100,4,2,1,80,0,0
71482,-100,4,2,1,70,0,0
74036,-100,4,2,1,80,0,0
76589,-100,4,2,1,50,0,0
86802,-125,4,2,1,60,0,0
95738,-125,4,2,1,80,0,0
97014,-100,4,2,1,80,0,1
117440,-100,4,2,1,80,0,0

[Colours]
Combo1 : 0,152,225
Combo2 : 255,149,255
Combo3 : 162,162,208

[HitObjects]
419,35,15312,6,0,L|283:52,1,112,6|10,0:0|0:0,0:0:0:0:
184,117,15951,2,0,L|112:102,2,56,2|2|10,0:0|0:0|0:0,0:0:0:0:
248,171,16429,1,2,0:0:0:0:
248,171,16748,2,0,P|261:231|245:268,2,56,2|10|2,0:0|0:0|0:0,0:0:0:0:
181,222,17227,2,0,P|186:275|202:299,1,56,2|10,0:0|0:0,0:0:0:0:
247,333,17546,2,0,P|273:341|313:333,1,56,10|2,0:0|0:0,0:0:0:0:
408,310,17865,5,2,0:0:0:0:
335,264,18025,1,2,0:0:0:0:
411,225,18185,1,10,0:0:0:0:
340,120,18504,2,0,L|346:56,2,56,2|2|10,0:0|0:0|0:0,0:0:0:0:
275,171,18982,1,2,0:0:0:0:
275,171,19302,6,0,P|210:193|201:190,2,56,2|10|2,0:0|0:0|0:0,0:0:0:0:
214,114,19780,2,0,P|175:128|159:147,1,56,2|10,0:0|0:0,0:0:0:0:
118,207,20100,2,0,P|114:245|127:274,1,56,10|10,0:0|0:0,0:0:0:0:
168,329,20419,6,0,B|303:354|259:213|396:235|396:235|362:233|328:266,1,336,2|10,3:2|0:0,0:0:0:0:
405,324,21536,1,2,3:2:0:0:
473,275,21695,2,0,P|507:215|396:125,1,224,2|2,3:2|3:2,0:0:0:0:
261,58,22972,6,0,P|247:116|242:186,1,112,2|10,3:2|3:2,0:0:0:0:
312,240,23451,2,0,L|379:225,2,56,2|8|2,0:0|3:2|0:0,0:0:0:0:
301,331,23929,2,0,P|273:346|235:346,1,56,10|0,3:2|0:0,0:0:0:0:
161,336,24248,6,0,L|116:342,7,28,2|2|2|2|2|2|2|2,3:2|3:2|3:2|3:2|3:2|3:2|3:2|3:2,0:0:0:0:
102,343,24887,2,0,L|57:349,7,28,2|2|2|2|2|2|2|2,3:2|3:2|3:2|3:2|3:2|3:2|3:2|3:2,0:0:0:0:
47,351,25525,6,0,P|33:307|39:282,1,70,6|0,3:2|0:0,0:0:0:0:
72,200,25844,1,10,0:0:0:0:
83,197,25924,1,2,0:0:0:0:
94,194,26004,2,0,P|105:151|97:116,1,70,2|0,0:0|3:2,0:0:0:0:
46,57,26323,1,2,0:0:0:0:
122,9,26482,1,10,0:0:0:0:
199,59,26642,6,0,P|263:92|332:105,1,140,2|0,0:0|0:0,0:0:0:0:
418,79,27121,1,10,0:0:0:0:
430,75,27201,1,2,0:0:0:0:
441,70,27280,2,0,P|487:40|501:25,1,70,2|0,0:0|3:2,0:0:0:0:
512,138,27600,1,2,0:0:0:0:
512,138,27759,2,0,P|481:183|471:207,1,70,10|2,0:0|0:0,0:0:0:0:
449,284,28078,5,2,3:2:0:0:
276,179,28397,1,10,0:0:0:0:
276,179,28477,1,2,0:0:0:0:
276,179,28557,2,0,L|191:192,1,70,2|0,0:0|3:2,0:0:0:0:
130,246,28876,2,0,L|45:230,2,70,2|10|2,0:0|0:0|0:0,0:0:0:0:
197,309,29355,6,0,L|342:288,1,140,2|10,3:2|0:0,0:0:0:0:
425,273,29834,1,2,0:0:0:0:
468,194,29993,2,0,P|481:156|478:122,1,70,2|2,3:2|0:0,0:0:0:0:
402,75,30312,2,0,P|389:113|392:147,1,70,10|2,0:0|0:0,0:0:0:0:
344,221,30631,5,2,3:2:0:0:
192,111,30951,2,0,L|152:97,2,35,10|2|2,0:0|0:0|0:0,0:0:0:0:
144,188,31270,2,0,L|101:197,2,35,2|2|2,3:2|0:0|0:0,0:0:0:0:
191,265,31589,2,0,L|130:308,1,70,10|2,0:0|0:0,0:0:0:0:
220,351,31908,5,2,3:2:0:0:
220,351,32068,1,2,0:0:0:0:
297,313,32227,1,10,0:0:0:0:
297,313,32387,1,2,0:0:0:0:
379,350,32546,2,0,L|386:386,2,35,2|2|0,3:2|0:0|0:0,0:0:0:0:
441,287,32865,2,0,P|452:248|440:205,1,70,10|2,0:0|0:0,0:0:0:0:
358,217,33185,6,0,P|330:156|372:90,1,140,2|10,3:2|0:0,0:0:0:0:
436,44,33663,1,2,0:0:0:0:
354,9,33823,2,0,P|276:19|247:26,1,105,2|2,3:2|0:0,0:0:0:0:
223,46,34142,1,10,0:0:0:0:
133,14,34302,1,2,0:0:0:0:
20,124,34621,6,0,P|11:179|34:226,1,105,2|2,0:0|0:0,0:0:0:0:
173,199,35100,2,0,P|182:144|159:97,2,105,2|2|2,3:2|0:0|0:0,0:0:0:0:
226,274,35738,6,0,P|314:253|354:248,2,105,6|2|2,3:2|0:0|0:0,0:0:0:0:
138,283,36376,2,0,P|50:262|10:257,2,105,2|2|2,3:2|0:0|0:0,0:0:0:0:
173,199,37014,6,0,L|182:129,1,70,2|2,3:2|0:0,0:0:0:0:
271,93,37334,2,0,L|265:57,2,35,10|2|2,0:0|0:0|0:0,0:0:0:0:
356,134,37653,1,2,3:2:0:0:
356,134,37812,1,2,0:0:0:0:
439,93,37972,1,10,0:0:0:0:
439,93,38131,1,2,0:0:0:0:
498,158,38291,6,0,P|505:89|513:50,2,105,2|2|2,3:2|0:0|0:0,0:0:0:0:
450,236,38929,2,0,P|459:287|464:339,2,105,2|2|2,3:2|0:0|0:0,0:0:0:0:
370,192,39568,6,0,P|313:166|268:173,1,105,2|2,3:2|0:0,0:0:0:0:
238,202,39887,2,0,P|196:223|160:218,1,70,10|2,0:0|0:0,0:0:0:0:
81,197,40206,2,0,B|60:148|60:148|77:88,1,105,2|2,3:2|0:0,0:0:0:0:
87,66,40525,2,0,L|157:46,1,70,10|2,0:0|0:0,0:0:0:0:
250,27,40844,6,0,L|234:121,1,70,10|2,0:0|0:0,0:0:0:0:
190,174,41163,2,0,L|206:268,1,70,10|2,0:0|0:0,0:0:0:0:
112,294,41482,2,0,L|169:338,1,70,10|2,0:0|0:0,0:0:0:0:
254,369,41802,2,0,L|332:348,1,70,10|2,0:0|0:0,0:0:0:0:
400,301,42121,6,0,P|367:269|338:266,1,70,10|2,0:0|0:0,0:0:0:0:
338,176,42440,2,0,P|293:187|272:212,1,70,10|2,0:0|0:0,0:0:0:0:
205,258,42759,2,0,P|165:238|151:206,1,70,10|2,0:0|0:0,0:0:0:0:
65,211,43078,2,0,P|85:160|104:147,1,70,10|2,0:0|0:0,0:0:0:0:
176,100,43397,5,10,0:0:0:0:
176,100,43557,1,10,0:0:0:0:
261,133,43717,2,0,L|335:115,1,70,10|10,0:0|0:0,0:0:0:0:
390,48,44036,5,10,0:0:0:0:
390,48,44196,1,10,0:0:0:0:
305,15,44356,2,0,L|231:33,1,70,10|0,0:0|0:0,0:0:0:0:
176,100,44674,6,0,L|163:147,10,35,10|10|10|10|10|10|10|10|10|10|10,0:0|0:0|0:0|0:0|0:0|0:0|0:0|0:0|0:0|0:0|0:0,0:0:0:0:
91,171,45631,2,0,L|101:209,2,35,10|2|2,0:0|0:0|0:0,0:0:0:0:
188,226,45951,6,0,P|231:212|260:209,1,70,2|2,3:2|0:0,0:0:0:0:
345,235,46270,1,10,0:0:0:0:
332,325,46429,1,0,0:0:0:0:
324,333,46509,1,2,0:0:0:0:
316,342,46589,2,0,P|257:353|229:353,1,70,2|2,3:2|0:0,0:0:0:0:
155,337,46908,1,10,0:0:0:0:
13,253,47227,6,0,L|23:179,1,70,2|2,3:2|0:0,0:0:0:0:
39,94,47546,1,10,0:0:0:0:
191,177,47865,2,0,L|264:161,1,70,2|2,3:2|0:0,0:0:0:0:
349,140,48185,1,10,0:0:0:0:
349,140,48344,1,0,3:0:0:0:
307,53,48504,6,0,P|261:33|229:39,1,70,2|2,3:2|0:0,0:0:0:0:
157,69,48823,1,10,0:0:0:0:
143,258,49142,2,0,P|189:278|221:272,1,70,2|2,3:2|0:0,0:0:0:0:
293,242,49461,1,10,0:0:0:0:
469,326,49780,6,0,L|460:253,1,70,2|2,3:2|0:0,0:0:0:0:
415,177,50100,2,0,L|426:103,1,70,10|2,0:0|0:0,0:0:0:0:
349,45,50419,2,0,P|302:70|244:59,1,105,2|8,3:2|0:0,0:0:0:0:
217,48,50738,1,10,0:0:0:0:
236,142,50897,1,0,3:0:0:0:
147,115,51057,6,0,P|89:131|51:143,1,70,2|2,3:2|0:0,0:0:0:0:
9,192,51376,1,10,0:0:0:0:
184,234,51695,2,0,P|242:250|280:262,1,70,2|2,3:2|0:0,0:0:0:0:
322,311,52014,1,10,0:0:0:0:
151,353,52334,5,2,3:2:0:0:
79,296,52493,1,2,0:0:0:0:
79,296,52653,2,0,L|89:215,1,70,10|0,0:0|0:0,0:0:0:0:
186,211,52972,1,2,3:2:0:0:
97,87,53291,1,10,0:0:0:0:
181,55,53451,1,0,3:0:0:0:
181,55,53610,6,0,P|220:37|251:41,1,70,2|2,3:2|0:0,0:0:0:0:
336,61,53929,1,10,0:0:0:0:
444,199,54248,2,0,P|405:217|374:213,1,70,2|2,3:2|0:0,0:0:0:0:
289,193,54567,1,10,0:0:0:0:
126,106,54887,6,0,B|92:95|92:95|34:114,1,70,2|2,3:2|0:0,0:0:0:0:
18,125,55126,2,0,P|10:187|33:228,1,105,2|10,3:2|0:0,0:0:0:0:
127,204,55525,1,6,0:0:0:0:
100,361,55844,2,0,L|154:348,3,35,10|10|10|10,0:0|0:0|0:0|0:0,0:0:0:0:
164,363,56163,6,0,L|317:329,1,140,6|10,3:2|0:0,0:0:0:0:
400,331,56642,1,2,0:0:0:0:
342,160,56961,2,0,P|339:109|354:85,2,70,2|10|2,0:0|0:0|0:0,0:0:0:0:
402,237,57440,6,0,P|312:193|266:205,1,140,2|10,3:2|0:0,0:0:0:0:
191,230,57919,2,0,P|136:252|98:244,1,70,2|0,0:0|3:0,0:0:0:0:
44,218,58238,2,0,P|24:188|21:147,2,70,2|10|2,0:0|0:0|0:0,0:0:0:0:
126,251,58717,6,0,L|146:88,1,140,2|10,3:2|0:0,0:0:0:0:
219,65,59195,1,2,0:0:0:0:
358,188,59514,2,0,P|431:150|425:81,1,140,2|2,0:0|0:0,0:0:0:0:
381,19,59993,6,0,P|333:2|244:1,1,140,2|8,3:2|0:0,0:0:0:0:
143,112,60631,2,0,P|82:127|29:122,1,105,0|2,3:0|3:2,0:0:0:0:
5,107,60951,2,0,L|19:192,1,70,10|10,0:0|0:0,0:0:0:0:
37,263,61270,6,0,B|85:250|85:250|131:262|131:262|190:244,1,140,2|10,3:2|0:0,0:0:0:0:
241,198,61748,1,0,0:0:0:0:
329,314,62068,2,0,P|299:343|262:354,2,70,0|10|0,0:0|0:0|0:0,0:0:0:0:
407,354,62546,6,0,P|427:287|398:221,1,140,2|10,3:2|0:0,0:0:0:0:
327,176,63025,2,0,P|317:137|326:101,1,70,2|2,0:0|3:2,0:0:0:0:
404,68,63344,2,0,P|415:119|406:145,2,70,2|10|2,0:0|0:0|0:0,0:0:0:0:
329,21,63823,6,0,B|255:18|272:69|196:66,1,140,2|10,3:2|0:0,0:0:0:0:
121,36,64302,1,2,0:0:0:0:
107,188,64621,2,0,P|168:185|180:178,1,70,2|8,0:0|0:0,0:0:0:0:
208,98,64940,1,0,0:0:0:0:
208,98,65100,6,0,P|245:105|311:128,2,105,6|6|6,3:2|3:2|3:2,0:0:0:0:
121,67,65738,1,8,0:0:0:0:
106,76,65818,1,6,3:2:0:0:
94,89,65897,2,0,L|86:174,1,70,6|14,3:2|3:2,0:0:0:0:
77,257,66217,1,10,0:0:0:0:
173,277,66376,6,0,P|229:260|308:285,1,140,6|10,3:2|0:0,0:0:0:0:
377,332,66855,2,0,P|416:355|442:357,1,70,2|2,0:0|3:2,0:0:0:0:
492,285,67174,2,0,L|508:201,2,70,2|10|2,0:0|0:0|0:0,0:0:0:0:
405,250,67653,6,0,L|380:96,1,140,2|10,3:2|0:0,0:0:0:0:
300,75,68131,2,0,L|287:157,1,70,2|2,0:0|3:2,0:0:0:0:
210,183,68451,2,0,P|135:180|93:124,1,140,2|2,0:0|0:0,0:0:0:0:
180,97,68929,6,0,L|148:255,1,140,6|10,3:2|0:0,0:0:0:0:
101,303,69408,2,0,P|136:323|181:315,1,70,2|2,0:0|3:2,0:0:0:0:
246,287,69727,2,0,P|293:269|326:278,1,70,2|10,0:0|0:0,0:0:0:0:
406,298,70046,1,0,0:0:0:0:
406,298,70206,6,0,L|389:189,2,105,6|6|6,3:2|3:2|3:2,0:0:0:0:
502,198,70924,1,6,3:2:0:0:
414,83,71163,2,0,P|364:60|326:62,1,70,14|6,0:0|3:2,0:0:0:0:
271,117,71482,6,0,P|203:156|130:115,1,140,6|10,3:2|3:2,0:0:0:0:
71,84,71961,2,0,P|57:137|60:182,1,70,2|0,3:2|3:2,0:0:0:0:
121,220,72280,2,0,P|134:256|136:315,1,70,2|10,3:2|3:2,0:0:0:0:
70,361,72600,1,2,3:2:0:0:
70,361,72759,6,0,P|149:331|225:338,1,140,6|10,3:2|3:2,0:0:0:0:
293,357,73238,2,0,P|342:370|364:370,1,70,2|0,3:2|3:2,0:0:0:0:
449,333,73557,2,0,L|437:252,1,70,2|10,3:2|3:2,0:0:0:0:
371,202,73876,1,2,3:2:0:0:
280,238,74036,6,0,L|201:219,1,70,14|10,3:2|3:2,0:0:0:0:
120,230,74355,2,0,L|139:151,1,70,10|10,3:2|3:2,0:0:0:0:
128,70,74674,2,0,L|207:89,1,70,10|10,3:2|3:2,0:0:0:0:
288,78,74993,2,0,L|269:157,1,70,10|10,3:2|3:2,0:0:0:0:
280,238,75312,6,0,L|290:285,10,35,2|2|2|2|2|2|2|2|2|0|2,0:0|0:0|0:0|0:0|0:0|0:0|0:0|0:0|0:0|0:0|0:0,0:0:0:0:
370,251,76270,1,10,0:0:0:0:
454,214,76429,1,10,0:0:0:0:
465,124,76589,5,14,3:2:0:0:
348,41,86802,6,0,P|399:22|442:22,2,84,14|2|2,0:0|0:0|0:0,0:0:0:0:
275,90,87440,2,0,P|234:77|181:50,2,84,10|2|2,0:0|0:0|0:0,0:0:0:0:
351,125,88078,2,0,P|365:167|345:244,1,112,10|10,0:0|0:0,0:0:0:0:
274,315,88717,2,0,L|210:305,1,56,10|2,0:0|0:0,0:0:0:0:
139,321,89036,1,10,0:0:0:0:
139,321,89195,1,10,0:0:0:0:
90,248,89355,6,0,L|77:338,2,84,10|2|2,0:0|0:0|0:0,0:0:0:0:
160,199,89993,2,0,L|147:115,2,84,10|2|2,0:0|0:0|0:0,0:0:0:0:
237,237,90631,2,0,P|291:258|347:240,1,112,10|10,0:0|0:0,0:0:0:0:
403,187,91110,1,0,0:0:0:0:
442,116,91270,2,0,L|431:51,1,56,10|2,0:0|0:0,0:0:0:0:
413,32,91509,1,10,0:0:0:0:
413,32,91589,2,0,L|333:47,1,56,10|10,0:0|0:0,0:0:0:0:
275,100,91908,6,0,L|159:79,1,112,14|10,3:2|3:2,0:0:0:0:
81,42,92387,1,2,3:2:0:0:
18,108,92546,2,0,L|28:173,1,56,10|2,3:2|3:2,0:0:0:0:
111,199,92865,2,0,L|97:270,1,56,10|2,3:2|3:2,0:0:0:0:
49,330,93185,6,0,P|129:293|160:312,1,112,14|10,3:2|3:2,0:0:0:0:
223,340,93663,1,2,3:2:0:0:
305,310,93823,2,0,P|332:288|343:252,1,56,10|2,3:2|3:2,0:0:0:0:
362,187,94142,2,0,P|356:145|339:124,1,56,10|2,3:2|3:2,0:0:0:0:
292,68,94461,6,0,L|222:82,1,56,14|10,0:0|0:0,0:0:0:0:
151,100,94780,1,10,0:0:0:0:
151,100,94940,1,10,0:0:0:0:
56,117,95100,2,0,L|70:187,1,56,10|10,0:0|0:0,0:0:0:0:
88,258,95419,1,10,0:0:0:0:
88,258,95579,1,10,0:0:0:0:
148,337,95738,6,0,L|188:325,11,28,10|10|10|10|10|10|10|10|10|10|10|10,0:0|0:0|0:0|0:0|0:0|0:0|0:0|0:0|0:0|0:0|0:0|0:0,0:0:0:0:
214,348,96695,2,0,L|276:331,1,56,10|2,0:0|0:0,0:0:0:0:
356,308,97014,6,0,P|378:243|360:194,1,105,6|2,3:2|0:0,0:0:0:0:
351,174,97334,2,0,P|344:126|358:91,1,70,10|2,0:0|0:0,0:0:0:0:
265,66,97653,2,0,P|222:113|153:120,1,105,2|2,3:2|0:0,0:0:0:0:
136,116,97972,2,0,L|62:101,1,70,10|2,0:0|0:0,0:0:0:0:
4,179,98291,5,2,3:2:0:0:
4,179,98451,1,2,0:0:0:0:
77,237,98610,2,0,L|57:316,1,70,10|2,0:0|0:0,0:0:0:0:
144,356,98929,2,0,L|162:278,1,70,2|2,3:2|0:0,0:0:0:0:
240,244,99248,2,0,L|254:318,1,70,10|2,0:0|0:0,0:0:0:0:
336,346,99568,6,0,P|384:355|441:305,1,105,2|2,3:2|0:0,0:0:0:0:
450,291,99887,2,0,P|458:252|444:214,1,70,10|2,0:0|0:0,0:0:0:0:
357,197,100206,2,0,P|318:227|247:217,1,105,2|2,3:2|0:0,0:0:0:0:
231,202,100525,2,0,P|218:162|228:128,1,70,10|0,0:0|0:0,0:0:0:0:
285,66,100844,6,0,B|323:55|323:55|367:69|367:69|430:50,1,140,2|10,3:2|0:0,0:0:0:0:
503,20,101323,1,2,0:0:0:0:
512,113,101482,2,0,L|494:185,1,70,2|8,3:2|0:0,0:0:0:0:
468,199,101722,1,2,0:0:0:0:
468,199,101802,2,0,L|480:272,1,70,14|10,0:0|0:0,0:0:0:0:
405,320,102121,6,0,P|344:353|282:335,1,105,6|2,3:2|0:0,0:0:0:0:
277,328,102440,2,0,P|226:308|200:309,1,70,10|2,0:0|0:0,0:0:0:0:
130,336,102759,2,0,L|135:378,2,35,2|2|0,3:2|0:0|0:0,0:0:0:0:
47,295,103078,2,0,L|41:254,3,35,10|2|2|2,0:0|0:0|0:0|0:0,0:0:0:0:
16,241,103397,6,0,L|27:134,1,105,6|2,3:2|0:0,0:0:0:0:
56,121,103717,2,0,L|51:49,1,70,10|2,0:0|0:0,0:0:0:0:
140,29,104036,2,0,L|187:22,3,35,2|2|0|0,3:2|0:0|0:0|0:0,0:0:0:0:
201,54,104355,2,0,L|284:40,1,70,10|2,0:0|0:0,0:0:0:0:
363,24,104674,6,0,P|369:61|360:100,1,70,14|10,0:0|0:0,0:0:0:0:
320,172,104993,1,10,0:0:0:0:
320,172,105153,1,10,0:0:0:0:
237,207,105312,2,0,P|231:244|240:283,1,70,10|10,0:0|0:0,0:0:0:0:
280,355,105631,1,10,0:0:0:0:
280,355,105791,1,10,0:0:0:0:
361,338,105951,6,0,L|409:328,10,35,10|2|2|2|10|2|2|2|10|2|2,3:2|3:2|3:2|3:2|3:2|3:2|3:2|3:2|3:2|3:2|3:2,0:0:0:0:
388,244,106908,2,0,L|460:230,1,70,10|10,3:2|3:2,0:0:0:0:
404,147,107227,6,0,P|373:117|294:116,1,105,6|2,3:2|0:0,0:0:0:0:
283,132,107546,2,0,P|236:153|189:145,1,70,10|2,0:0|0:0,0:0:0:0:
164,234,107865,2,0,P|117:198|111:137,1,105,2|2,3:2|0:0,0:0:0:0:
72,137,108185,2,0,L|84:62,1,70,10|2,0:0|0:0,0:0:0:0:
164,14,108504,5,2,3:2:0:0:
164,14,108663,1,2,0:0:0:0:
219,95,108823,2,0,L|297:75,1,70,10|2,0:0|0:0,0:0:0:0:
380,55,109142,2,0,L|362:147,1,70,2|2,3:2|0:0,0:0:0:0:
287,177,109461,2,0,L|302:249,1,70,10|2,0:0|0:0,0:0:0:0:
359,312,109780,6,0,P|297:281|255:293,1,105,6|2,3:2|0:0,0:0:0:0:
233,315,110100,2,0,P|188:338|147:330,1,70,10|2,0:0|0:0,0:0:0:0:
71,347,110419,2,0,L|94:234,1,105,2|2,3:2|0:0,0:0:0:0:
126,227,110738,2,0,L|117:151,1,70,10|2,0:0|0:0,0:0:0:0:
156,72,111057,6,0,P|88:65|51:94,2,105,6|6|6,3:2|3:2|3:2,0:0:0:0:
269,130,111775,2,0,P|337:137|374:108,1,105,6|6,3:2|3:2,0:0:0:0:
432,61,112174,1,6,3:2:0:0:
432,61,112254,1,0,0:0:0:0:
432,61,112334,6,0,P|439:122|440:207,1,140,6|10,3:2|0:0,0:0:0:0:
277,269,112972,2,0,P|270:208|269:123,1,140,2|10,3:2|0:0,0:0:0:0:
115,33,113610,2,0,P|59:72|54:158,1,140,6|10,3:2|0:0,0:0:0:0:
68,318,114248,1,2,3:2:0:0:
157,152,114568,1,10,0:0:0:0:
157,152,114727,1,10,0:0:0:0:
206,232,114887,6,0,L|298:212,1,70,14|2,0:0|3:2,0:0:0:0:
354,279,115206,2,0,L|374:187,1,70,14|2,0:0|3:2,0:0:0:0:
375,116,115525,2,0,L|307:131,1,70,14|2,0:0|3:2,0:0:0:0:
227,69,115844,2,0,L|207:161,1,70,14|2,0:0|3:2,0:0:0:0:
206,232,116163,6,0,L|217:290,10,35,14|2|2|2|14|2|2|2|14|2|2,0:0|0:0|0:0|0:0|0:0|0:0|0:0|0:0|0:0|0:0|0:0,0:0:0:0:
125,291,117121,2,0,L|133:331,2,35,14|2|2,0:0|0:0|0:0,0:0:0:0:
37,252,117440,6,0,P|7:187|46:118,2,140,6|10|2,3:2|0:0|3:2,0:0:0:0:
206,232,118397,1,10,0:0:0:0:
229,152,118557,1,2,0:0:0:0:
193,76,118717,6,0,P|152:64|119:63,1,70,2|0,3:2|0:0,0:0:0:0:
145,154,119036,2,0,P|193:168|218:171,1,70,10|2,0:0|0:0,0:0:0:0:
307,135,119355,2,0,P|364:116|448:114,1,140,2|10,3:2|0:0,0:0:0:0:
503,179,119834,1,10,0:0:0:0:
438,239,119993,6,0,P|414:177|449:108,2,140,2|10|2,3:2|0:0|3:2,0:0:0:0:
438,239,120951,2,0,P|451:287|434:328,1,70,10|2,0:0|0:0,0:0:0:0:
367,340,121270,6,0,P|297:322|216:316,1,140,2|10,3:2|0:0,0:0:0:0:
147,341,121748,1,2,0:0:0:0:
71,309,121908,2,0,L|86:221,1,70,10|10,0:0|0:0,0:0:0:0:
156,197,122227,2,0,L|145:119,1,70,10|10,0:0|0:0,0:0:0:0:
237,93,122546,6,0,P|281:138|356:132,1,140,2|10,3:2|0:0,0:0:0:0:
407,61,123025,1,0,0:0:0:0:
318,52,123185,2,0,P|302:126|298:204,1,140,2|10,3:2|0:0,0:0:0:0:
324,281,123663,1,2,0:0:0:0:
233,260,123823,6,0,P|176:235|78:225,1,140,2|10,3:2|0:0,0:0:0:0:
2,245,124302,1,2,0:0:0:0:
28,153,124461,2,0,P|75:101|126:106,1,105,2|0,3:2|0:0,0:0:0:0:
142,114,124780,2,0,P|198:135|226:131,1,70,10|2,0:0|0:0,0:0:0:0:
298,99,125100,6,0,P|344:71|438:99,1,140,2|10,3:2|0:0,0:0:0:0:
497,144,125578,1,2,0:0:0:0:
440,220,125738,2,0,L|455:336,2,105,2|0|2,3:2|0:0|0:0,0:0:0:0:
369,160,126376,1,2,3:2:0:0:
369,160,126536,6,0,B|304:141|304:141|262:156,1,105,2|2,0:0|0:0,0:0:0:0:
143,203,127014,2,0,B|78:222|78:222|36:207,1,105,10|0,0:0|0:0,0:0:0:0:
11,188,127334,2,0,L|-1:114,1,70,10|10,0:0|0:0,0:0:0:0:
92,46,127653,5,6,3:2:0:0:
92,46,127812,2,0,P|165:70|229:73,1,140,2|2,0:0|0:0,0:0:0:0:
317,44,128291,2,0,L|359:33,2,35,2|2|2,3:2|0:0|0:0,0:0:0:0:
370,123,128610,2,0,L|416:111,3,35,10|2|2|2,0:0|0:0|0:0|0:0,0:0:0:0:
436,104,128929,6,0,L|416:220,1,105,2|2,3:2|0:0,0:0:0:0:
399,254,129248,2,0,P|347:281|305:276,1,70,10|2,0:0|0:0,0:0:0:0:
242,254,129568,2,0,P|226:246|189:244,3,35,2|2|2|2,3:2|0:0|0:0|0:0,0:0:0:0:
175,258,129887,2,0,P|132:276|92:274,1,70,10|2,0:0|0:0,0:0:0:0:
17,239,130206,5,6,3:2:0:0:
17,239,130365,1,2,0:0:0:0:
96,183,130525,1,10,0:0:0:0:
96,183,130685,1,2,0:0:0:0:
9,137,130844,2,0,L|4:94,3,35,2|2|2|2,3:2|0:0|0:0|0:0,0:0:0:0:
33,89,131163,2,0,L|28:46,3,35,10|2|2|2,0:0|0:0|0:0|0:0,0:0:0:0:
58,32,131482,6,0,P|142:64|204:66,1,140,6|10,3:2|0:0,0:0:0:0:
279,44,131961,1,2,0:0:0:0:
279,44,132121,2,0,P|316:31|351:29,1,70,10|10,0:0|0:0,0:0:0:0:
432,67,132440,2,0,P|445:98|446:128,3,35,10|2|10|2,0:0|0:0|0:0|0:0,0:0:0:0:
451,141,132759,6,0,L|437:255,2,105,14|2|2,0:0|0:0|0:0,0:0:0:0:
359,133,133397,2,0,L|346:28,2,105,14|2|2,0:0|0:0|0:0,0:0:0:0:
293,188,134036,6,0,P|247:213|209:207,1,70,14|2,0:0|0:0,0:0:0:0:
145,187,134355,2,0,P|103:162|90:131,1,70,10|2,0:0|0:0,0:0:0:0:
26,84,134674,2,0,P|2:147|11:245,1,140,14|10,0:0|0:0,0:0:0:0:
49,297,135153,1,10,0:0:0:0:
136,331,135312,6,0,L|180:319,10,35,14|10|10|10|10|10|10|10|10|10|10,0:0|0:0|0:0|0:0|0:0|0:0|0:0|0:0|0:0|0:0|0:0,0:0:0:0:
238,371,136270,2,0,L|315:353,1,70,10|2,0:0|0:0,0:0:0:0:
393,325,136589,6,0,L|399:278,10,35,14|10|10|10|10|10|10|10|10|10|10,0:0|0:0|0:0|0:0|0:0|0:0|0:0|0:0|0:0|0:0|0:0,0:0:0:0:
320,251,137546,2,0,L|331:162,1,70,10|10,0:0|0:0,0:0:0:0:
412,132,137865,5,14,0:0:0:0:
