osu file format v14

[General]
AudioFilename: audio.mp3
AudioLeadIn: 0
PreviewTime: 25525
Countdown: 0
SampleSet: Soft
StackLeniency: 0.5
Mode: 0
LetterboxInBreaks: 0
WidescreenStoryboard: 0

[Editor]
Bookmarks: 76589,86802,137865
DistanceSpacing: 2.1
BeatDivisor: 4
GridSize: 32
TimelineZoom: 3

[Metadata]
Title:Love Infection
TitleUnicode:Love Infection
Artist::Poin7less
ArtistUnicode::Poin7less
Creator:Ogura Yui
Version:Happiness Sensation
Source:
Tags:yuuma mpg mappers' guild fa featured artist electronic instrumental happy hardcore
BeatmapID:3574158
BeatmapSetID:1747369

[Difficulty]
HPDrainRate:5
CircleSize:4
OverallDifficulty:9
ApproachRate:9.5
SliderMultiplier:2
SliderTickRate:1

[Events]
//Background and Video events
0,0,"yuuma is pro mapper.jpg",0,0
//Break Periods
//Storyboard Layer 0 (Background)
//Storyboard Layer 1 (Fail)
//Storyboard Layer 2 (Pass)
//Storyboard Layer 3 (Foreground)
//Storyboard Layer 4 (Overlay)
//Storyboard Sound Samples

[TimingPoints]
5100,319.148936170213,4,2,1,50,1,0
5100,-125,4,2,1,50,0,0
15312,-125,4,2,1,60,0,0
22972,-125,4,2,1,70,0,0
25525,-100,4,2,1,80,0,0
34621,-66.6666666666667,4,2,1,80,0,0
45951,-100,4,2,1,70,0,0
65100,-66.6666666666667,4,2,1,80,0,0
66376,-66.6666666666667,4,2,1,70,0,0
70206,-66.6666666666667,4,2,1,80,0,0
71482,-66.6666666666667,4,2,1,70,0,0
74036,-66.6666666666667,4,2,1,80,0,0
75312,-100,4,2,1,80,0,0
76589,-100,4,2,1,50,0,0
86802,-125,4,2,1,60,0,0
95738,-66.6666666666667,4,2,1,80,0,0
97014,-83.3333333333333,4,2,1,80,0,1
111057,-66.6666666666667,4,2,1,80,0,1
112334,-83.3333333333333,4,2,1,80,0,1
117440,-100,4,2,1,80,0,0
132759,-83.3333333333333,4,2,1,80,0,0
135312,-66.6666666666667,4,2,1,80,0,0

[Colours]
Combo1 : 0,152,225
Combo2 : 255,149,255
Combo3 : 162,162,208

[HitObjects]
242,276,5100,5,2,0:0:0:0:
146,302,5259,1,2,0:0:0:0:
171,205,5419,1,2,0:0:0:0:
242,276,5578,5,2,0:0:0:0:
126,307,5738,1,2,0:0:0:0:
156,190,5897,1,2,0:0:0:0:
242,276,6057,5,2,0:0:0:0:
102,313,6217,1,2,0:0:0:0:
138,172,6376,5,2,0:0:0:0:
235,198,6536,1,2,0:0:0:0:
209,101,6695,1,2,0:0:0:0:
138,172,6855,5,2,0:0:0:0:
235,198,7014,1,2,0:0:0:0:
311,129,7174,1,2,0:0:0:0:
209,101,7334,1,2,0:0:0:0:
235,198,7493,1,2,0:0:0:0:
333,232,7653,5,2,0:0:0:0:
411,161,7812,1,2,0:0:0:0:
311,129,7972,1,2,0:0:0:0:
333,232,8131,1,2,0:0:0:0:
411,161,8291,1,2,0:0:0:0:
390,58,8451,5,2,0:0:0:0:
300,125,8610,1,2,0:0:0:0:
327,249,8770,1,2,0:0:0:0:
420,164,8929,1,2,0:0:0:0:
395,40,9089,1,2,0:0:0:0:
289,121,9248,1,2,0:0:0:0:
321,266,9408,5,2,0:0:0:0:
420,164,9568,1,2,0:0:0:0:
289,121,9727,1,2,0:0:0:0:
184,217,9887,1,2,0:0:0:0:
321,266,10046,1,2,0:0:0:0:
201,361,10206,5,2,0:0:0:0:
105,335,10365,1,2,0:0:0:0:
176,264,10525,1,2,0:0:0:0:
201,361,10685,5,2,0:0:0:0:
85,329,10844,1,2,0:0:0:0:
171,244,11004,1,2,0:0:0:0:
201,361,11163,5,2,0:0:0:0:
61,322,11323,1,2,0:0:0:0:
165,220,11482,5,2,0:0:0:0:
262,245,11642,1,2,0:0:0:0:
237,148,11802,1,2,0:0:0:0:
165,220,11961,5,2,0:0:0:0:
262,245,12121,1,2,0:0:0:0:
337,176,12280,1,2,0:0:0:0:
237,148,12440,1,2,0:0:0:0:
262,245,12600,1,2,0:0:0:0:
311,78,12759,5,2,0:0:0:0:
212,47,12919,1,2,0:0:0:0:
237,148,13078,1,2,0:0:0:0:
337,176,13238,1,2,0:0:0:0:
412,108,13397,1,2,0:0:0:0:
338,197,13557,1,2,0:0:0:0:
223,162,13717,1,2,0:0:0:0:
190,44,13876,1,2,0:0:0:0:
321,34,14036,6,0,B|352:175|251:115|278:269,1,240,2|0,0:0|0:0,0:0:0:0:
475,343,14674,2,0,P|453:221|347:239,1,240,2|0,0:0|0:0,0:0:0:0:
201,351,15312,5,6,0:0:0:0:
189,361,15631,1,10,0:0:0:0:
175,375,15951,2,0,L|164:272,2,80,2|2|10,0:0|0:0|0:0,0:0:0:0:
229,227,16429,1,2,0:0:0:0:
229,227,16748,2,0,P|187:200|149:205,2,80,2|10|2,0:0|0:0|0:0,0:0:0:0:
166,295,17227,1,2,0:0:0:0:
48,256,17387,1,10,0:0:0:0:
48,132,17546,1,10,0:0:0:0:
166,94,17706,1,2,0:0:0:0:
238,194,17865,5,2,0:0:0:0:
141,191,18025,1,2,0:0:0:0:
331,217,18185,2,0,L|320:320,1,80,10|0,0:0|0:0,0:0:0:0:
231,114,18504,2,0,L|239:211,2,80,2|2|10,0:0|0:0|0:0,0:0:0:0:
349,44,18982,1,2,0:0:0:0:
349,44,19302,6,0,P|395:62|440:69,2,80,2|10|2,0:0|0:0|0:0,0:0:0:0:
231,114,19780,1,2,0:0:0:0:
323,137,19940,1,10,0:0:0:0:
175,37,20100,1,10,0:0:0:0:
231,114,20259,1,10,0:0:0:0:
407,84,20419,6,0,P|392:175|385:250,1,160,2|10,3:2|0:0,0:0:0:0:
416,330,20897,1,2,0:0:0:0:
228,235,21057,1,2,0:0:0:0:
310,219,21217,1,2,0:0:0:0:
250,358,21376,1,10,0:0:0:0:
168,342,21536,1,2,3:2:0:0:
41,246,21695,6,0,P|33:192|25:160,2,80,2|2|10,3:2|0:0|0:0,0:0:0:0:
17,347,22174,1,2,0:0:0:0:
129,158,22334,6,0,P|140:175|147:194,1,40,2|2,3:2|0:0,0:0:0:0:
229,276,22493,2,0,P|244:266|278:257,1,40,2|2,0:0|0:0,0:0:0:0:
344,179,22653,2,0,P|334:163|329:136,1,40,10|2,0:0|0:0,0:0:0:0:
247,64,22812,2,0,P|231:73|207:78,1,40,2|2,0:0|0:0,0:0:0:0:
239,173,22972,6,0,B|319:154|311:231|395:207,1,160,2|10,3:2|3:2,0:0:0:0:
511,71,23451,2,0,P|455:41|421:48,1,80,2|8,0:0|3:2,0:0:0:0:
369,128,23770,1,2,0:0:0:0:
490,221,23929,2,0,L|470:318,1,80,10|0,3:2|0:0,0:0:0:0:
287,350,24248,5,2,3:2:0:0:
252,370,24328,1,2,3:2:0:0:
213,378,24408,1,2,3:2:0:0:
174,372,24488,1,2,3:2:0:0:
139,354,24568,1,2,3:2:0:0:
112,324,24647,1,2,3:2:0:0:
97,288,24727,1,2,3:2:0:0:
94,248,24807,1,2,3:2:0:0:
106,210,24887,2,0,L|110:187,14,20,2|2|2|2|2|2|2|2|2|2|2|2|2|2|2,3:2|3:2|3:2|3:2|3:2|3:2|3:2|3:2|3:2|3:2|3:2|3:2|3:2|3:2|3:2,0:0:0:0:
215,247,25525,6,0,P|303:228|340:226,1,100,6|0,3:2|0:0,0:0:0:0:
503,209,25844,1,10,0:0:0:0:
512,260,25924,1,2,0:0:0:0:
495,309,26004,2,0,P|406:329|376:330,1,100,2|0,0:0|3:2,0:0:0:0:
316,131,26323,5,2,0:0:0:0:
422,161,26482,1,10,0:0:0:0:
392,48,26642,2,0,P|377:119|360:261,1,200,2|0,0:0|0:0,0:0:0:0:
214,355,27121,5,10,0:0:0:0:
175,318,27201,1,2,0:0:0:0:
170,266,27280,2,0,P|170:216|181:161,1,100,2|0,0:0|3:2,0:0:0:0:
392,48,27600,5,2,0:0:0:0:
316,131,27759,1,10,0:0:0:0:
422,161,27919,1,2,0:0:0:0:
275,25,28078,6,0,L|162:47,1,100,2|0,3:2|0:0,0:0:0:0:
17,173,28397,1,10,0:0:0:0:
35,220,28477,1,2,0:0:0:0:
81,239,28557,2,0,L|189:217,1,100,2|0,0:0|3:2,0:0:0:0:
379,176,28876,5,2,0:0:0:0:
285,119,29036,1,10,0:0:0:0:
372,282,29195,1,2,0:0:0:0:
477,130,29355,6,0,P|480:69|451:29,1,100,2|0,3:2|0:0,0:0:0:0:
278,231,29674,1,10,0:0:0:0:
278,231,29834,1,2,0:0:0:0:
477,130,29993,5,2,3:2:0:0:
448,330,30153,1,2,0:0:0:0:
278,231,30312,5,10,0:0:0:0:
307,31,30472,1,2,0:0:0:0:
463,228,30631,6,0,L|355:204,1,100,2|0,3:2|0:0,0:0:0:0:
98,124,30951,1,10,0:0:0:0:
131,87,31030,1,2,0:0:0:0:
179,77,31110,1,2,0:0:0:0:
307,31,31270,1,2,3:2:0:0:
322,77,31350,1,2,0:0:0:0:
306,124,31429,1,2,0:0:0:0:
283,258,31589,2,0,P|206:220|195:170,1,100,10|2,0:0|0:0,0:0:0:0:
98,124,31908,5,2,3:2:0:0:
307,31,32068,1,2,0:0:0:0:
283,258,32227,1,10,0:0:0:0:
230,136,32387,1,2,0:0:0:0:
428,42,32546,5,2,3:2:0:0:
443,35,32626,2,0,B|464:64|464:64|450:144,1,100,2|0,0:0|0:0,0:0:0:0:
439,211,32865,1,10,0:0:0:0:
230,136,33025,1,2,0:0:0:0:
316,353,33185,5,2,3:2:0:0:
439,211,33344,1,2,0:0:0:0:
439,211,33424,1,2,0:0:0:0:
439,211,33504,2,0,P|398:180|341:183,1,100,10|2,0:0|0:0,0:0:0:0:
272,218,33743,1,2,0:0:0:0:
272,218,33823,2,0,P|238:235|174:232,1,100,2|2,3:2|0:0,0:0:0:0:
89,199,34062,1,2,0:0:0:0:
89,199,34142,1,10,0:0:0:0:
366,266,34302,1,2,0:0:0:0:
216,94,34461,2,0,L|208:165,1,50,2|2,3:2|0:0,0:0:0:0:
175,358,34621,5,2,0:0:0:0:
440,228,34780,1,8,0:0:0:0:
457,221,34860,2,0,B|476:295|476:295|450:375,1,150.000005722046,2|0,0:0|0:0,0:0:0:0:
219,236,35100,6,0,B|194:167|194:167|218:83,1,150.000005722046,2|0,3:2|0:0,0:0:0:0:
314,16,35339,1,2,0:0:0:0:
314,16,35419,2,0,P|350:23|377:49,1,75.0000028610231,8|0,0:0|0:0,0:0:0:0:
371,185,35578,2,0,P|334:177|308:152,1,75.0000028610231,2|0,0:0|0:0,0:0:0:0:
46,44,35738,6,0,L|61:217,1,150.000005722046,6|0,3:2|0:0,0:0:0:0:
68,341,35977,1,2,0:0:0:0:
53,354,36057,2,0,L|44:263,1,75.0000028610231,10|0,0:0|0:0,0:0:0:0:
133,80,36217,2,0,L|143:186,1,75.0000028610231,2|0,0:0|0:0,0:0:0:0:
259,376,36376,6,0,L|274:203,1,150.000005722046,2|0,3:2|0:0,0:0:0:0:
281,79,36615,1,2,0:0:0:0:
266,66,36695,2,0,L|257:157,1,75.0000028610231,10|0,0:0|0:0,0:0:0:0:
346,340,36855,2,0,L|356:234,1,75.0000028610231,2|0,0:0|0:0,0:0:0:0:
403,40,37014,5,2,3:2:0:0:
506,181,37174,1,2,0:0:0:0:
331,198,37334,6,0,P|312:167|310:130,1,75.0000028610231,10|2,0:0|0:0,0:0:0:0:
403,39,37493,2,0,P|440:38|473:55,1,75.0000028610231,2|2,0:0|0:0,0:0:0:0:
505,181,37653,2,0,P|488:213|457:233,1,75.0000028610231,2|2,3:2|0:0,0:0:0:0:
331,198,37812,2,0,P|312:167|310:130,1,75.0000028610231,2|2,0:0|0:0,0:0:0:0:
403,39,37972,2,0,P|440:38|473:55,1,75.0000028610231,10|2,0:0|0:0,0:0:0:0:
417,142,38131,1,2,0:0:0:0:
417,142,38211,1,2,0:0:0:0:
417,142,38291,6,0,L|230:119,1,150.000005722046,2|0,3:2|0:0,0:0:0:0:
155,35,38530,1,2,0:0:0:0:
155,35,38610,2,0,L|165:123,1,75.0000028610231,10|0,0:0|0:0,0:0:0:0:
289,279,38770,2,0,L|297:204,1,75.0000028610231,2|0,0:0|0:0,0:0:0:0:
6,230,38929,6,0,L|193:207,1,150.000005722046,2|0,3:2|0:0,0:0:0:0:
268,123,39169,1,2,0:0:0:0:
268,123,39248,2,0,L|258:211,1,75.0000028610231,10|0,0:0|0:0,0:0:0:0:
134,367,39408,2,0,L|125:292,1,75.0000028610231,2|0,0:0|0:0,0:0:0:0:
370,172,39568,6,0,P|447:186|485:260,1,150.000005722046,2|2,3:2|0:0,0:0:0:0:
512,327,39807,1,2,0:0:0:0:
512,327,39887,1,10,0:0:0:0:
336,363,40046,1,2,0:0:0:0:
336,363,40126,1,2,0:0:0:0:
336,363,40206,6,0,P|259:349|221:275,1,150.000005722046,2|0,3:2|0:0,0:0:0:0:
198,201,40445,1,2,0:0:0:0:
198,201,40525,2,0,L|216:118,1,75.0000028610231,10|0,0:0|0:0,0:0:0:0:
455,32,40685,2,0,L|471:119,1,75.0000028610231,2|0,0:0|0:0,0:0:0:0:
306,283,40844,5,10,0:0:0:0:
332,104,41004,1,2,0:0:0:0:
223,228,41163,5,10,0:0:0:0:
335,85,41323,1,2,0:0:0:0:
170,134,41482,5,10,0:0:0:0:
338,66,41642,1,2,0:0:0:0:
162,22,41802,5,10,0:0:0:0:
341,47,41961,1,2,0:0:0:0:
486,246,42121,5,10,0:0:0:0:
329,123,42280,1,2,0:0:0:0:
407,290,42440,5,10,0:0:0:0:
332,104,42600,1,2,0:0:0:0:
307,284,42759,5,10,0:0:0:0:
335,85,42919,1,2,0:0:0:0:
215,225,43078,5,10,0:0:0:0:
338,66,43238,1,2,0:0:0:0:
149,136,43397,5,10,0:0:0:0:
399,171,43557,1,10,0:0:0:0:
157,223,43717,5,10,0:0:0:0:
415,170,43876,1,10,0:0:0:0:
61,145,44036,5,10,0:0:0:0:
433,169,44195,1,10,0:0:0:0:
69,233,44355,5,10,0:0:0:0:
452,169,44514,1,10,0:0:0:0:
257,16,44674,6,0,P|267:94|253:134,1,75.0000028610231,10|10,0:0|0:0,0:0:0:0:
247,186,44834,2,0,P|237:264|251:304,1,75.0000028610231,10|10,0:0|0:0,0:0:0:0:
271,368,44993,5,10,0:0:0:0:
271,368,45073,1,10,0:0:0:0:
271,368,45153,1,10,0:0:0:0:
271,368,45232,1,10,0:0:0:0:
271,368,45312,6,0,P|281:290|267:250,1,75.0000028610231,10|10,0:0|0:0,0:0:0:0:
247,186,45472,2,0,P|237:108|251:68,1,75.0000028610231,10|10,0:0|0:0,0:0:0:0:
257,16,45631,6,0,L|277:13,12,18.7500007152558,10|2|2|2|2|2|2|2|2|2|2|2|2,0:0|0:0|0:0|0:0|0:0|0:0|0:0|0:0|0:0|0:0|0:0|0:0|0:0,0:0:0:0:
154,161,45951,5,2,3:2:0:0:
364,128,46110,1,2,0:0:0:0:
77,100,46270,2,0,P|57:144|77:223,1,100,10|0,0:0|0:0,0:0:0:0:
191,292,46509,5,2,0:0:0:0:
210,300,46589,1,2,3:2:0:0:
0,267,46748,1,2,0:0:0:0:
287,239,46908,2,0,P|307:283|287:362,1,100,10|0,0:0|0:0,0:0:0:0:
87,372,47227,5,2,3:2:0:0:
154,161,47387,1,2,0:0:0:0:
374,195,47546,2,0,L|493:215,1,100,10|0,0:0|0:0,0:0:0:0:
80,252,47865,5,2,3:2:0:0:
274,135,48025,1,2,0:0:0:0:
401,324,48185,1,10,0:0:0:0:
154,161,48344,1,0,3:0:0:0:
87,372,48504,5,2,3:2:0:0:
298,290,48663,1,2,0:0:0:0:
62,199,48823,2,0,L|39:315,1,100,10|0,0:0|0:0,0:0:0:0:
201,267,49142,5,2,3:2:0:0:
412,185,49302,1,2,0:0:0:0:
176,94,49461,2,0,L|153:210,1,100,10|0,0:0|0:0,0:0:0:0:
298,290,49780,5,2,3:2:0:0:
509,208,49940,1,2,0:0:0:0:
198,167,50100,5,10,0:0:0:0:
409,249,50259,1,2,0:0:0:0:
98,290,50419,6,0,L|-9:269,1,100,2|0,3:2|0:0,0:0:0:0:
307,211,50658,1,8,0:0:0:0:
307,211,50738,2,0,L|414:190,1,100,10|0,0:0|3:0,0:0:0:0:
187,14,51057,5,2,3:2:0:0:
110,200,51217,1,2,0:0:0:0:
223,364,51376,2,0,L|324:345,1,100,10|0,0:0|0:0,0:0:0:0:
123,96,51695,5,2,3:2:0:0:
125,303,51855,1,2,0:0:0:0:
321,345,52014,2,0,L|409:292,1,100,10|0,0:0|0:0,0:0:0:0:
110,200,52334,5,2,3:2:0:0:
379,160,52493,1,2,0:0:0:0:
110,200,52653,2,0,P|93:248|116:307,1,100,10|0,0:0|0:0,0:0:0:0:
379,160,52972,2,0,P|396:112|373:53,1,100,2|0,3:2|0:0,0:0:0:0:
219,74,53291,1,10,0:0:0:0:
259,343,53451,1,0,3:0:0:0:
479,146,53610,5,2,3:2:0:0:
264,198,53770,1,2,0:0:0:0:
440,325,53929,2,0,L|419:202,1,100,10|0,0:0|0:0,0:0:0:0:
139,51,54248,5,2,3:2:0:0:
354,103,54408,1,2,0:0:0:0:
178,230,54568,2,0,L|199:107,1,100,10|0,0:0|0:0,0:0:0:0:
458,22,54887,6,0,P|480:120|476:129,1,100,2|0,3:2|0:0,0:0:0:0:
506,255,55126,1,10,0:0:0:0:
506,255,55206,2,0,P|464:232|456:222,1,50,2|0,0:0|0:0,0:0:0:0:
330,192,55365,2,0,P|370:167|383:165,1,50,10|0,0:0|0:0,0:0:0:0:
483,114,55525,6,0,P|461:251|456:297,1,150,6|0,0:0|0:0,0:0:0:0:
364,332,55844,1,10,0:0:0:0:
315,318,55924,1,10,0:0:0:0:
267,306,56004,1,10,0:0:0:0:
218,297,56084,1,10,0:0:0:0:
168,290,56163,5,6,3:2:0:0:
330,192,56323,1,2,0:0:0:0:
70,128,56482,1,10,0:0:0:0:
232,30,56642,2,0,L|253:153,1,100,2|0,0:0|3:0,0:0:0:0:
168,290,56961,5,2,0:0:0:0:
330,192,57121,1,10,0:0:0:0:
512,238,57280,1,2,0:0:0:0:
444,132,57440,5,2,3:2:0:0:
399,320,57600,1,2,0:0:0:0:
211,275,57759,1,10,0:0:0:0:
256,87,57919,2,0,P|335:92|360:119,1,100,2|0,0:0|3:0,0:0:0:0:
299,331,58238,6,0,P|282:344|239:354,1,50,2|0,0:0|0:0,0:0:0:0:
130,348,58397,2,0,P|110:339|80:307,1,50,10|0,0:0|0:0,0:0:0:0:
36,205,58557,2,0,P|33:183|46:141,1,50,2|0,0:0|0:0,0:0:0:0:
256,87,58717,5,2,3:2:0:0:
150,249,58876,1,2,0:0:0:0:
418,192,59036,1,10,0:0:0:0:
312,354,59195,2,0,L|297:232,1,100,2|0,0:0|3:0,0:0:0:0:
256,87,59514,5,2,0:0:0:0:
418,192,59674,1,10,0:0:0:0:
428,0,59834,1,2,0:0:0:0:
290,219,59993,6,0,B|182:230|224:132|106:142,1,200,2|8,3:2|0:0,0:0:0:0:
0,182,60472,2,0,P|-2:232|20:275,1,100,2|0,0:0|3:0,0:0:0:0:
277,130,60791,1,2,0:0:0:0:
279,80,60871,1,2,3:2:0:0:
256,37,60951,1,10,0:0:0:0:
121,234,61110,1,10,0:0:0:0:
296,336,61270,6,0,L|404:300,1,100,2|0,3:2|0:0,0:0:0:0:
501,317,61509,1,2,0:0:0:0:
501,317,61589,2,0,L|465:208,1,100,10|0,0:0|0:0,0:0:0:0:
482,111,61828,1,2,0:0:0:0:
482,111,61908,2,0,L|373:146,1,100,2|0,3:2|0:0,0:0:0:0:
277,130,62147,1,2,0:0:0:0:
277,130,62227,2,0,L|312:238,1,100,10|0,0:0|0:0,0:0:0:0:
201,357,62546,6,0,L|137:338,1,50,2|0,3:2|0:0,0:0:0:0:
61,315,62706,1,2,0:0:0:0:
172,138,62865,6,0,L|236:157,1,50,10|0,0:0|0:0,0:0:0:0:
312,180,63025,1,2,0:0:0:0:
61,315,63185,6,0,L|45:250,1,50,2|0,3:2|0:0,0:0:0:0:
27,172,63344,1,2,0:0:0:0:
312,180,63504,6,0,L|327:244,1,50,10|0,0:0|0:0,0:0:0:0:
346,323,63663,1,2,0:0:0:0:
27,172,63823,6,0,P|42:110|83:83,1,100,2|0,3:2|0:0,0:0:0:0:
206,43,64062,1,0,0:0:0:0:
232,53,64142,2,0,L|214:193,1,100,10|2,0:0|0:0,0:0:0:0:
512,233,64461,6,0,P|497:171|456:144,1,100,2|2,3:2|0:0,0:0:0:0:
333,104,64701,1,0,0:0:0:0:
307,114,64780,2,0,L|325:254,1,100,8|0,0:0|0:0,0:0:0:0:
256,375,65100,6,0,L|64:327,1,150.000005722046,6|0,3:2|0:0,0:0:0:0:
25,231,65339,1,6,3:2:0:0:
9,215,65419,2,0,L|90:191,1,75.0000028610231,6|0,3:2|0:0,0:0:0:0:
239,268,65578,2,0,L|322:248,1,75.0000028610231,6|0,3:2|0:0,0:0:0:0:
459,170,65738,5,8,0:0:0:0:
459,170,65818,1,6,3:2:0:0:
459,170,65897,2,0,P|478:121|461:79,1,75.0000028610231,6|0,3:2|0:0,0:0:0:0:
284,27,66057,5,14,3:2:0:0:
291,82,66137,1,10,0:0:0:0:
298,138,66217,1,10,0:0:0:0:
305,194,66296,1,10,0:0:0:0:
311,250,66376,5,6,3:2:0:0:
80,193,66536,1,2,0:0:0:0:
80,193,66615,1,2,0:0:0:0:
80,193,66695,1,10,0:0:0:0:
244,17,66855,1,2,0:0:0:0:
244,17,66935,1,2,0:0:0:0:
244,17,67014,1,2,3:2:0:0:
419,185,67174,5,2,0:0:0:0:
189,115,67334,1,10,0:0:0:0:
428,54,67493,1,2,0:0:0:0:
323,353,67653,5,2,3:2:0:0:
278,121,67812,1,2,0:0:0:0:
278,121,67892,1,2,0:0:0:0:
278,121,67972,1,10,0:0:0:0:
512,193,68131,1,2,0:0:0:0:
283,279,68291,1,2,3:2:0:0:
236,33,68451,5,2,0:0:0:0:
388,227,68610,1,10,0:0:0:0:
142,192,68770,1,2,0:0:0:0:
411,20,68929,5,6,3:2:0:0:
465,262,69089,1,2,0:0:0:0:
465,262,69169,1,2,0:0:0:0:
465,262,69248,1,10,0:0:0:0:
235,185,69408,1,2,0:0:0:0:
463,92,69568,1,2,3:2:0:0:
363,314,69727,5,2,0:0:0:0:
260,90,69887,1,10,0:0:0:0:
502,14,70046,1,0,0:0:0:0:
496,257,70206,6,0,P|388:237|366:203,1,150.000005722046,6|0,3:2|0:0,0:0:0:0:
270,297,70445,2,0,P|271:260|289:224,2,75.0000028610231,6|10|0,3:2|0:0|0:0,0:0:0:0:
172,205,70685,2,0,P|196:176|235:160,2,75.0000028610231,6|2|0,3:2|3:2|0:0,0:0:0:0:
188,78,70924,5,6,3:2:0:0:
237,70,71004,1,2,3:2:0:0:
283,87,71084,1,10,3:2:0:0:
315,125,71163,1,14,0:0:0:0:
270,297,71323,2,0,P|246:326|207:342,1,75.0000028610231,6|8,3:2|0:0,0:0:0:0:
31,239,71482,5,6,3:2:0:0:
4,196,71562,1,0,3:2:0:0:
0,147,71642,1,2,3:2:0:0:
15,100,71722,1,2,3:2:0:0:
50,65,71802,1,10,3:2:0:0:
97,48,71881,1,0,3:2:0:0:
146,53,71961,1,2,3:2:0:0:
188,78,72041,1,0,3:2:0:0:
216,120,72121,5,0,3:2:0:0:
244,162,72201,1,0,3:2:0:0:
286,187,72280,1,2,3:2:0:0:
335,192,72360,1,0,3:2:0:0:
382,175,72440,1,10,3:2:0:0:
417,140,72520,1,0,3:2:0:0:
432,93,72600,1,2,3:2:0:0:
428,44,72679,1,0,3:2:0:0:
405,0,72759,5,6,3:2:0:0:
374,39,72839,1,0,3:2:0:0:
353,84,72919,1,2,3:2:0:0:
345,133,72998,1,2,3:2:0:0:
349,183,73078,1,10,3:2:0:0:
365,230,73158,1,0,3:2:0:0:
393,272,73238,1,2,3:2:0:0:
429,305,73318,1,0,3:2:0:0:
472,328,73397,5,0,3:2:0:0:
467,279,73477,1,0,3:2:0:0:
448,233,73557,1,2,3:2:0:0:
417,194,73637,1,0,3:2:0:0:
375,166,73717,1,10,3:2:0:0:
328,151,73796,1,0,3:2:0:0:
278,151,73876,1,2,3:2:0:0:
230,164,73956,1,0,3:2:0:0:
188,191,74036,6,0,L|209:310,1,75.0000028610231,14|0,3:2|3:2,0:0:0:0:
472,328,74195,2,0,L|459:254,1,75.0000028610231,10|0,3:2|3:2,3:0:0:0:
323,191,74355,6,0,L|303:310,1,75.0000028610231,10|0,3:2|3:2,0:0:0:0:
63,328,74514,2,0,L|75:254,1,75.0000028610231,10|0,3:2|3:2,0:0:0:0:
191,19,74674,6,0,L|211:137,1,75.0000028610231,10|0,3:2|3:2,0:0:0:0:
357,328,74834,2,0,L|344:254,1,75.0000028610231,10|0,3:2|3:2,0:0:0:0:
321,19,74993,6,0,L|300:137,1,75.0000028610231,10|0,3:2|3:2,0:0:0:0:
155,328,75153,2,0,L|167:254,1,75.0000028610231,10|0,3:2|3:2,0:0:0:0:
409,76,75312,5,2,0:0:0:0:
415,76,75392,1,2,0:0:0:0:
422,78,75472,1,2,0:0:0:0:
430,79,75552,1,2,0:0:0:0:
437,81,75631,1,2,0:0:0:0:
445,82,75711,1,2,0:0:0:0:
452,83,75791,1,2,0:0:0:0:
460,85,75871,1,2,0:0:0:0:
467,87,75951,6,0,P|479:142|460:191,1,100,2|2,0:0|0:0,0:0:0:0:
393,272,76190,1,2,0:0:0:0:
393,272,76270,2,0,L|375:207,1,50,10|2,0:0|0:0,0:0:0:0:
255,161,76429,2,0,L|243:237,1,50,10|2,0:0|0:0,0:0:0:0:
92,332,76589,5,14,3:2:0:0:
80,66,79142,5,0,3:0:0:0:
454,34,81376,1,0,3:0:0:0:
386,173,81695,5,0,3:0:0:0:
61,182,82972,5,0,3:0:0:0:
436,309,84248,5,0,3:0:0:0:
436,309,84887,5,0,3:0:0:0:
436,309,85525,6,0,L|419:192,1,100,2|0,3:2|0:0,0:0:0:0:
318,92,85844,2,0,L|303:190,1,100,2|0,3:2|0:0,0:0:0:0:
200,309,86163,1,2,3:2:0:0:
185,210,86323,1,2,3:2:0:0:
185,210,86403,1,2,3:2:0:0:
185,210,86482,1,2,3:2:0:0:
82,92,86642,1,2,3:2:0:0:
67,190,86802,6,0,L|203:175,1,120,14|2,0:0|0:0,0:0:0:0:
266,131,87121,2,0,P|278:178|267:221,1,80,10|2,0:0|0:0,0:0:0:0:
446,349,87440,2,0,L|310:334,1,120,10|2,0:0|0:0,0:0:0:0:
247,290,87759,2,0,P|235:337|246:380,1,80,10|2,0:0|0:0,0:0:0:0:
67,190,88078,5,10,0:0:0:0:
186,176,88238,1,2,0:0:0:0:
128,304,88397,1,10,0:0:0:0:
247,290,88557,1,2,0:0:0:0:
303,161,88717,5,10,0:0:0:0:
422,147,88876,1,2,0:0:0:0:
364,275,89036,1,10,0:0:0:0:
483,261,89195,1,10,0:0:0:0:
496,62,89355,6,0,P|431:26|369:47,1,120,10|2,0:0|0:0,0:0:0:0:
290,81,89674,2,0,L|306:186,1,80,10|2,0:0|0:0,0:0:0:0:
2,119,89993,6,0,P|67:83|129:104,1,120,10|2,0:0|0:0,0:0:0:0:
208,138,90312,2,0,L|192:243,1,80,10|2,0:0|0:0,0:0:0:0:
383,310,90631,6,0,P|311:360|237:325,1,160,10|10,0:0|0:0,0:0:0:0:
148,290,91110,1,2,0:0:0:0:
26,206,91270,2,0,L|184:189,1,120,10|2,0:0|0:0,0:0:0:0:
229,220,91589,1,10,0:0:0:0:
71,362,91748,1,10,0:0:0:0:
239,289,91908,5,14,3:2:0:0:
233,254,91988,1,2,3:2:0:0:
229,220,92068,1,2,3:2:0:0:
225,186,92147,1,2,3:2:0:0:
220,152,92227,1,10,3:2:0:0:
216,117,92307,1,2,3:2:0:0:
212,84,92387,1,2,3:2:0:0:
207,50,92467,1,2,3:2:0:0:
203,18,92546,5,10,3:2:0:0:
164,29,92626,1,2,3:2:0:0:
132,53,92706,1,2,3:2:0:0:
111,86,92786,1,2,3:2:0:0:
104,125,92865,1,10,3:2:0:0:
111,164,92945,1,2,3:2:0:0:
133,198,93025,1,2,3:2:0:0:
164,222,93105,1,2,3:2:0:0:
203,232,93185,5,14,3:2:0:0:
242,237,93264,1,2,3:2:0:0:
281,228,93344,1,2,3:2:0:0:
314,206,93424,1,2,3:2:0:0:
338,174,93504,1,10,3:2:0:0:
372,153,93584,1,2,3:2:0:0:
411,148,93663,1,2,3:2:0:0:
449,160,93743,1,2,3:2:0:0:
478,186,93823,5,10,3:2:0:0:
494,223,93903,1,2,3:2:0:0:
492,263,93982,1,2,3:2:0:0:
474,298,94062,1,2,3:2:0:0:
442,322,94142,1,10,3:2:0:0:
404,330,94222,1,2,3:2:0:0:
365,323,94302,1,2,3:2:0:0:
332,300,94381,1,2,3:2:0:0:
312,266,94461,5,14,0:0:0:0:
466,20,94621,1,10,0:0:0:0:
402,239,94780,5,10,0:0:0:0:
177,32,94940,1,10,0:0:0:0:
490,135,95100,5,10,0:0:0:0:
130,242,95259,1,10,0:0:0:0:
361,14,95419,5,10,0:0:0:0:
306,321,95578,1,10,0:0:0:0:
14,169,95738,6,0,P|63:153|103:160,1,75.0000028610231,10|10,0:0|0:0,0:0:0:0:
178,205,95897,2,0,P|227:221|267:214,1,75.0000028610231,10|10,0:0|0:0,0:0:0:0:
335,157,96057,2,0,P|384:141|424:148,1,75.0000028610231,10|10,0:0|0:0,0:0:0:0:
498,209,96217,1,10,0:0:0:0:
498,209,96296,1,10,0:0:0:0:
498,209,96376,6,0,P|449:225|409:218,1,75.0000028610231,10|10,0:0|0:0,0:0:0:0:
258,129,96536,2,0,P|223:114|186:114,1,75.0000028610231,10|10,0:0|0:0,0:0:0:0:
68,250,96695,6,0,L|71:273,12,18.7500007152558,10|2|2|2|2|2|2|2|2|2|2|2|2,0:0|0:0|0:0|0:0|0:0|0:0|0:0|0:0|0:0|0:0|0:0|0:0|0:0,0:0:0:0:
183,317,97014,6,0,L|204:199,1,119.999996337891,6|0,3:2|0:0,0:0:0:0:
226,101,97254,1,2,0:0:0:0:
226,101,97334,1,10,0:0:0:0:
307,294,97493,1,2,0:0:0:0:
506,78,97653,6,0,P|438:32|388:39,1,119.999996337891,2|0,3:2|0:0,0:0:0:0:
305,59,97892,1,2,0:0:0:0:
305,59,97972,1,10,0:0:0:0:
445,218,98131,1,2,0:0:0:0:
183,317,98291,5,2,3:2:0:0:
417,131,98451,1,2,0:0:0:0:
144,40,98610,1,10,0:0:0:0:
123,60,98690,1,2,0:0:0:0:
110,87,98770,1,2,0:0:0:0:
108,116,98850,1,2,0:0:0:0:
115,144,98929,5,2,3:2:0:0:
403,33,99089,1,2,0:0:0:0:
306,283,99248,1,10,0:0:0:0:
222,0,99408,1,2,0:0:0:0:
43,302,99568,6,0,L|168:270,1,119.999996337891,2|0,3:2|0:0,0:0:0:0:
275,203,99807,1,2,0:0:0:0:
275,203,99887,1,10,0:0:0:0:
59,89,100046,1,2,0:0:0:0:
254,321,100206,6,0,L|279:179,1,119.999996337891,2|0,3:2|0:0,0:0:0:0:
219,83,100445,1,2,0:0:0:0:
219,83,100525,1,10,0:0:0:0:
377,279,100685,1,0,0:0:0:0:
470,13,100844,6,0,P|491:74|471:131,1,119.999996337891,2|0,3:2|0:0,0:0:0:0:
344,186,101084,1,2,0:0:0:0:
344,186,101163,2,0,L|203:165,1,119.999996337891,10|2,0:0|0:0,0:0:0:0:
495,320,101482,5,2,3:2:0:0:
373,77,101642,1,8,0:0:0:0:
373,77,101722,1,2,0:0:0:0:
373,77,101802,1,14,0:0:0:0:
253,337,101961,1,10,0:0:0:0:
47,70,102121,6,0,P|108:53|166:46,1,119.999996337891,6|0,3:2|0:0,0:0:0:0:
272,78,102360,1,2,0:0:0:0:
272,78,102440,2,0,L|248:150,1,59.9999981689454,10|0,0:0|0:0,0:0:0:0:
82,208,102600,2,0,L|106:272,1,59.9999981689454,2|0,0:0|0:0,0:0:0:0:
237,328,102759,5,2,3:2:0:0:
253,337,102839,2,0,L|299:214,1,119.999996337891,2|0,0:0|0:0,0:0:0:0:
383,123,103078,2,0,P|429:109|461:115,1,59.9999981689454,10|2,0:0|0:0,0:0:0:0:
472,250,103238,2,0,P|426:264|394:258,1,59.9999981689454,2|2,0:0|0:0,0:0:0:0:
173,175,103397,5,6,3:2:0:0:
376,10,103557,1,0,0:0:0:0:
376,10,103637,1,2,0:0:0:0:
376,10,103717,2,0,B|384:40|399:57|399:57|378:140,1,119.999996337891,10|2,0:0|0:0,0:0:0:0:
195,279,104036,5,2,3:2:0:0:
179,287,104115,2,0,B|171:257|156:240|156:240|177:157,1,119.999996337891,2|0,0:0|0:0,0:0:0:0:
390,218,104355,2,0,L|308:195,1,59.9999981689454,10|2,0:0|0:0,0:0:0:0:
137,82,104514,2,0,L|209:66,1,59.9999981689454,2|2,0:0|0:0,0:0:0:0:
463,0,104674,5,14,0:0:0:0:
498,243,104834,1,10,0:0:0:0:
266,154,104993,5,10,0:0:0:0:
463,0,105153,1,10,0:0:0:0:
380,233,105312,5,10,0:0:0:0:
142,165,105472,1,10,0:0:0:0:
370,73,105631,5,10,0:0:0:0:
335,318,105791,1,10,0:0:0:0:
83,232,105951,5,10,3:2:0:0:
72,221,106030,1,2,3:2:0:0:
64,208,106110,1,2,3:2:0:0:
58,194,106190,1,2,3:2:0:0:
55,180,106270,1,10,3:2:0:0:
55,165,106350,1,2,3:2:0:0:
57,150,106429,1,2,3:2:0:0:
61,136,106509,1,2,3:2:0:0:
69,122,106589,5,10,3:2:0:0:
121,172,106669,1,2,3:2:0:0:
136,244,106748,1,2,3:2:0:0:
107,311,106828,1,2,3:2:0:0:
45,350,106908,6,0,L|-9:358,2,29.9999990844727,10|2|2,3:2|0:0|0:0,0:0:0:0:
258,259,107068,2,0,L|287:263,2,29.9999990844727,10|2|2,3:2|0:0|0:0,0:0:0:0:
69,122,107227,5,6,3:2:0:0:
184,352,107387,1,2,0:0:0:0:
184,352,107467,1,2,0:0:0:0:
184,352,107546,1,10,0:0:0:0:
216,96,107706,1,2,0:0:0:0:
47,236,107865,5,2,3:2:0:0:
314,140,108025,1,2,0:0:0:0:
314,140,108105,1,2,0:0:0:0:
314,140,108185,1,10,0:0:0:0:
60,33,108344,1,2,0:0:0:0:
154,259,108504,5,2,3:2:0:0:
397,141,108663,1,2,0:0:0:0:
139,129,108823,1,10,0:0:0:0:
369,16,108982,1,2,0:0:0:0:
349,257,109142,5,2,3:2:0:0:
460,24,109302,1,2,0:0:0:0:
501,274,109461,1,10,0:0:0:0:
369,16,109621,1,2,0:0:0:0:
257,288,109780,5,6,3:2:0:0:
484,176,109940,1,2,0:0:0:0:
484,176,110020,1,2,0:0:0:0:
484,176,110100,1,10,0:0:0:0:
237,102,110259,1,2,0:0:0:0:
387,64,110419,5,2,3:2:0:0:
169,199,110578,1,2,0:0:0:0:
169,199,110658,1,2,0:0:0:0:
169,199,110738,1,10,0:0:0:0:
407,298,110897,1,2,0:0:0:0:
294,36,111057,6,0,L|269:225,1,150.000005722046,6|0,3:2|0:0,0:0:0:0:
218,348,111296,2,0,L|243:159,1,150.000005722046,6|0,3:2|0:0,0:0:0:0:
393,108,111536,2,0,L|241:224,1,150.000005722046,6|0,3:2|0:0,0:0:0:0:
118,275,111775,2,0,L|270:159,1,150.000005722046,6|0,3:2|0:0,0:0:0:0:
412,230,112014,6,0,L|293:214,1,75.0000028610231,6|0,3:2|0:0,0:0:0:0:
100,154,112174,2,0,L|223:170,1,75.0000028610231,6|0,3:2|0:0,0:0:0:0:
335,325,112334,6,0,P|386:354|444:344,1,119.999996337891,6|2,3:2|0:0,0:0:0:0:
512,221,112573,1,2,0:0:0:0:
512,221,112653,2,0,L|501:151,3,59.9999981689454,10|2|2|2,0:0|0:0|0:0|0:0,0:0:0:0:
356,110,112972,6,0,L|343:191,1,59.9999981689454,2|2,3:2|0:0,0:0:0:0:
223,268,113131,2,0,L|210:192,1,59.9999981689454,2|2,0:0|0:0,0:0:0:0:
99,97,113291,1,10,0:0:0:0:
96,111,113371,1,2,0:0:0:0:
94,126,113451,1,2,0:0:0:0:
91,141,113530,1,2,0:0:0:0:
89,156,113610,5,6,3:2:0:0:
128,348,113770,1,2,0:0:0:0:
128,348,113850,1,2,0:0:0:0:
128,348,113929,2,0,P|55:321|-5:318,1,119.999996337891,10|2,0:0|0:0,0:0:0:0:
223,268,114169,1,2,0:0:0:0:
223,268,114248,6,0,P|305:310|358:313,1,119.999996337891,2|2,3:2|0:0,0:0:0:0:
461,264,114488,1,2,0:0:0:0:
461,264,114568,2,0,P|422:239|371:228,1,59.9999981689454,10|2,0:0|0:0,0:0:0:0:
273,114,114727,2,0,P|243:119|217:133,1,59.9999981689454,10|2,0:0|0:0,0:0:0:0:
0,208,114887,5,14,0:0:0:0:
302,286,115046,1,2,3:2:0:0:
77,93,115206,5,14,0:0:0:0:
316,290,115365,1,2,3:2:0:0:
194,20,115525,5,14,0:0:0:0:
327,300,115685,1,2,3:2:0:0:
330,3,115844,5,14,0:0:0:0:
333,313,116004,1,2,3:2:0:0:
460,45,116163,5,14,0:0:0:0:
486,97,116243,1,2,0:0:0:0:
482,156,116323,1,2,0:0:0:0:
447,205,116403,1,2,0:0:0:0:
393,228,116482,5,14,0:0:0:0:
334,220,116562,1,2,0:0:0:0:
288,182,116642,1,2,0:0:0:0:
248,138,116722,1,2,0:0:0:0:
193,115,116802,5,14,0:0:0:0:
134,117,116881,1,2,0:0:0:0:
80,143,116961,1,2,0:0:0:0:
53,196,117041,1,2,0:0:0:0:
64,255,117121,6,0,L|32:273,1,29.9999990844727,14|2,0:0|0:0,0:0:0:0:
93,304,117201,2,0,L|72:333,1,29.9999990844727,2|2,0:0|0:0,0:0:0:0:
138,330,117280,2,0,L|129:369,1,29.9999990844727,2|2,0:0|0:0,0:0:0:0:
188,333,117360,2,0,L|198:368,1,29.9999990844727,2|2,0:0|0:0,0:0:0:0:
238,314,117440,6,0,P|335:276|442:276,2,200,6|10|2,3:2|0:0|3:2,0:0:0:0:
274,180,118238,1,2,0:0:0:0:
507,209,118397,2,0,P|446:178|381:178,1,100,10|2,0:0|0:0,0:0:0:0:
216,26,118717,6,0,B|240:149|163:101|188:216,1,200,2|10,3:2|0:0,0:0:0:0:
130,65,119195,1,2,0:0:0:0:
310,8,119355,2,0,P|320:58|308:123,1,100,2|0,3:2|0:0,0:0:0:0:
142,234,119674,2,0,P|185:216|211:216,1,50,10|0,0:0|0:0,0:0:0:0:
359,123,119834,2,0,P|337:111|313:106,1,50,10|0,0:0|0:0,0:0:0:0:
362,280,119993,6,0,P|446:273|491:154,1,200,2|10,3:2|0:0,0:0:0:0:
427,81,120472,1,2,0:0:0:0:
264,182,120631,2,0,L|281:302,1,100,2|0,3:2|0:0,0:0:0:0:
427,81,120951,1,10,0:0:0:0:
216,26,121110,5,2,0:0:0:0:
164,249,121270,1,2,3:2:0:0:
216,26,121429,1,2,0:0:0:0:
384,174,121589,1,10,0:0:0:0:
306,21,121748,1,2,0:0:0:0:
275,281,121908,5,10,0:0:0:0:
124,25,122068,1,10,0:0:0:0:
50,288,122227,1,10,0:0:0:0:
216,26,122387,1,10,0:0:0:0:
361,245,122546,6,0,P|301:283|249:269,1,100,2|0,3:2|0:0,0:0:0:0:
80,143,122865,2,0,P|140:105|192:119,1,100,10|0,0:0|0:0,0:0:0:0:
328,2,123185,2,0,P|314:59|291:201,1,200,2|10,3:2|0:0,0:0:0:0:
362,357,123663,1,2,0:0:0:0:
147,186,123823,6,0,P|159:245|162:292,1,100,2|0,3:2|0:0,0:0:0:0:
17,363,124142,1,10,0:0:0:0:
277,295,124302,1,2,0:0:0:0:
17,363,124461,6,0,P|5:304|2:257,1,100,2|0,3:2|0:0,0:0:0:0:
76,126,124780,1,10,0:0:0:0:
154,368,124940,1,2,0:0:0:0:
406,183,125100,6,0,P|369:133|315:130,1,100,2|0,3:2|0:0,0:0:0:0:
115,251,125419,1,10,0:0:0:0:
321,211,125578,1,2,0:0:0:0:
209,65,125738,6,0,P|187:126|208:180,1,100,2|0,3:2|0:0,0:0:0:0:
306,304,126057,2,0,P|328:243|307:189,1,100,10|2,0:0|0:0,0:0:0:0:
100,136,126376,5,2,3:2:0:0:
318,109,126536,1,2,0:0:0:0:
222,246,126695,2,0,L|165:260,2,50,10|2|2,0:0|0:0|0:0,0:0:0:0:
434,212,127014,5,10,0:0:0:0:
209,122,127174,1,10,0:0:0:0:
435,95,127334,1,10,0:0:0:0:
222,246,127493,1,10,0:0:0:0:
447,325,127653,5,6,3:2:0:0:
326,146,127812,2,0,L|350:261,1,100,2|8,0:0|0:0,0:0:0:0:
447,325,128131,1,2,0:0:0:0:
258,209,128291,5,2,3:2:0:0:
234,202,128371,1,2,0:0:0:0:
210,202,128451,1,2,0:0:0:0:
187,210,128530,1,2,0:0:0:0:
118,242,128610,5,10,0:0:0:0:
95,251,128690,1,2,0:0:0:0:
70,256,128770,1,2,0:0:0:0:
46,253,128850,1,2,0:0:0:0:
0,191,128929,6,0,L|16:76,1,100,2|2,3:2|0:0,0:0:0:0:
135,20,129169,1,2,0:0:0:0:
135,20,129248,2,0,L|156:136,1,100,10|2,0:0|0:0,0:0:0:0:
225,310,129568,5,2,3:2:0:0:
249,305,129647,1,2,0:0:0:0:
273,301,129727,1,2,0:0:0:0:
297,297,129807,1,2,0:0:0:0:
321,293,129887,1,10,0:0:0:0:
99,204,130046,1,2,0:0:0:0:
349,70,130206,6,0,P|371:165|364:180,1,100,6|2,3:2|0:0,0:0:0:0:
225,310,130525,2,0,P|203:215|210:200,1,100,10|2,0:0|0:0,0:0:0:0:
495,185,130844,5,2,3:2:0:0:
485,219,130924,1,2,0:0:0:0:
462,247,131004,1,2,0:0:0:0:
429,263,131084,1,2,0:0:0:0:
393,264,131163,5,10,0:0:0:0:
349,240,131243,1,2,0:0:0:0:
302,223,131323,1,2,0:0:0:0:
252,216,131403,1,2,0:0:0:0:
202,217,131482,6,0,L|182:140,2,50,6|2|2,3:2|0:0|0:0,0:0:0:0:
313,312,131722,2,0,L|304:387,2,50,2|10|2,0:0|0:0|0:0,0:0:0:0:
408,178,131961,1,2,0:0:0:0:
173,332,132121,1,10,0:0:0:0:
359,93,132280,1,10,0:0:0:0:
288,361,132440,6,0,L|277:279,1,50,10|2,0:0|0:0,0:0:0:0:
283,37,132600,2,0,L|273:112,1,50,10|2,0:0|0:0,0:0:0:0:
385,350,132759,6,0,P|455:335|490:276,1,119.999996337891,14|0,0:0|0:0,0:0:0:0:
511,211,132998,1,2,0:0:0:0:
511,211,133078,1,10,0:0:0:0:
347,146,133238,1,2,0:0:0:0:
164,309,133397,6,0,P|94:294|59:235,1,119.999996337891,14|0,0:0|0:0,0:0:0:0:
38,170,133637,1,2,0:0:0:0:
38,170,133717,1,10,0:0:0:0:
202,105,133876,1,2,0:0:0:0:
262,316,134036,5,14,0:0:0:0:
302,73,134195,1,2,0:0:0:0:
262,316,134355,1,10,0:0:0:0:
228,19,134514,1,2,0:0:0:0:
357,197,134674,5,14,0:0:0:0:
123,167,134834,1,2,0:0:0:0:
417,136,134993,1,10,0:0:0:0:
432,174,135073,1,2,0:0:0:0:
432,216,135153,1,10,0:0:0:0:
415,254,135232,1,2,0:0:0:0:
386,284,135312,6,0,P|351:296|314:290,1,75.0000028610231,14|10,0:0|0:0,0:0:0:0:
167,336,135472,2,0,P|154:300|160:264,1,75.0000028610231,10|10,0:0|0:0,0:0:0:0:
115,116,135631,2,0,P|150:103|186:109,1,75.0000028610231,10|10,0:0|0:0,0:0:0:0:
334,64,135791,2,0,P|346:99|340:135,1,75.0000028610231,10|10,0:0|0:0,0:0:0:0:
257,209,135951,5,10,0:0:0:0:
242,204,136030,1,10,0:0:0:0:
242,189,136110,1,10,0:0:0:0:
257,184,136190,1,10,0:0:0:0:
265,196,136270,2,0,L|260:221,12,18.7500007152558,10|2|2|2|2|2|2|2|2|2|2|2|2,0:0|0:0|0:0|0:0|0:0|0:0|0:0|0:0|0:0|0:0|0:0|0:0|0:0,0:0:0:0:
261,8,136589,6,0,L|248:93,1,75.0000028610231,14|10,0:0|0:0,0:0:0:0:
261,376,136748,2,0,L|248:291,1,75.0000028610231,10|10,0:0|0:0,0:0:0:0:
125,66,136908,6,0,L|176:136,1,75.0000028610231,10|10,0:0|0:0,0:0:0:0:
386,327,137068,2,0,L|316:276,1,75.0000028610231,10|10,0:0|0:0,0:0:0:0:
77,192,137227,6,0,L|162:205,1,75.0000028610231,10|10,0:0|0:0,0:0:0:0:
445,192,137387,2,0,L|360:205,1,75.0000028610231,10|10,0:0|0:0,0:0:0:0:
130,322,137546,6,0,L|159:298,2,37.5000014305115,10|2|2,0:0|0:0|0:0,0:0:0:0:
379,72,137706,2,0,L|348:110,2,37.5000014305115,10|2|2,0:0|0:0|0:0,0:0:0:0:
256,192,137865,5,14,0:0:0:0:
