osu file format v14

[General]
AudioFilename: audio.mp3
AudioLeadIn: 0
PreviewTime: 25525
Countdown: 0
SampleSet: Soft
StackLeniency: 0.5
Mode: 0
LetterboxInBreaks: 0
WidescreenStoryboard: 1

[Editor]
Bookmarks: 76589,86802,137865
DistanceSpacing: 2
BeatDivisor: 4
GridSize: 32
TimelineZoom: 2.4

[Metadata]
Title:Love Infection
TitleUnicode:Love Infection
Artist::Poin7less
ArtistUnicode::Poin7less
Creator:Ogura Yui
Version:Extra
Source:
Tags:yuuma mpg mappers' guild fa featured artist electronic instrumental happy hardcore
BeatmapID:3574157
BeatmapSetID:1747369

[Difficulty]
HPDrainRate:5
CircleSize:3.8
OverallDifficulty:8
ApproachRate:9.3
SliderMultiplier:1.8
SliderTickRate:1

[Events]
//Background and Video events
0,0,"yuuma is pro mapper.jpg",0,0
//Break Periods
//Storyboard Layer 0 (Background)
//Storyboard Layer 1 (Fail)
//Storyboard Layer 2 (Pass)
//Storyboard Layer 3 (Foreground)
//Storyboard Layer 4 (Overlay)
//Storyboard Sound Samples

[TimingPoints]
5100,319.148936170213,4,2,1,50,1,0
5100,-142.857142857143,4,2,1,50,0,0
15312,-125,4,2,1,60,0,0
22972,-111.111111111111,4,2,1,70,0,0
25525,-100,4,2,1,80,0,0
35738,-83.3333333333333,4,2,1,80,0,0
45951,-100,4,2,1,70,0,0
65100,-83.3333333333333,4,2,1,80,0,0
66376,-100,4,2,1,70,0,0
70206,-83.3333333333333,4,2,1,80,0,0
71482,-83.3333333333333,4,2,1,70,0,0
74036,-83.3333333333333,4,2,1,80,0,0
75312,-100,4,2,1,80,0,0
76589,-100,4,2,1,50,0,0
85525,-125,4,2,1,50,0,0
86802,-125,4,2,1,60,0,0
91908,-100,4,2,1,60,0,0
95738,-100,4,2,1,80,0,0
97014,-100,4,2,1,80,0,1
111057,-83.3333333333333,4,2,1,80,0,1
112334,-100,4,2,1,80,0,1
117440,-100,4,2,1,80,0,0

[Colours]
Combo1 : 0,152,225
Combo2 : 255,149,255
Combo3 : 162,162,208

[HitObjects]
38,55,5100,6,0,L|52:146,1,62.9999980773926,2|2,0:0|0:0,0:0:0:0:
65,199,5419,1,2,0:0:0:0:
175,187,5578,6,0,L|161:278,1,62.9999980773926,2|2,0:0|0:0,0:0:0:0:
148,331,5897,1,2,0:0:0:0:
293,240,6057,5,2,0:0:0:0:
293,240,6217,1,2,0:0:0:0:
455,277,6376,6,0,L|445:192,1,62.9999980773926,2|2,0:0|0:0,0:0:0:0:
400,355,6695,1,2,0:0:0:0:
293,240,6855,6,0,L|303:168,1,62.9999980773926,2|2,0:0|0:0,0:0:0:0:
242,324,7174,1,2,0:0:0:0:
156,187,7334,6,0,L|146:105,1,62.9999980773926,2|2,0:0|0:0,0:0:0:0:
56,242,7653,6,0,P|90:267|135:266,2,62.9999980773926,2|2|2,0:0|0:0|0:0,0:0:0:0:
293,240,8131,2,0,P|249:212|218:214,2,62.9999980773926,2|2|2,0:0|0:0|0:0,0:0:0:0:
203,326,8610,1,2,0:0:0:0:
203,326,8770,1,2,0:0:0:0:
356,340,8929,6,0,P|400:330|423:302,1,62.9999980773926,2|2,0:0|0:0,0:0:0:0:
470,228,9248,1,2,0:0:0:0:
337,112,9408,1,2,0:0:0:0:
302,243,9568,1,2,0:0:0:0:
402,168,9727,1,2,0:0:0:0:
253,104,9887,2,0,L|238:185,1,62.9999980773926,2|2,0:0|0:0,0:0:0:0:
75,282,10206,6,0,L|60:210,1,62.9999980773926,2|2,0:0|0:0,0:0:0:0:
40,134,10525,1,2,0:0:0:0:
185,221,10685,6,0,L|198:150,1,62.9999980773926,2|2,0:0|0:0,0:0:0:0:
213,73,11004,1,2,0:0:0:0:
363,162,11163,5,2,0:0:0:0:
363,162,11323,1,2,0:0:0:0:
407,70,11482,6,0,P|359:58|324:67,1,62.9999980773926,2|2,0:0|0:0,0:0:0:0:
474,138,11802,1,2,0:0:0:0:
374,222,11961,6,0,P|361:175|366:148,1,62.9999980773926,2|2,0:0|0:0,0:0:0:0:
446,285,12280,1,2,0:0:0:0:
353,321,12440,6,0,L|277:302,1,62.9999980773926,2|2,0:0|0:0,0:0:0:0:
163,269,12759,6,0,L|153:199,2,62.9999980773926,2|2|2,0:0|0:0|0:0,0:0:0:0:
270,212,13238,2,0,L|280:142,2,62.9999980773926,2|2|2,0:0|0:0|0:0,0:0:0:0:
164,102,13717,1,2,0:0:0:0:
164,102,13876,1,2,0:0:0:0:
260,26,14036,6,0,B|364:12|319:116|433:100,1,188.999994232178,2|0,0:0|0:0,0:0:0:0:
278,149,14674,2,0,B|174:135|219:239|104:223,1,188.999994232178,2|0,0:0|0:0,0:0:0:0:
238,312,15312,5,6,0:0:0:0:
252,320,15631,1,10,0:0:0:0:
268,326,15951,2,0,L|337:308,2,72,2|2|10,0:0|0:0|0:0,0:0:0:0:
425,349,16429,1,2,0:0:0:0:
442,357,16748,6,0,P|459:311|449:272,1,72,2|10,0:0|0:0,0:0:0:0:
408,210,17068,1,2,0:0:0:0:
467,80,17227,2,0,P|482:129|467:167,1,72,2|10,0:0|0:0,0:0:0:0:
408,210,17546,2,0,L|319:195,1,72,10|2,0:0|0:0,0:0:0:0:
202,180,17865,5,2,0:0:0:0:
202,180,18025,1,2,0:0:0:0:
277,96,18185,1,10,0:0:0:0:
277,96,18504,2,0,L|263:8,2,72,2|2|10,0:0|0:0|0:0,0:0:0:0:
164,75,18982,1,2,0:0:0:0:
143,72,19302,6,0,L|49:51,1,72,2|10,0:0|0:0,0:0:0:0:
1,123,19621,1,2,0:0:0:0:
62,244,19780,2,0,L|77:168,1,72,2|10,0:0|0:0,0:0:0:0:
187,164,20100,2,0,L|200:234,1,72,10|10,0:0|0:0,0:0:0:0:
271,340,20419,6,0,P|342:321|418:316,1,144,2|10,3:2|0:0,0:0:0:0:
476,224,20897,2,0,P|417:209|381:207,1,72,2|2,0:0|0:0,0:0:0:0:
296,229,21217,1,2,0:0:0:0:
332,124,21376,2,0,P|378:104|412:102,1,72,10|2,0:0|3:2,0:0:0:0:
296,229,21695,6,0,P|245:211|227:177,1,72,2|2,3:2|0:0,0:0:0:0:
123,212,22014,2,0,P|129:157|156:133,1,72,10|2,0:0|0:0,0:0:0:0:
62,85,22334,1,2,3:2:0:0:
78,63,22413,1,2,0:0:0:0:
101,49,22493,1,2,0:0:0:0:
127,43,22573,1,2,0:0:0:0:
154,45,22653,2,0,L|197:51,3,36,10|2|2|2,0:0|0:0|0:0|0:0,0:0:0:0:
269,100,22972,6,0,L|373:79,1,80.9999975280763,2|0,3:2|0:0,0:0:0:0:
465,141,23291,2,0,L|481:220,1,80.9999975280763,10|2,3:2|0:0,0:0:0:0:
424,337,23610,2,0,L|344:353,1,80.9999975280763,8|2,3:2|0:0,0:0:0:0:
228,296,23929,2,0,L|211:216,1,80.9999975280763,10|0,3:2|0:0,0:0:0:0:
154,45,24248,5,2,3:2:0:0:
123,41,24327,1,2,3:2:0:0:
94,48,24407,1,2,3:2:0:0:
68,63,24487,1,2,3:2:0:0:
48,86,24567,1,2,3:2:0:0:
37,114,24646,1,2,3:2:0:0:
35,144,24726,1,2,3:2:0:0:
42,174,24806,1,2,3:2:0:0:
59,199,24887,2,0,L|56:223,14,20.2499993820191,2|2|2|2|2|2|2|2|2|2|2|2|2|2|2,3:2|3:2|3:2|3:2|3:2|3:2|3:2|3:2|3:2|3:2|3:2|3:2|3:2|3:2|3:2,0:0:0:0:
129,134,25525,6,0,L|234:149,1,90,6|0,3:2|0:0,0:0:0:0:
405,265,25844,1,10,0:0:0:0:
405,265,25924,1,2,0:0:0:0:
405,265,26004,2,0,P|430:222|428:173,1,90,2|0,0:0|3:2,0:0:0:0:
291,27,26323,1,2,0:0:0:0:
339,197,26482,1,10,0:0:0:0:
143,313,26642,2,0,L|127:110,1,180,2|0,0:0|0:0,0:0:0:0:
291,27,27121,5,10,0:0:0:0:
291,27,27201,1,2,0:0:0:0:
291,27,27280,2,0,P|227:4|197:8,1,90,2|0,0:0|3:2,0:0:0:0:
239,226,27600,1,2,0:0:0:0:
389,50,27759,1,10,0:0:0:0:
433,240,27919,1,2,0:0:0:0:
233,88,28078,6,0,L|215:190,1,90,2|0,3:2|0:0,0:0:0:0:
366,357,28397,1,10,0:0:0:0:
366,357,28477,1,2,0:0:0:0:
366,357,28557,2,0,L|350:268,1,90,2|0,0:0|3:2,0:0:0:0:
116,247,28876,1,2,0:0:0:0:
327,149,29036,1,10,0:0:0:0:
218,356,29195,1,2,0:0:0:0:
131,120,29355,6,0,P|67:143|45:177,1,90,2|0,3:2|0:0,0:0:0:0:
258,258,29674,1,10,0:0:0:0:
78,347,29834,1,2,0:0:0:0:
276,250,29993,5,2,3:2:0:0:
225,101,30153,1,2,0:0:0:0:
46,225,30312,1,10,0:0:0:0:
80,64,30472,1,2,0:0:0:0:
193,334,30631,5,2,3:2:0:0:
193,334,30951,2,0,L|188:285,1,45,10|2,0:0|0:0,0:0:0:0:
172,131,31110,1,2,0:0:0:0:
296,302,31270,2,0,L|291:253,1,45,2|2,3:2|0:0,0:0:0:0:
275,99,31429,1,2,0:0:0:0:
398,279,31589,1,10,0:0:0:0:
371,64,31748,1,2,0:0:0:0:
237,212,31908,5,2,3:2:0:0:
493,194,32068,1,2,0:0:0:0:
237,212,32227,1,10,0:0:0:0:
459,104,32387,1,2,0:0:0:0:
226,65,32546,1,2,3:2:0:0:
226,65,32626,2,0,P|164:84|144:110,1,90,2|0,0:0|0:0,0:0:0:0:
91,169,32865,2,0,L|108:273,1,90,10|2,0:0|0:0,0:0:0:0:
319,352,33185,6,0,L|333:246,1,90,2|2,3:2|0:0,0:0:0:0:
343,92,33504,1,10,0:0:0:0:
426,282,33663,2,0,P|456:278|472:262,1,45,2|2,0:0|0:0,0:0:0:0:
284,159,33823,2,0,P|233:177|205:222,1,90,2|2,3:2|0:0,0:0:0:0:
168,282,34062,1,2,0:0:0:0:
168,282,34142,2,0,P|127:319|78:323,1,90,10|2,0:0|0:0,0:0:0:0:
15,179,34461,5,2,3:2:0:0:
15,179,34541,1,2,0:0:0:0:
15,179,34621,2,0,L|111:161,1,90,2|8,0:0|0:0,0:0:0:0:
211,204,34860,1,2,0:0:0:0:
211,204,34940,2,0,L|273:193,1,45,0|0,0:0|0:0,0:0:0:0:
417,64,35100,6,0,L|300:51,1,90,2|0,3:2|0:0,0:0:0:0:
232,103,35339,1,2,0:0:0:0:
232,103,35419,2,0,L|163:93,1,45,8|0,0:0|0:0,0:0:0:0:
103,162,35578,2,0,L|49:152,1,45,2|0,0:0|0:0,0:0:0:0:
105,27,35738,6,0,P|143:95|113:194,1,161.999995056153,6|2,3:2|0:0,0:0:0:0:
74,260,36057,1,10,0:0:0:0:
296,154,36217,1,2,0:0:0:0:
385,350,36376,6,0,P|321:290|202:301,1,161.999995056153,2|2,3:2|0:0,0:0:0:0:
152,325,36695,1,10,0:0:0:0:
52,117,36855,1,2,0:0:0:0:
310,46,37014,6,0,P|300:104|295:166,1,107.999996704102,2|2,3:2|0:0,0:0:0:0:
152,325,37334,2,0,P|144:284|136:258,1,53.9999983520508,10|2,0:0|0:0,0:0:0:0:
329,118,37493,2,0,P|321:162|319:198,1,53.9999983520508,2|2,0:0|0:0,0:0:0:0:
264,361,37653,1,2,3:2:0:0:
207,145,37812,1,2,0:0:0:0:
454,295,37972,1,10,0:0:0:0:
397,72,38131,1,2,0:0:0:0:
298,282,38291,6,0,B|241:272|241:272|213:284|213:284|127:269,1,161.999995056153,2|2,3:2|0:0,0:0:0:0:
47,259,38610,1,10,0:0:0:0:
260,174,38770,1,2,0:0:0:0:
85,22,38929,6,0,B|95:79|95:79|83:107|83:107|98:193,1,161.999995056153,2|2,3:2|0:0,0:0:0:0:
139,273,39248,1,10,0:0:0:0:
213,57,39408,1,2,0:0:0:0:
298,282,39568,6,0,P|362:277|395:243,1,107.999996704102,2|2,3:2|0:0,0:0:0:0:
443,178,39807,1,2,0:0:0:0:
443,178,39887,1,10,0:0:0:0:
213,57,40046,2,0,P|183:65|156:91,1,53.9999983520508,2|2,0:0|0:0,0:0:0:0:
121,166,40206,6,0,L|140:281,1,107.999996704102,2|0,3:2|0:0,0:0:0:0:
210,342,40445,1,2,0:0:0:0:
210,342,40525,2,0,L|227:235,1,107.999996704102,10|2,0:0|0:0,0:0:0:0:
424,77,40844,6,0,P|450:134|436:190,1,107.999996704102,10|2,0:0|0:0,0:0:0:0:
438,328,41163,2,0,P|375:322|334:281,1,107.999996704102,10|2,0:0|0:0,0:0:0:0:
213,214,41482,2,0,P|249:162|304:147,1,107.999996704102,10|2,0:0|0:0,0:0:0:0:
424,77,41802,1,10,0:0:0:0:
341,294,41961,1,2,0:0:0:0:
89,278,42121,6,0,L|56:165,1,107.999996704102,10|2,0:0|0:0,0:0:0:0:
150,75,42440,2,0,L|264:102,1,107.999996704102,10|2,0:0|0:0,0:0:0:0:
295,232,42759,2,0,L|213:317,1,107.999996704102,10|2,0:0|0:0,0:0:0:0:
89,278,43078,1,10,0:0:0:0:
150,75,43238,1,2,0:0:0:0:
295,232,43397,5,10,0:0:0:0:
58,174,43557,1,10,0:0:0:0:
287,110,43717,1,10,0:0:0:0:
220,309,43876,1,10,0:0:0:0:
410,168,44036,1,10,0:0:0:0:
192,82,44195,1,10,0:0:0:0:
341,273,44355,1,10,0:0:0:0:
380,45,44514,1,10,0:0:0:0:
207,194,44674,5,10,0:0:0:0:
207,194,44754,1,10,0:0:0:0:
207,194,44834,2,0,L|138:183,1,53.9999983520508,10|10,0:0|0:0,0:0:0:0:
376,137,44993,1,10,0:0:0:0:
376,137,45073,1,10,0:0:0:0:
376,137,45153,2,0,L|442:152,1,53.9999983520508,10|10,0:0|0:0,0:0:0:0:
329,283,45312,2,0,L|321:229,1,53.9999983520508,10|10,0:0|0:0,0:0:0:0:
265,40,45472,2,0,L|248:102,1,53.9999983520508,10|10,0:0|0:0,0:0:0:0:
159,280,45631,6,0,L|163:304,12,13.4999995880127,10|2|2|2|2|2|2|2|2|2|2|2|2,0:0|0:0|0:0|0:0|0:0|0:0|0:0|0:0|0:0|0:0|0:0|0:0|0:0,0:0:0:0:
161,312,45951,6,0,P|110:342|67:336,1,90,2|2,3:2|0:0,0:0:0:0:
30,118,46270,2,0,P|67:89|134:102,1,90,10|0,0:0|0:0,0:0:0:0:
197,131,46509,1,2,0:0:0:0:
197,131,46589,2,0,L|180:226,1,90,2|2,3:2|0:0,0:0:0:0:
349,339,46908,2,0,L|335:243,1,90,10|0,0:0|0:0,0:0:0:0:
425,57,47227,6,0,L|312:40,1,90,2|2,3:2|0:0,0:0:0:0:
184,178,47546,2,0,L|290:157,1,90,10|0,0:0|0:0,0:0:0:0:
489,187,47865,2,0,P|486:242|449:281,1,90,2|2,3:2|0:0,0:0:0:0:
249,300,48185,1,10,0:0:0:0:
335,93,48344,1,0,0:0:0:0:
369,330,48504,6,0,P|324:338|270:318,1,90,2|2,3:2|0:0,0:0:0:0:
97,173,48823,2,0,P|142:165|196:185,1,90,10|0,0:0|0:0,0:0:0:0:
335,93,49142,2,0,P|315:178|311:199,1,90,2|2,3:2|0:0,0:0:0:0:
158,342,49461,2,0,P|148:298|137:254,1,90,10|0,0:0|0:0,0:0:0:0:
41,74,49780,5,2,3:2:0:0:
231,117,49940,1,2,0:0:0:0:
53,188,50100,1,10,0:0:0:0:
238,127,50259,1,2,0:0:0:0:
121,59,50419,1,2,3:2:0:0:
238,271,50578,2,0,L|248:209,1,45,2|8,0:0|0:0,0:0:0:0:
280,35,50738,1,10,0:0:0:0:
138,215,50897,1,0,3:0:0:0:
360,228,51057,6,0,L|457:209,1,90,2|2,3:2|0:0,0:0:0:0:
474,3,51376,2,0,L|376:20,1,90,10|0,0:0|0:0,0:0:0:0:
154,77,51695,2,0,P|153:148|179:185,1,90,2|2,3:2|0:0,0:0:0:0:
360,228,52014,2,0,P|361:157|335:120,1,90,10|0,0:0|0:0,0:0:0:0:
139,69,52334,5,2,3:2:0:0:
189,276,52493,1,2,0:0:0:0:
353,141,52653,2,0,L|239:119,1,90,10|0,0:0|0:0,0:0:0:0:
35,215,52972,2,0,L|140:193,1,90,2|0,3:2|0:0,0:0:0:0:
320,47,53291,1,10,0:0:0:0:
279,220,53451,1,0,3:0:0:0:
97,26,53610,6,0,L|114:135,1,90,2|2,3:2|0:0,0:0:0:0:
145,292,53929,2,0,P|182:319|241:318,1,90,10|0,0:0|0:0,0:0:0:0:
407,165,54248,2,0,P|370:138|311:139,1,90,2|2,3:2|0:0,0:0:0:0:
158,203,54568,2,0,L|141:312,1,90,10|0,0:0|0:0,0:0:0:0:
372,375,54887,5,2,3:2:0:0:
332,217,55046,1,0,0:0:0:0:
332,217,55126,1,10,0:0:0:0:
332,217,55206,1,2,0:0:0:0:
233,350,55365,1,10,0:0:0:0:
413,272,55525,6,0,L|511:250,1,90,6|0,0:0|0:0,0:0:0:0:
291,121,55844,1,10,0:0:0:0:
248,132,55923,1,10,0:0:0:0:
216,164,56003,1,10,0:0:0:0:
205,207,56083,1,10,0:0:0:0:
217,249,56163,6,0,P|233:323|236:353,1,90,6|2,3:2|0:0,0:0:0:0:
361,197,56482,1,10,0:0:0:0:
133,131,56642,2,0,P|122:185|121:245,1,90,2|0,0:0|3:0,0:0:0:0:
234,337,56961,2,0,P|295:322|330:308,1,90,2|10,0:0|0:0,0:0:0:0:
361,197,57280,1,2,0:0:0:0:
120,219,57440,6,0,P|64:221|29:198,1,90,2|2,3:2|0:0,0:0:0:0:
98,63,57759,1,10,0:0:0:0:
252,6,57919,2,0,P|269:59|257:111,1,90,2|0,0:0|3:0,0:0:0:0:
227,243,58238,1,2,0:0:0:0:
382,102,58397,1,10,0:0:0:0:
180,61,58557,1,2,0:0:0:0:
346,226,58717,6,0,L|453:207,1,90,2|2,3:2|0:0,0:0:0:0:
277,101,59036,1,10,0:0:0:0:
143,261,59195,2,0,L|49:240,1,90,2|0,0:0|3:0,0:0:0:0:
196,145,59514,1,2,0:0:0:0:
271,270,59674,1,10,0:0:0:0:
378,176,59834,1,2,0:0:0:0:
493,349,59993,6,0,P|487:304|373:285,1,180,2|8,3:2|0:0,0:0:0:0:
258,359,60472,2,0,L|273:248,1,90,2|0,0:0|3:0,0:0:0:0:
301,116,60791,1,2,0:0:0:0:
301,116,60871,1,2,3:2:0:0:
301,116,60951,1,10,0:0:0:0:
373,284,61110,1,10,0:0:0:0:
473,85,61270,6,0,P|436:56|392:55,1,90,2|0,3:2|0:0,0:0:0:0:
246,115,61589,1,10,0:0:0:0:
295,253,61748,2,0,P|332:282|376:283,1,90,0|2,0:0|3:2,0:0:0:0:
497,215,62068,1,0,0:0:0:0:
348,144,62227,1,10,0:0:0:0:
201,209,62387,1,0,0:0:0:0:
342,333,62546,6,0,B|357:288|357:288|345:246,1,90,2|2,3:2|0:0,0:0:0:0:
287,113,62865,1,10,0:0:0:0:
128,263,63025,2,0,B|113:218|113:218|124:176,1,90,2|2,0:0|3:2,0:0:0:0:
183,43,63344,1,2,0:0:0:0:
245,194,63504,1,10,0:0:0:0:
89,163,63663,1,2,0:0:0:0:
280,91,63823,6,0,B|380:79|349:171|445:160,1,180,2|10,3:2|0:0,0:0:0:0:
312,264,64302,2,0,P|254:250|229:219,1,90,2|2,0:0|3:2,0:0:0:0:
83,69,64621,2,0,P|141:83|166:114,1,90,2|8,0:0|0:0,0:0:0:0:
234,229,64940,1,0,0:0:0:0:
69,304,65100,6,0,B|50:244|50:244|62:187,1,107.999996704102,6|0,3:2|0:0,0:0:0:0:
100,195,65339,2,0,B|119:255|119:255|107:312,1,107.999996704102,6|0,3:2|0:0,0:0:0:0:
95,377,65578,1,6,3:2:0:0:
234,229,65738,6,0,L|292:240,1,53.9999983520508,8|6,0:0|3:2,0:0:0:0:
366,318,65897,2,0,L|419:307,1,53.9999983520508,6|0,3:2|0:0,0:0:0:0:
493,226,66058,1,14,3:2:0:0:
503,173,66137,1,10,0:0:0:0:
479,126,66217,1,10,0:0:0:0:
431,103,66297,1,10,0:0:0:0:
380,114,66376,6,0,L|368:222,1,90,6|2,3:2|0:0,0:0:0:0:
244,339,66695,1,10,0:0:0:0:
149,187,66855,2,0,P|184:159|258:165,1,90,2|2,0:0|3:2,0:0:0:0:
428,283,67174,2,0,P|393:311|319:305,1,90,2|10,0:0|0:0,0:0:0:0:
217,243,67493,1,2,0:0:0:0:
334,46,67653,6,0,P|324:105|315:190,1,135,2|2,3:2|0:0,0:0:0:0:
328,221,67972,1,10,0:0:0:0:
189,73,68131,2,0,P|144:44|74:58,1,90,2|2,0:0|3:2,0:0:0:0:
106,243,68451,2,0,P|150:274|202:273,1,90,2|10,0:0|0:0,0:0:0:0:
328,221,68770,1,2,0:0:0:0:
108,42,68929,6,0,L|124:152,1,90,6|2,3:2|0:0,0:0:0:0:
102,158,69169,1,2,0:0:0:0:
102,158,69248,1,10,0:0:0:0:
220,288,69408,2,0,L|234:191,1,90,2|2,0:0|3:2,0:0:0:0:
334,46,69727,2,0,P|380:38|428:63,1,90,2|10,0:0|0:0,0:0:0:0:
512,187,70046,1,0,0:0:0:0:
331,170,70206,6,0,P|285:198|213:192,1,107.999996704102,6|0,3:2|0:0,0:0:0:0:
204,283,70445,2,0,P|162:259|155:233,2,53.9999983520508,6|10|0,3:2|0:0|0:0,0:0:0:0:
76,270,70685,2,0,P|81:226|98:204,2,53.9999983520508,6|2|0,3:2|3:2|0:0,0:0:0:0:
25,159,70924,1,6,3:2:0:0:
25,159,71004,2,0,P|52:138|88:138,1,53.9999983520508,2|10,3:2|3:2,0:0:0:0:
192,52,71163,1,14,0:0:0:0:
192,52,71323,2,0,L|180:130,1,53.9999983520508,6|8,3:2|0:0,0:0:0:0:
221,278,71482,5,6,3:2:0:0:
240,313,71561,1,0,3:2:0:0:
271,338,71641,1,2,3:2:0:0:
309,352,71721,1,2,3:2:0:0:
349,352,71801,1,10,3:2:0:0:
387,337,71880,1,0,3:2:0:0:
417,311,71960,1,2,3:2:0:0:
437,275,72040,1,0,3:2:0:0:
442,235,72121,2,0,L|451:174,1,53.9999983520508,0|0,3:2|3:2,0:0:0:0:
393,81,72280,5,2,3:2:0:0:
393,81,72360,1,0,3:2:0:0:
393,81,72440,2,0,L|333:93,1,53.9999983520508,10|0,3:2|3:2,0:0:0:0:
250,139,72600,2,0,L|258:196,1,53.9999983520508,2|0,3:2|3:2,0:0:0:0:
221,278,72759,5,6,3:2:0:0:
182,290,72838,1,0,3:2:0:0:
142,284,72918,1,2,3:2:0:0:
109,262,72998,1,2,3:2:0:0:
87,228,73078,1,10,3:2:0:0:
108,194,73157,1,0,3:2:0:0:
114,154,73237,1,2,3:2:0:0:
104,115,73317,1,0,3:2:0:0:
80,82,73397,2,0,L|13:101,1,53.9999983520508,0|0,3:2|3:2,0:0:0:0:
207,138,73557,1,2,3:2:0:0:
207,138,73637,1,0,3:2:0:0:
207,138,73717,2,0,L|259:124,1,53.9999983520508,10|0,3:2|3:2,0:0:0:0:
87,228,73876,2,0,L|12:219,1,53.9999983520508,2|0,3:2|3:2,0:0:0:0:
161,42,74036,5,14,3:2:0:0:
343,159,74195,1,10,3:2:0:0:
175,52,74355,1,10,3:2:0:0:
325,251,74514,1,10,3:2:0:0:
395,33,74674,1,10,3:2:0:0:
329,269,74834,1,10,3:2:0:0:
270,33,74993,1,10,3:2:0:0:
434,249,75153,1,10,3:2:0:0:
240,12,75312,5,2,0:0:0:0:
237,22,75391,1,2,0:0:0:0:
235,33,75471,1,2,0:0:0:0:
233,45,75551,1,2,0:0:0:0:
233,56,75631,1,2,0:0:0:0:
233,67,75710,1,2,0:0:0:0:
234,78,75790,1,2,0:0:0:0:
236,89,75870,1,2,0:0:0:0:
238,100,75951,2,0,P|244:140|241:156,3,45,2|0|2|2,0:0|0:0|0:0|0:0,0:0:0:0:
219,229,76270,1,10,0:0:0:0:
59,64,76429,1,10,0:0:0:0:
103,254,76589,5,14,3:2:0:0:
103,254,79142,5,0,3:0:0:0:
90,160,81376,5,0,3:0:0:0:
103,254,81695,1,0,3:0:0:0:
103,254,82972,5,0,3:0:0:0:
103,254,84248,5,0,3:0:0:0:
255,152,84887,5,0,3:0:0:0:
430,52,85525,5,2,3:2:0:0:
430,52,85844,1,2,3:2:0:0:
430,52,86163,1,2,3:2:0:0:
416,158,86323,1,2,3:2:0:0:
416,158,86403,1,2,3:2:0:0:
416,158,86482,1,2,3:2:0:0:
313,172,86642,1,2,3:2:0:0:
216,71,86802,6,0,L|87:91,1,108,14|2,0:0|0:0,0:0:0:0:
91,126,87121,2,0,L|1:119,1,72,10|2,0:0|0:0,0:0:0:0:
49,257,87440,2,0,P|97:299|146:293,1,108,10|2,0:0|0:0,0:0:0:0:
176,280,87759,2,0,P|212:264|259:268,1,72,10|2,0:0|0:0,0:0:0:0:
362,317,88078,5,10,0:0:0:0:
362,317,88238,1,2,0:0:0:0:
437,236,88397,1,10,0:0:0:0:
437,236,88557,1,2,0:0:0:0:
341,159,88717,1,10,0:0:0:0:
320,247,88876,1,2,0:0:0:0:
235,130,89036,1,10,0:0:0:0:
214,218,89195,1,10,0:0:0:0:
49,257,89355,6,0,L|34:139,1,108,10|2,0:0|0:0,0:0:0:0:
27,111,89674,2,0,P|77:91|104:97,1,72,10|2,0:0|0:0,0:0:0:0:
219,171,89993,2,0,P|280:200|331:190,1,108,10|2,0:0|0:0,0:0:0:0:
351,179,90312,2,0,L|369:94,1,72,10|2,0:0|0:0,0:0:0:0:
201,28,90631,6,0,L|219:172,1,144,10|10,0:0|0:0,0:0:0:0:
240,277,91110,1,0,0:0:0:0:
345,333,91270,2,0,L|436:316,1,72,10|2,0:0|0:0,0:0:0:0:
458,314,91509,1,10,0:0:0:0:
458,314,91589,1,10,0:0:0:0:
240,277,91748,1,10,0:0:0:0:
432,212,91908,5,14,3:2:0:0:
455,188,91987,1,2,3:2:0:0:
467,157,92067,1,2,3:2:0:0:
464,123,92147,1,2,3:2:0:0:
448,94,92227,1,10,3:2:0:0:
421,75,92306,1,2,3:2:0:0:
388,68,92386,1,2,3:2:0:0:
355,76,92466,1,2,3:2:0:0:
330,98,92546,6,0,L|321:155,3,45,10|2|2|2,3:2|3:2|3:2|3:2,0:0:0:0:
316,241,92865,2,0,L|263:232,1,45,10|2,3:2|3:2,0:0:0:0:
187,162,93025,2,0,L|196:109,1,45,2|2,3:2|3:2,0:0:0:0:
106,52,93185,5,14,3:2:0:0:
79,72,93264,1,2,3:2:0:0:
62,101,93344,1,2,3:2:0:0:
57,134,93424,1,2,3:2:0:0:
64,167,93504,1,10,3:2:0:0:
88,189,93583,1,2,3:2:0:0:
104,219,93663,1,2,3:2:0:0:
111,252,93743,1,2,3:2:0:0:
107,285,93823,6,0,L|49:298,1,45,10|2,3:2|3:2,0:0:0:0:
151,125,93982,2,0,L|216:138,1,45,2|2,3:2|3:2,0:0:0:0:
310,301,94142,1,10,3:2:0:0:
354,306,94221,1,2,3:2:0:0:
395,290,94301,1,2,3:2:0:0:
423,255,94381,1,2,3:2:0:0:
432,212,94461,5,14,0:0:0:0:
200,235,94621,1,10,0:0:0:0:
343,94,94780,1,10,0:0:0:0:
310,301,94940,1,10,0:0:0:0:
106,183,95100,1,10,0:0:0:0:
336,207,95259,1,10,0:0:0:0:
159,77,95419,1,10,0:0:0:0:
105,296,95578,1,10,0:0:0:0:
254,110,95738,5,10,0:0:0:0:
254,110,95818,1,10,0:0:0:0:
254,110,95897,2,0,L|267:179,1,45,10|10,0:0|0:0,0:0:0:0:
402,294,96057,1,10,0:0:0:0:
402,294,96137,1,10,0:0:0:0:
402,294,96216,2,0,L|415:225,1,45,10|10,0:0|0:0,0:0:0:0:
356,82,96376,2,0,L|343:151,1,45,10|10,0:0|0:0,0:0:0:0:
242,285,96536,2,0,L|233:240,1,45,10|10,0:0|0:0,0:0:0:0:
159,77,96695,2,0,L|161:61,12,11.25,10|2|2|2|2|2|2|2|2|2|2|2|2,0:0|0:0|0:0|0:0|0:0|0:0|0:0|0:0|0:0|0:0|0:0|0:0|0:0,0:0:0:0:
129,57,97014,6,0,L|109:156,1,90,6|0,3:2|0:0,0:0:0:0:
86,237,97254,1,2,0:0:0:0:
86,237,97334,1,10,0:0:0:0:
245,77,97493,1,2,0:0:0:0:
330,299,97653,6,0,L|231:283,1,90,2|0,3:2|0:0,0:0:0:0:
146,306,97892,1,2,0:0:0:0:
146,306,97972,1,10,0:0:0:0:
318,192,98131,1,2,0:0:0:0:
129,57,98291,5,2,3:2:0:0:
226,251,98451,1,2,0:0:0:0:
407,92,98610,1,10,0:0:0:0:
387,64,98689,1,2,0:0:0:0:
358,47,98769,1,2,0:0:0:0:
325,45,98849,1,2,0:0:0:0:
294,57,98929,1,2,3:2:0:0:
361,257,99089,1,2,0:0:0:0:
170,77,99248,1,10,0:0:0:0:
146,306,99408,1,2,0:0:0:0:
335,152,99568,6,0,L|447:172,1,90,2|0,3:2|0:0,0:0:0:0:
497,226,99807,1,2,0:0:0:0:
497,226,99887,1,10,0:0:0:0:
272,266,100046,1,2,0:0:0:0:
413,78,100206,6,0,L|425:184,1,90,2|0,3:2|0:0,0:0:0:0:
412,256,100445,1,2,0:0:0:0:
412,256,100525,1,10,0:0:0:0:
287,65,100685,1,0,0:0:0:0:
272,266,100844,6,0,P|211:301|154:280,1,135,2|2,3:2|0:0,0:0:0:0:
71,226,101163,1,10,0:0:0:0:
310,152,101323,1,2,0:0:0:0:
135,40,101482,1,2,3:2:0:0:
205,215,101642,1,8,0:0:0:0:
205,215,101722,1,2,0:0:0:0:
205,215,101802,1,14,0:0:0:0:
429,117,101961,1,10,0:0:0:0:
239,0,102121,6,0,L|225:110,1,90,6|0,3:2|0:0,0:0:0:0:
142,136,102360,1,2,0:0:0:0:
142,136,102440,2,0,L|73:126,1,45,10|0,0:0|0:0,0:0:0:0:
205,215,102600,2,0,L|249:221,1,45,2|0,0:0|0:0,0:0:0:0:
151,353,102759,1,2,3:2:0:0:
139,358,102839,2,0,P|115:302|125:264,1,90,2|0,0:0|0:0,0:0:0:0:
43,232,103078,2,0,P|28:262|26:290,3,45,10|2|2|2,0:0|0:0|0:0|0:0,0:0:0:0:
214,302,103397,6,0,L|327:280,1,90,6|0,3:2|0:0,0:0:0:0:
394,317,103637,1,2,0:0:0:0:
394,317,103717,2,0,L|408:259,1,45,10|0,0:0|0:0,0:0:0:0:
365,187,103876,2,0,L|356:136,1,45,2|0,0:0|0:0,0:0:0:0:
423,64,104036,2,0,P|483:62|508:91,1,90,2|0,3:2|0:0,0:0:0:0:
512,227,104275,1,0,0:0:0:0:
512,227,104355,2,0,L|454:215,1,45,10|2,0:0|0:0,0:0:0:0:
365,187,104514,2,0,L|307:175,1,45,2|2,0:0|0:0,0:0:0:0:
174,142,104674,5,14,0:0:0:0:
398,64,104834,1,10,0:0:0:0:
184,48,104993,1,10,0:0:0:0:
365,187,105153,1,10,0:0:0:0:
120,208,105312,1,10,0:0:0:0:
293,47,105472,1,10,0:0:0:0:
229,256,105631,1,10,0:0:0:0:
77,104,105791,1,10,0:0:0:0:
132,333,105951,5,10,3:2:0:0:
147,349,106030,1,2,3:2:0:0:
166,361,106110,1,2,3:2:0:0:
187,369,106190,1,2,3:2:0:0:
209,372,106270,1,10,3:2:0:0:
232,370,106349,1,2,3:2:0:0:
256,363,106429,2,0,L|305:351,1,45,2|2,3:2|3:2,0:0:0:0:
435,248,106589,2,0,L|367:235,1,45,10|2,3:2|3:2,0:0:0:0:
233,166,106748,2,0,L|292:153,1,45,2|2,3:2|3:2,0:0:0:0:
411,126,106908,6,0,L|416:87,2,22.5,10|2|2,3:2|0:0|0:0,0:0:0:0:
297,241,107068,2,0,L|299:263,2,22.5,10|2|2,3:2|0:0|0:0,0:0:0:0:
145,128,107227,5,6,3:2:0:0:
356,181,107387,1,2,0:0:0:0:
356,181,107467,1,2,0:0:0:0:
356,181,107546,1,10,0:0:0:0:
161,283,107706,1,2,0:0:0:0:
243,76,107865,6,0,L|229:197,1,90,2|2,3:2|0:0,0:0:0:0:
278,247,108105,1,2,0:0:0:0:
278,247,108185,1,10,0:0:0:0:
121,124,108344,1,2,0:0:0:0:
61,297,108504,5,2,3:2:0:0:
232,165,108663,1,2,0:0:0:0:
29,82,108823,1,10,0:0:0:0:
165,255,108982,1,2,0:0:0:0:
331,91,109142,2,0,L|222:72,1,90,2|2,3:2|0:0,0:0:0:0:
41,217,109461,1,10,0:0:0:0:
261,173,109621,1,2,0:0:0:0:
361,361,109780,5,6,3:2:0:0:
428,158,109940,1,2,0:0:0:0:
428,158,110020,1,2,0:0:0:0:
428,158,110100,1,10,0:0:0:0:
241,296,110259,1,2,0:0:0:0:
470,328,110419,6,0,P|486:278|473:232,1,90,2|2,3:2|0:0,0:0:0:0:
428,158,110658,1,2,0:0:0:0:
428,158,110738,1,10,0:0:0:0:
333,357,110897,1,2,0:0:0:0:
203,163,111057,6,0,B|148:151|148:151|100:170,1,107.999996704102,6|0,3:2|0:0,0:0:0:0:
101,224,111296,2,0,B|156:236|156:236|203:216,1,107.999996704102,6|0,3:2|0:0,0:0:0:0:
305,186,111536,6,0,P|290:127|305:79,1,107.999996704102,6|0,3:2|0:0,0:0:0:0:
354,86,111775,2,0,P|369:145|354:193,1,107.999996704102,6|0,3:2|0:0,0:0:0:0:
325,273,112014,1,6,3:2:0:0:
132,324,112174,2,0,L|74:307,1,53.9999983520508,6|0,3:2|0:0,0:0:0:0:
9,185,112334,6,0,L|35:43,1,135,6|2,3:2|0:0,0:0:0:0:
66,41,112653,1,10,0:0:0:0:
101,224,112812,1,2,0:0:0:0:
250,54,112972,2,0,L|272:198,1,135,2|2,3:2|0:0,0:0:0:0:
260,226,113291,1,10,0:0:0:0:
392,95,113451,1,2,0:0:0:0:
470,278,113610,5,6,3:2:0:0:
371,256,113770,1,2,0:0:0:0:
489,285,113929,1,10,0:0:0:0:
335,166,114089,2,0,P|279:201|286:316,1,180,2|2,0:0|0:0,0:0:0:0:
371,256,114568,1,10,0:0:0:0:
165,191,114727,1,10,0:0:0:0:
320,67,114887,5,14,0:0:0:0:
278,306,115046,1,2,3:2:0:0:
107,111,115206,5,14,0:0:0:0:
149,361,115365,1,2,3:2:0:0:
328,140,115525,5,14,0:0:0:0:
48,208,115685,1,2,3:2:0:0:
371,241,115844,5,14,0:0:0:0:
107,111,116004,1,2,3:2:0:0:
382,35,116163,5,14,0:0:0:0:
426,32,116242,1,2,0:0:0:0:
467,50,116322,1,2,0:0:0:0:
495,85,116402,1,2,0:0:0:0:
505,128,116482,1,14,0:0:0:0:
494,172,116562,1,2,0:0:0:0:
460,201,116641,1,2,0:0:0:0:
438,240,116721,1,2,0:0:0:0:
452,284,116802,1,14,0:0:0:0:
412,241,116881,1,2,0:0:0:0:
360,216,116961,1,2,0:0:0:0:
302,211,117041,1,2,0:0:0:0:
255,246,117121,2,0,L|250:284,6,22.5,14|2|2|2|2|2|2,0:0|0:0|0:0|0:0|0:0|0:0|0:0,0:0:0:0:
155,330,117440,6,0,P|96:350|52:335,1,90,6|0,3:2|0:0,0:0:0:0:
12,142,117759,2,0,P|71:122|115:137,1,90,10|0,0:0|0:0,0:0:0:0:
275,288,118078,2,0,B|366:316|346:215|449:242,1,180,2|10,3:2|0:0,0:0:0:0:
276,170,118557,1,2,0:0:0:0:
421,328,118717,6,0,P|426:283|437:239,1,90,2|0,3:2|0:0,0:0:0:0:
259,81,119036,2,0,P|270:124|275:169,1,90,10|2,0:0|0:0,0:0:0:0:
167,339,119355,2,0,P|114:326|85:287,1,90,2|0,3:2|0:0,0:0:0:0:
150,118,119674,1,10,0:0:0:0:
150,118,119834,1,10,0:0:0:0:
253,252,119993,6,0,L|142:234,1,90,2|0,3:2|0:0,0:0:0:0:
347,95,120312,2,0,L|236:77,1,90,10|2,0:0|0:0,0:0:0:0:
422,315,120631,2,0,L|311:297,1,90,2|0,3:2|0:0,0:0:0:0:
479,159,120951,1,10,0:0:0:0:
479,159,121110,1,2,0:0:0:0:
347,95,121270,6,0,L|365:206,1,90,2|2,3:2|0:0,0:0:0:0:
267,340,121589,2,0,L|252:251,1,90,10|2,0:0|0:0,0:0:0:0:
161,114,121908,1,10,0:0:0:0:
116,286,122068,1,10,0:0:0:0:
174,109,122227,1,10,0:0:0:0:
282,271,122387,1,10,0:0:0:0:
85,50,122546,6,0,P|63:120|77:159,1,90,2|0,3:2|0:0,0:0:0:0:
116,286,122865,2,0,L|211:265,1,90,10|0,0:0|0:0,0:0:0:0:
350,139,123185,2,0,L|247:119,1,90,2|0,3:2|0:0,0:0:0:0:
361,320,123504,1,10,0:0:0:0:
361,320,123663,1,2,0:0:0:0:
479,199,123823,6,0,B|494:152|494:152|480:98,1,90,2|0,3:2|0:0,0:0:0:0:
502,309,124142,1,10,0:0:0:0:
502,309,124302,1,2,0:0:0:0:
350,139,124461,2,0,P|289:148|260:180,1,90,2|0,3:2|0:0,0:0:0:0:
280,346,124780,2,0,P|341:337|370:305,1,90,10|2,0:0|0:0,0:0:0:0:
193,120,125100,6,0,B|140:224|222:211|167:298,1,180,2|10,3:2|0:0,0:0:0:0:
72,357,125578,1,2,0:0:0:0:
0,230,125738,2,0,L|93:213,1,90,2|0,3:2|0:0,0:0:0:0:
347,196,126057,2,0,L|254:179,1,90,10|2,0:0|0:0,0:0:0:0:
96,85,126376,5,2,3:2:0:0:
171,291,126536,1,2,0:0:0:0:
236,79,126695,2,0,L|225:30,2,45,10|2|2,0:0|0:0|0:0,0:0:0:0:
287,275,127014,1,10,0:0:0:0:
88,213,127174,1,10,0:0:0:0:
347,196,127334,1,10,0:0:0:0:
172,147,127493,1,10,0:0:0:0:
422,111,127653,5,6,3:2:0:0:
422,111,127812,2,0,P|451:153|452:209,1,90,2|8,0:0|0:0,0:0:0:0:
406,335,128131,1,2,0:0:0:0:
347,196,128291,1,2,3:2:0:0:
327,185,128370,1,2,0:0:0:0:
305,180,128450,1,2,0:0:0:0:
283,182,128530,1,2,0:0:0:0:
261,189,128610,1,10,0:0:0:0:
243,202,128689,1,2,0:0:0:0:
230,220,128769,1,2,0:0:0:0:
222,241,128849,1,2,0:0:0:0:
219,263,128929,6,0,L|239:364,1,90,2|2,3:2|0:0,0:0:0:0:
207,370,129169,1,2,0:0:0:0:
207,370,129248,2,0,L|100:353,1,90,10|2,0:0|0:0,0:0:0:0:
10,246,129568,1,2,3:2:0:0:
13,223,129647,1,2,0:0:0:0:
16,201,129727,1,2,0:0:0:0:
20,179,129807,1,2,0:0:0:0:
23,157,129887,1,10,0:0:0:0:
219,263,130046,1,2,0:0:0:0:
162,60,130206,5,6,3:2:0:0:
109,253,130365,1,2,0:0:0:0:
327,184,130525,1,10,0:0:0:0:
148,146,130685,1,2,0:0:0:0:
303,290,130844,1,2,3:2:0:0:
346,299,130923,1,2,0:0:0:0:
388,285,131003,1,2,0:0:0:0:
418,252,131083,1,2,0:0:0:0:
426,208,131163,1,10,0:0:0:0:
386,58,131323,1,2,0:0:0:0:
386,58,131403,1,2,0:0:0:0:
386,58,131482,6,0,P|322:64|284:73,1,90,6|2,3:2|0:0,0:0:0:0:
200,235,131802,1,10,0:0:0:0:
96,88,131961,1,2,0:0:0:0:
271,158,132121,1,10,0:0:0:0:
101,247,132280,1,10,0:0:0:0:
193,70,132440,1,10,0:0:0:0:
193,70,132520,1,2,0:0:0:0:
193,70,132600,2,0,L|198:140,1,45,10|2,0:0|0:0,0:0:0:0:
205,287,132759,6,0,P|274:268|349:260,1,135,14|2,0:0|0:0,0:0:0:0:
416,301,133078,2,0,P|486:321|505:325,1,90,10|2,0:0|0:0,0:0:0:0:
340,45,133397,2,0,P|313:100|333:202,1,135,14|2,0:0|0:0,0:0:0:0:
336,260,133717,2,0,P|343:314|322:358,1,90,10|2,0:0|0:0,0:0:0:0:
397,125,134036,5,14,0:0:0:0:
207,224,134195,1,2,0:0:0:0:
89,54,134355,2,0,L|181:71,1,90,10|2,0:0|0:0,0:0:0:0:
397,125,134674,2,0,L|293:140,1,90,14|2,0:0|0:0,0:0:0:0:
203,228,134993,2,0,L|140:218,3,45,10|2|10|2,0:0|0:0|0:0|0:0,0:0:0:0:
312,307,135312,5,14,0:0:0:0:
312,307,135392,1,10,0:0:0:0:
312,307,135472,2,0,L|373:298,1,45,10|10,0:0|0:0,0:0:0:0:
489,277,135631,2,0,L|480:216,1,45,10|10,0:0|0:0,0:0:0:0:
459,100,135791,2,0,L|398:109,1,45,10|10,0:0|0:0,0:0:0:0:
282,130,135951,2,0,L|291:191,1,45,10|10,0:0|0:0,0:0:0:0:
312,307,136110,2,0,L|373:298,1,45,10|10,0:0|0:0,0:0:0:0:
489,277,136270,2,0,L|484:246,6,22.5,10|2|2|2|2|2|2,0:0|0:0|0:0|0:0|0:0|0:0|0:0,0:0:0:0:
406,200,136589,6,0,L|346:191,1,45,14|10,0:0|0:0,0:0:0:0:
312,307,136748,2,0,L|252:298,1,45,10|10,0:0|0:0,0:0:0:0:
227,173,136908,2,0,L|167:164,1,45,10|10,0:0|0:0,0:0:0:0:
133,280,137067,2,0,L|73:271,1,45,10|10,0:0|0:0,0:0:0:0:
73,109,137227,6,0,L|83:164,1,45,10|10,0:0|0:0,0:0:0:0:
267,300,137387,2,0,L|275:255,1,45,10|10,0:0|0:0,0:0:0:0:
215,63,137546,6,0,L|222:105,2,22.5,10|2|2,0:0|0:0|0:0,0:0:0:0:
409,254,137706,2,0,L|416:213,2,22.5,10|2|2,0:0|0:0|0:0,0:0:0:0:
364,38,137865,5,14,0:0:0:0:
