osu file format v14

[General]
AudioFilename: audio.mp3
AudioLeadIn: 0
PreviewTime: 12389
Countdown: 0
SampleSet: Soft
StackLeniency: 0.7
Mode: 0
LetterboxInBreaks: 0
WidescreenStoryboard: 1

[Editor]
Bookmarks: 24014
DistanceSpacing: 0.3
BeatDivisor: 4
GridSize: 32
TimelineZoom: 1

[Metadata]
Title:Data & Picard
TitleUnicode:Data & Picard
Artist:Pogo
ArtistUnicode:Pogo
Creator:BOUYAAA
Version:Insane
Source:
Tags:Star Wars Trek Edm electro sample and Weightless Pogomix Nick Bonsai
BeatmapID:1127159
BeatmapSetID:531911

[Difficulty]
HPDrainRate:6
CircleSize:4
OverallDifficulty:8
ApproachRate:9
SliderMultiplier:2
SliderTickRate:1

[Events]
//Background and Video events
0,0,"bg.jpg",0,0
Video,0,"wtfisthis.avi"
//Break Periods
2,106714,107914
//Storyboard Layer 0 (Background)
//Storyboard Layer 1 (Fail)
//Storyboard Layer 2 (Pass)
//Storyboard Layer 3 (Foreground)
//Storyboard Sound Samples

[TimingPoints]
12514,500,4,2,1,60,1,0
12514,-142.857142857143,4,2,1,60,0,0
44514,-100,4,2,1,60,0,0
48014,-100,4,2,1,40,0,0
48764,-100,4,2,1,60,0,0
56514,-125,4,2,1,60,0,0
60514,-100,4,2,1,60,0,1
92514,-125,4,2,1,50,0,0
116514,-100,4,2,1,60,0,0
131139,-100,4,2,1,40,0,0
131514,-100,4,2,1,60,0,0
132139,-100,4,2,1,40,0,0
132514,-100,4,2,1,60,0,0
140514,-100,4,2,1,60,0,1
154514,-125,4,2,1,60,0,0
156514,-142.857142857143,4,2,1,60,0,0
172514,-100,4,2,1,60,0,0
176014,-100,4,2,1,40,0,0
176764,-100,4,2,1,60,0,0
184514,-125,4,2,1,60,0,0
187514,-125,4,2,1,30,0,0
188514,-125,4,2,1,11,0,0

[Colours]
Combo1 : 92,254,129
Combo2 : 249,193,79
Combo3 : 123,183,242
Combo4 : 238,142,119

[HitObjects]
288,100,12514,6,0,P|249:84|197:92,1,69.9999978637696
369,115,13014,2,0,L|452:109,1,69.9999978637696,2|0,0:0|0:0,0:0:0:0:
310,177,13514,2,0,B|297:206|304:239|304:239|293:258|293:258|319:288|310:333,1,139.999995727539,2|0,0:0|0:0,0:0:0:0:
229,317,14264,1,0,0:0:0:0:
388,261,14514,6,0,P|431:281|456:316,1,69.9999978637696
386,143,15014,2,0,P|333:159|312:176,1,69.9999978637696,2|0,0:0|0:0,0:0:0:0:
213,323,15514,2,0,P|149:340|77:284,1,139.999995727539,2|0,0:0|0:0,0:0:0:0:
160,251,16264,1,0,0:0:0:0:
107,179,16514,6,0,P|170:161|242:217,1,139.999995727539,0|2,0:0|0:0,0:0:0:0:
160,251,17264,1,0,0:0:0:0:
32,140,17514,2,0,B|3:91|3:91|8:94|59:111|98:97,1,139.999995727539,2|0,0:0|0:0,0:0:0:0:
145,33,18264,1,0,0:0:0:0:
288,47,18514,6,0,P|325:37|375:47,1,69.9999978637696
470,141,19014,2,0,P|433:131|383:141,1,69.9999978637696
280,227,19514,2,0,L|285:300,1,69.9999978637696
427,364,20014,2,0,P|414:313|372:298,1,69.9999978637696
186,355,20514,6,0,L|30:346,1,139.999995727539,0|2,0:0|0:0,0:0:0:0:
7,277,21264,1,0,0:0:0:0:
184,244,21514,1,2,0:0:0:0:
104,186,21764,1,0,0:0:0:0:
279,246,22014,1,0,0:0:0:0:
96,280,22264,1,2,0:0:0:0:
213,43,22514,5,2,0:0:0:0:
233,126,22764,1,0,0:0:0:0:
147,102,23014,1,0,0:0:0:0:
298,70,23264,1,0,0:0:0:0:
389,200,23514,5,0,0:0:0:0:
415,117,23764,1,0,0:0:0:0:
329,267,24014,1,0,0:0:0:0:
303,184,24264,1,0,0:0:0:0:
452,329,24514,5,0,0:0:0:0:
374,367,24764,1,0,0:0:0:0:
423,239,25014,2,0,P|472:237|508:256,1,69.9999978637696,2|0,0:0|0:0,0:0:0:0:
288,328,25514,2,0,P|239:330|203:311,1,69.9999978637696,2|0,0:0|0:0,0:0:0:0:
303,184,26014,1,0,0:0:0:0:
377,317,26264,1,2,0:0:0:0:
171,240,26514,6,0,B|151:212|166:178|166:178|163:164|163:164|194:129|170:87,1,139.999995727539,2|0,0:0|0:0,0:0:0:0:
141,20,27264,1,0,0:0:0:0:
264,87,27514,2,0,P|310:84|349:50,1,69.9999978637696
477,164,28014,2,0,P|431:161|392:127,1,69.9999978637696
319,242,28514,6,0,L|334:332,2,69.9999978637696,0|0|0,3:0|0:0|0:0,0:0:0:0:
418,295,29264,1,0,3:0:0:0:
231,268,29514,1,0,3:0:0:0:
213,353,29764,1,0,0:0:0:0:
163,206,30014,1,0,0:0:0:0:
145,291,30264,1,2,3:2:0:0:
242,157,30514,6,0,P|232:103|211:82,1,69.9999978637696,2|0,0:0|0:0,0:0:0:0:
89,149,31014,2,0,P|71:179|70:213,1,69.9999978637696,2|0,0:0|0:0,0:0:0:0:
253,259,31514,2,0,L|394:240,1,139.999995727539,2|0,0:0|0:0,0:0:0:0:
453,168,32264,1,0,3:0:0:0:
420,334,32514,6,0,P|372:334|337:320,1,69.9999978637696,0|0,3:0|0:0,0:0:0:0:
284,151,33014,2,0,P|317:142|352:144,1,69.9999978637696,0|0,0:0|3:0,0:0:0:0:
219,255,33514,2,0,L|65:236,1,139.999995727539,0|0,3:0|0:0,0:0:0:0:
32,169,34264,1,2,3:2:0:0:
89,325,34514,6,0,P|45:340|9:326,1,69.9999978637696,2|0,0:0|0:0,0:0:0:0:
111,164,35014,2,0,L|201:174,1,69.9999978637696,2|0,0:0|0:0,0:0:0:0:
328,300,35514,2,0,P|251:330|182:291,1,139.999995727539,2|0,0:0|0:0,0:0:0:0:
259,242,36264,1,0,0:0:0:0:
437,346,36514,5,0,3:0:0:0:
480,262,36764,2,0,B|472:207|472:207|453:181|453:181|444:122,1,139.999995727539,2|0,0:0|0:0,0:0:0:0:
298,49,37514,2,0,P|278:86|359:87,1,139.999995727539,2|0,0:0|0:0,0:0:0:0:
381,33,38264,1,0,3:0:0:0:
366,202,38514,5,0,3:0:0:0:
199,62,38764,2,0,P|132:63|143:124,1,139.999995727539,2|0,0:0|0:0,0:0:0:0:
182,217,39514,2,0,B|171:271|171:271|151:296|151:296|142:369,1,139.999995727539,2|0,0:0|0:0,0:0:0:0:
231,339,40264,1,0,3:0:0:0:
95,226,40514,6,0,P|45:223|10:239,1,69.9999978637696,2|0,0:0|0:0,0:0:0:0:
216,132,41014,2,0,P|265:126|311:141,1,69.9999978637696,2|0,0:0|0:0,0:0:0:0:
94,39,41514,2,0,L|100:136,1,69.9999978637696,2|0,0:0|0:0,0:0:0:0:
248,298,42014,2,0,L|252:228,1,69.9999978637696,2|0,0:0|0:0,0:0:0:0:
270,35,42514,5,2,0:0:0:0:
192,71,42764,2,0,P|242:118|316:107,1,139.999995727539,2|0,0:0|3:0,0:0:0:0:
439,44,43514,2,0,L|458:182,1,139.999995727539,2|0,0:0|0:0,0:0:0:0:
449,271,44264,1,0,0:0:0:0:
248,240,44514,6,0,P|190:260|165:300,1,100,6|0,0:0|0:0,0:0:0:0:
343,375,45014,2,0,P|352:316|332:273,1,100,14|2,0:0|0:0,0:0:0:0:
272,117,45514,1,6,0:0:0:0:
379,128,45764,1,0,0:0:0:0:
240,157,46014,1,12,0:0:0:0:
393,177,46264,1,2,0:0:0:0:
156,156,46514,6,0,L|42:163,1,100,6|0,0:0|0:0,0:0:0:0:
226,34,47014,2,0,L|340:41,1,100,14|0,0:0|0:0,0:0:0:0:
212,217,47514,2,0,P|150:242|73:181,1,150,6|0,0:0|0:0,0:0:0:0:
75,168,48014,5,2,0:3:0:0:
47,272,48264,1,2,0:3:0:0:
21,365,48514,1,6,0:3:0:0:
145,300,48764,5,2,0:0:0:0:
0,199,49014,1,14,0:0:0:0:
0,199,49264,1,2,0:0:0:0:
222,145,49514,2,0,P|247:190|221:254,1,100,6|0,0:0|0:0,0:0:0:0:
92,132,50014,2,0,P|82:83|107:41,1,100,12|2,0:0|0:0,0:0:0:0:
389,19,50514,6,0,B|311:24|311:24|284:50|284:50|190:56,1,200,6|14,0:0|0:0,0:0:0:0:
107,39,51264,1,0,0:0:0:0:
350,99,51514,2,0,P|386:153|377:195,1,100,6|0,0:0|0:0,0:0:0:0:
159,236,52014,2,0,P|158:187|190:150,1,100,12|0,0:0|0:0,0:0:0:0:
342,262,52514,5,4,0:0:0:0:
163,319,52764,2,2,B|128:321|94:301|78:274|78:274|94:330|82:358|68:375,1,200,2|0,0:0|0:0,0:0:0:0:
155,230,53514,2,0,L|167:128,1,100,6|0,0:0|0:0,0:0:0:0:
42,34,54014,2,0,L|53:133,1,100,12|0,0:0|0:0,0:0:0:0:
248,259,54514,5,4,0:0:0:0:
239,63,54764,2,2,P|291:13|431:69,1,200,2|0,0:0|0:0,0:0:0:0:
409,224,55514,1,6,0:0:0:0:
454,124,55764,1,0,0:0:0:0:
346,139,56014,1,12,0:0:0:0:
508,205,56264,1,0,0:0:0:0:
328,318,56514,6,0,P|273:328|239:321,1,80,6|0,0:0|0:0,0:0:0:0:
103,238,57014,2,0,P|135:261|174:272,1,80,6|0,0:0|0:0,0:0:0:0:
93,149,57514,2,0,P|66:121|49:85,1,80,6|0,0:0|0:0,0:0:0:0:
246,27,58014,2,0,L|236:174,1,120,6|0,0:0|0:0,0:0:0:0:
232,184,58514,5,2,3:0:0:0:
415,114,58764,2,0,L|403:20,1,80,2|0,0:0|0:0,0:0:0:0:
343,179,59264,1,0,0:0:0:0:
512,198,59514,2,2,P|443:200|391:289,1,160,2|0,0:0|0:0,0:0:0:0:
484,285,60264,1,2,0:0:0:0:
307,360,60514,6,0,L|201:350,1,100,6|2,0:0|0:3,0:0:0:0:
115,209,61014,2,0,L|-3:220,1,100,14|2,0:0|0:3,0:0:0:0:
233,259,61514,2,0,P|242:195|226:150,1,100,6|2,0:0|0:3,0:0:0:0:
91,23,62014,1,12,0:0:0:0:
63,123,62264,1,2,0:3:0:0:
234,52,62514,6,0,L|346:45,1,100,6|2,0:0|0:3,0:0:0:0:
509,136,63014,2,0,B|456:127|456:127|408:149,1,100,12|2,0:0|0:3,0:0:0:0:
291,263,63514,2,0,L|287:149,1,100,4|2,0:0|0:3,0:0:0:0:
475,245,64014,2,0,L|465:362,1,100,12|2,0:0|0:3,0:0:0:0:
182,245,64514,5,6,0:0:0:0:
203,342,64764,1,2,0:3:0:0:
285,281,65014,1,14,0:0:0:0:
285,281,65139,1,2,0:0:0:0:
285,281,65264,1,2,0:3:0:0:
103,157,65514,2,0,P|38:143|0:148,1,100,6|2,0:0|0:3,0:0:0:0:
191,65,66014,2,0,P|256:51|294:56,1,100,12|2,0:0|0:3,0:0:0:0:
315,78,66389,1,2,0:0:0:0:
336,106,66514,6,0,L|319:223,1,100,6|2,0:0|0:3,0:0:0:0:
381,348,67014,2,0,P|444:346|491:303,1,100,12|2,0:0|0:3,0:0:0:0:
235,273,67514,2,0,L|102:289,1,100,4|2,0:0|0:3,0:0:0:0:
422,167,68014,1,12,0:0:0:0:
434,254,68264,1,2,0:3:0:0:
302,141,68514,6,0,L|316:42,1,100,6|0,0:0|0:0,0:0:0:0:
69,117,69014,2,0,P|78:178|116:215,1,100,14|0,0:0|0:0,0:0:0:0:
136,210,69389,1,2,0:0:0:0:
170,208,69514,2,0,B|224:197|224:197|286:231,1,100,6|2,0:0|0:3,0:0:0:0:
345,350,70014,2,0,L|359:251,1,100,12|2,0:0|0:3,0:0:0:0:
423,60,70514,6,0,P|439:130|414:181,1,100,6|0,0:0|0:3,0:0:0:0:
282,105,71014,2,0,L|158:93,1,100,14|0,0:0|0:0,0:0:0:0:
147,100,71389,1,2,0:0:0:0:
116,117,71514,2,0,P|81:173|96:222,1,100,6|2,0:0|0:3,0:0:0:0:
298,314,72014,2,0,P|298:265|267:227,1,100,12|2,0:0|0:3,0:0:0:0:
54,356,72514,5,6,0:0:0:0:
80,352,72639,2,0,L|195:340,1,100,2|0,0:0|0:0,0:0:0:0:
277,328,73014,1,14,0:0:0:0:
161,250,73264,1,2,0:3:0:0:
361,265,73514,2,0,P|411:292|471:274,1,100,6|2,0:0|0:3,0:0:0:0:
358,119,74014,2,0,L|240:133,1,100,12|2,0:0|0:0,0:0:0:0:
60,39,74514,6,0,P|108:34|150:59,1,100,6|2,0:0|0:3,0:0:0:0:
138,287,75014,1,12,0:0:0:0:
176,193,75264,1,2,0:3:0:0:
270,365,75514,1,4,0:0:0:0:
238,279,75764,1,2,0:3:0:0:
379,248,76014,1,12,0:0:0:0:
354,324,76264,1,2,0:0:0:0:
267,58,76514,5,2,0:0:0:0:
288,171,76764,1,2,0:3:0:0:
146,54,77014,1,14,0:0:0:0:
283,36,77264,1,2,0:3:0:0:
144,172,77514,2,0,P|71:167|38:136,1,100,6|2,0:0|0:3,0:0:0:0:
228,251,78014,1,12,0:0:0:0:
257,153,78264,1,2,0:3:0:0:
64,265,78514,6,0,L|81:378,1,100,6|2,0:0|0:3,0:0:0:0:
28,80,79014,1,14,0:0:0:0:
108,103,79264,1,2,0:0:0:0:
139,184,79514,2,0,P|66:179|33:148,1,100,6|2,0:0|0:3,0:0:0:0:
244,42,80014,1,12,0:0:0:0:
210,123,80264,1,2,0:3:0:0:
301,212,80514,6,0,L|421:221,1,100,6|2,0:0|0:3,0:0:0:0:
493,83,81014,2,0,P|424:88|387:135,1,100,14|2,0:0|0:3,0:0:0:0:
476,286,81514,2,0,L|492:391,1,100,6|2,0:0|0:3,0:0:0:0:
467,165,82014,2,0,P|466:244|436:288,1,100,14|2,0:0|0:3,0:0:0:0:
428,280,82389,1,2,0:0:0:0:
394,291,82514,6,0,L|264:284,1,100,4|0,0:0|3:0,0:0:0:0:
209,286,82889,1,0,3:3:0:0:
209,286,83014,2,0,L|219:351,1,50,12|0,3:2|3:0,0:0:0:0:
122,273,83264,2,0,L|132:338,1,50,0|0,3:2|3:2,3:2:0:0:
54,205,83514,6,0,L|68:146,1,50,4|0,3:2|0:0,0:0:0:0:
92,72,83764,1,2,0:0:0:0:
264,203,84014,2,0,P|322:207|377:158,1,100,12|2,0:0|0:0,0:0:0:0:
446,54,84514,6,2,B|439:121|439:121|454:151|454:151|448:216,1,150,6|0,0:0|0:0,0:0:0:0:
431,229,85014,2,0,P|405:280|417:333,1,100,14|2,0:0|0:3,0:0:0:0:
436,344,85389,1,2,0:0:0:0:
470,352,85514,2,0,L|339:373,1,100,6|2,0:0|0:3,0:0:0:0:
176,298,86014,2,0,P|251:303|294:337,1,100,12|2,0:0|0:3,0:0:0:0:
200,169,86514,6,2,P|132:181|67:229,1,150,6|0,0:0|0:0,0:0:0:0:
53,260,87014,2,0,L|29:147,1,100,14|2,0:0|0:3,0:0:0:0:
25,127,87389,1,2,0:0:0:0:
18,90,87514,2,0,P|76:107|125:85,1,100,6|2,0:0|0:3,0:0:0:0:
284,14,88014,2,0,L|390:29,1,100,12|2,0:0|0:3,0:0:0:0:
341,231,88514,5,6,0:0:0:0:
349,196,88639,2,0,B|355:142|355:142|309:88,1,100,2|0,0:0|0:0,0:0:0:0:
236,98,89014,1,14,0:0:0:0:
440,88,89264,1,2,0:3:0:0:
228,202,89514,2,0,L|107:191,1,100,6|2,0:0|0:3,0:0:0:0:
338,312,90014,2,0,P|407:308|449:266,1,100,12|2,0:0|0:3,0:0:0:0:
264,45,90514,5,4,0:0:0:0:
154,41,92514,6,0,P|183:83|172:125,1,80,6|2,0:3|0:2,0:3:0:0:
159,134,92889,1,2,0:3:0:0:
127,141,93014,1,10,0:3:0:0:
289,60,93264,2,0,L|345:58,1,40,2|0,0:2|0:3,0:3:0:0:
492,132,93514,6,0,L|481:191,1,40,6|0,0:3|0:3,0:3:0:0:
427,53,93764,2,0,L|419:13,1,40,2|0,0:2|0:3,0:3:0:0:
376,153,94014,1,10,0:3:0:0:
376,153,94139,1,2,0:3:0:0:
441,260,94264,2,0,L|511:250,1,40,2|0,0:2|0:3,0:3:0:0:
273,195,94514,6,0,L|201:190,1,40,6|0,0:3|0:3,0:3:0:0:
347,306,94764,2,0,L|378:370,1,40,2|0,0:2|0:3,0:3:0:0:
415,184,95014,2,0,L|455:124,1,40,10|0,0:3|0:3,0:3:0:0:
350,228,95264,1,2,0:3:0:0:
350,228,95389,1,2,0:3:0:0:
262,285,95514,6,0,L|190:280,1,40,6|0,0:3|0:3,0:3:0:0:
8,280,95764,1,2,0:3:0:0:
59,341,95889,1,2,0:3:0:0:
129,303,96014,2,0,L|125:233,1,40,10|0,0:3|0:3,0:3:0:0:
66,168,96264,2,0,L|63:207,1,40,2|0,0:2|0:3,0:3:0:0:
202,197,96514,5,6,0:3:0:0:
202,197,96639,1,2,0:3:0:0:
152,108,96764,2,0,L|152:46,1,40,2|0,0:2|0:3,0:3:0:0:
327,26,97014,2,0,L|327:66,1,40,14|0,0:3|0:3,0:3:0:0:
303,153,97264,5,2,0:3:0:0:
303,153,97389,1,2,0:3:0:0:
402,158,97514,1,6,0:3:0:0:
402,158,97639,1,2,0:3:0:0:
459,240,97764,1,2,0:3:0:0:
459,240,97889,1,2,0:3:0:0:
437,323,98014,6,0,L|370:319,1,40,10|0,0:3|0:3,0:3:0:0:
235,361,98264,2,0,L|302:357,1,40,2|0,0:2|0:3,0:3:0:0:
310,238,98514,6,0,L|320:307,1,40,6|0,0:3|0:3,0:3:0:0:
143,339,98764,1,2,0:2:0:0:
155,259,98889,1,2,0:3:0:0:
168,180,99014,2,0,L|158:126,1,40,10|0,0:3|0:3,0:3:0:0:
30,47,99264,2,0,L|22:86,1,40,2|0,0:2|0:3,0:3:0:0:
227,73,99514,6,0,L|293:59,1,40,6|0,0:3|0:3,0:3:0:0:
78,184,99764,1,2,0:2:0:0:
66,264,99889,1,2,0:3:0:0:
53,343,100014,2,0,L|63:397,1,40,10|0,0:3|0:3,0:3:0:0:
241,300,100264,1,2,0:2:0:0:
440,328,100514,6,0,L|451:384,1,40,6|0,0:3|0:3,0:3:0:0:
356,202,100764,2,0,L|367:258,1,40,2|0,0:2|0:3,0:3:0:0:
410,128,101014,1,10,0:3:0:0:
410,128,101139,1,2,0:3:0:0:
274,243,101264,6,0,L|267:283,1,40,2|0,0:3|0:3,0:3:0:0:
260,119,101514,2,0,L|252:158,1,40,6|0,0:3|0:3,0:3:0:0:
227,0,101764,2,0,L|219:39,1,40,2|0,0:2|0:3,0:3:0:0:
313,41,102014,1,10,0:3:0:0:
313,41,102139,1,2,0:3:0:0:
165,115,102264,2,0,L|113:104,1,40,2|0,0:2|0:3,0:3:0:0:
335,183,102514,6,0,L|387:172,1,40,6|0,0:3|0:3,0:3:0:0:
255,255,102764,2,0,L|250:323,1,40,2|0,0:2|0:3,0:3:0:0:
45,363,103014,1,10,0:3:0:0:
45,363,103139,1,2,0:3:0:0:
111,289,103264,2,0,L|186:307,1,40,2|0,0:2|0:3,0:3:0:0:
28,229,103514,5,6,0:3:0:0:
28,229,103639,1,2,0:3:0:0:
96,148,103764,2,0,L|159:139,1,40,2|0,0:2|0:3,0:3:0:0:
38,47,104014,2,0,L|-3:37,1,40,10|0,0:3|0:3,0:3:0:0:
143,7,104264,1,2,0:3:0:0:
143,7,104389,1,2,0:3:0:0:
238,88,104514,6,0,L|229:161,1,40,6|0,0:3|0:3,0:3:0:0:
345,52,104764,2,0,L|341:1,1,40,2|0,0:2|0:3,0:3:0:0:
401,189,105014,2,0,L|330:175,1,40,10|0,0:3|0:3,0:3:0:0:
312,273,105264,1,2,0:3:0:0:
312,273,105389,1,2,0:3:0:0:
474,244,105514,2,0,P|489:281|481:331,1,80,6|0,0:3|0:3,0:3:0:0:
214,293,106014,2,0,P|211:253|226:217,1,80,14|0,0:3|0:3,0:3:0:0:
400,293,106514,5,0,0:3:0:0:
39,322,108514,6,0,B|111:317|111:317|143:336|143:336|213:330,1,160,6|4,0:0|0:0,0:0:0:0:
221,315,109139,1,2,0:0:0:0:
245,294,109264,2,2,P|255:231|185:168,1,160,2|0,0:0|0:0,0:0:0:0:
23,59,110014,2,0,L|115:43,1,80,4|0,0:0|0:0,0:0:0:0:
352,92,110514,6,0,L|252:80,1,80,6|2,0:0|0:3,0:0:0:0:
438,38,111014,1,4,3:2:0:0:
169,130,111264,1,2,0:3:0:0:
416,168,111514,2,0,P|435:226|416:273,1,80,4|0,0:0|0:0,0:0:0:0:
249,276,112014,2,0,P|247:236|264:200,1,80,4|0,0:0|0:0,0:0:0:0:
461,350,112514,6,0,B|416:358|416:358|359:340,1,80,6|2,0:0|0:0,0:0:0:0:
111,316,113014,2,0,B|67:307|67:307|12:330,1,80,6|0,0:0|0:0,0:0:0:0:
248,276,113514,1,4,0:0:0:0:
230,371,113764,1,2,0:0:0:0:
145,155,114014,1,6,0:0:0:0:
163,250,114264,1,2,0:0:0:0:
313,126,114514,6,0,B|307:81|307:81|268:46,1,80,6|0,0:0|0:0,0:0:0:0:
163,250,115014,2,0,B|211:257|211:257|265:222,1,80,6|0,0:0|0:0,0:0:0:0:
467,191,115514,1,6,0:0:0:0:
434,189,115639,1,2,0:0:0:0:
402,187,115764,1,2,0:0:0:0:
309,339,116014,2,0,P|363:367|411:353,1,80,4|0,0:0|0:0,0:0:0:0:
256,173,116514,6,0,P|216:176|162:216,1,100,6|0,0:0|0:0,0:0:0:0:
59,332,117014,2,0,P|75:296|68:229,1,100,6|0,0:0|0:0,0:0:0:0:
21,83,117514,2,0,P|43:115|105:142,1,100,4|2,0:0|0:0,0:0:0:0:
254,61,118014,1,6,0:0:0:0:
199,240,118264,1,2,0:0:0:0:
354,113,118514,6,0,P|402:106|459:133,1,100,6|0,0:0|0:0,0:0:0:0:
330,288,119014,2,0,P|299:249|294:187,1,100,6|0,0:0|0:0,0:0:0:0:
497,226,119514,2,0,P|479:271|427:306,1,100,4|2,0:0|0:0,0:0:0:0:
292,200,120014,1,6,0:0:0:0:
396,210,120264,1,2,0:0:0:0:
218,351,120514,6,0,L|78:336,1,100,6|0,0:0|0:0,0:0:0:0:
133,153,121014,2,0,L|190:281,1,100,6|0,0:0|0:0,0:0:0:0:
0,313,121514,2,0,L|82:199,1,100,4|2,0:0|0:0,0:0:0:0:
71,92,122014,1,6,0:0:0:0:
103,67,122139,2,0,P|170:70|207:105,1,100,2|0,0:0|0:0,0:0:0:0:
235,157,122514,6,0,L|346:142,1,100,6|0,0:0|0:0,0:0:0:0:
481,44,123014,2,0,B|432:28|432:28|361:57,1,100,4|0,0:0|0:0,0:0:0:0:
403,222,123514,2,0,L|416:328,1,100,4|0,0:0|0:0,0:0:0:0:
397,357,123889,1,2,0:0:0:0:
359,371,124014,2,0,P|294:360|261:309,1,100,6|0,0:0|0:0,0:0:0:0:
104,167,124514,6,0,L|97:273,1,100,2|0,0:0|0:0,0:0:0:0:
157,369,125014,1,12,0:0:0:0:
173,332,125139,1,2,0:0:0:0:
189,295,125264,1,2,0:0:0:0:
340,182,125514,2,0,P|354:234|335:294,1,100,4|0,0:0|0:0,0:0:0:0:
233,89,126014,2,0,L|355:71,1,100,12|0,0:0|0:0,0:0:0:0:
182,191,126514,6,0,B|130:184|130:184|70:147,1,100,6|0,0:0|0:0,0:0:0:0:
129,0,127014,1,12,0:0:0:0:
136,39,127139,1,2,0:0:0:0:
142,78,127264,1,2,0:0:0:0:
73,257,127514,2,0,L|91:145,1,100,4|0,0:0|0:0,0:0:0:0:
238,40,128014,2,0,P|272:87|270:136,1,100,14|2,0:0|0:0,0:0:0:0:
189,268,128514,6,0,L|317:288,1,100,6|0,0:0|0:0,0:0:0:0:
470,145,129014,1,12,0:0:0:0:
346,193,129264,1,2,0:0:0:0:
436,345,129514,1,6,0:0:0:0:
387,117,129764,1,2,0:3:0:0:
506,296,130014,1,14,0:0:0:0:
376,283,130264,1,2,0:0:0:0:
470,145,130514,6,0,B|477:95|477:95|444:54,1,100,6|0,0:0|0:0,0:0:0:0:
290,110,131014,1,12,0:0:0:0:
250,106,131139,1,2,0:3:0:0:
210,101,131264,1,2,0:3:0:0:
47,55,131514,2,0,L|161:36,1,100,4|0,0:0|0:0,0:0:0:0:
289,137,132014,1,12,0:0:0:0:
249,133,132139,1,2,0:3:0:0:
209,128,132264,1,2,0:3:0:0:
50,266,132514,6,0,P|71:333|102:350,1,100,6|0,0:0|0:0,0:0:0:0:
275,257,133014,2,0,P|327:228|423:316,1,200,14|6,0:0|0:0,0:0:0:0:
340,312,133764,1,2,0:0:0:0:
438,165,134014,1,14,0:0:0:0:
508,256,134264,1,2,0:0:0:0:
350,135,134514,6,0,L|341:20,1,100,6|0,0:0|0:0,0:0:0:0:
185,128,135014,2,0,B|196:199|196:199|183:235|183:235|209:293|283:259,1,200,14|6,0:0|0:0,0:0:0:0:
281,193,135764,1,2,0:0:0:0:
96,190,136014,2,0,P|82:237|100:286,1,100,14|0,0:0|0:0,0:0:0:0:
245,358,136514,6,0,L|129:375,1,100,6|0,0:0|0:0,0:0:0:0:
307,278,137014,2,0,B|356:280|356:280|402:309,1,100,14|0,0:0|0:0,0:0:0:0:
452,187,137514,2,0,L|461:72,1,100,4|2,0:0|0:0,0:0:0:0:
440,52,137889,1,2,0:0:0:0:
400,44,138014,1,14,0:0:0:0:
360,36,138139,1,2,0:0:0:0:
320,30,138264,1,2,0:3:0:0:
128,131,138514,6,0,L|228:117,1,100,4|2,0:0|0:0,0:0:0:0:
246,121,138889,1,2,0:0:0:0:
264,125,139014,1,14,0:0:0:0:
283,129,139139,1,2,0:0:0:0:
302,133,139264,1,2,0:3:0:0:
150,245,139514,6,0,L|50:231,1,100,6|0,0:0|0:0,0:0:0:0:
155,357,140014,2,0,B|206:362|206:362|252:324,1,100,12|2,0:0|0:0,0:0:0:0:
269,61,140514,5,2,0:0:0:0:
282,233,140764,1,2,0:0:0:0:
408,153,141014,1,10,0:0:0:0:
153,175,141264,1,2,0:0:0:0:
360,268,141514,2,0,P|381:312|374:361,1,100,6|2,0:0|0:3,0:0:0:0:
182,337,142014,1,12,0:0:0:0:
281,325,142264,1,2,0:3:0:0:
124,186,142514,5,4,0:0:0:0:
63,274,142764,1,2,0:0:0:0:
74,307,142889,1,2,0:0:0:0:
86,339,143014,2,2,B|153:324|153:324|195:343,1,100,14|2,0:0|0:3,0:0:0:0:
224,237,143514,1,6,0:0:0:0:
229,202,143639,1,2,0:0:0:0:
234,167,143764,1,2,0:0:0:0:
152,25,144014,2,0,L|162:84,1,50,14|0,0:0|0:0,0:0:0:0:
124,186,144264,1,2,0:3:0:0:
273,53,144514,6,0,P|332:59|373:94,1,100,6|0,0:0|0:3,0:0:0:0:
461,179,145014,2,0,P|390:193|362:226,1,100,14|2,0:0|0:3,0:0:0:0:
276,370,145514,2,0,L|267:244,1,100,6|2,0:0|0:3,0:0:0:0:
258,171,146014,1,12,0:0:0:0:
369,317,146264,1,2,0:3:0:0:
369,317,146389,1,2,0:0:0:0:
369,317,146514,5,6,0:0:0:0:
182,227,146764,1,2,0:0:0:0:
147,221,146889,1,2,0:0:0:0:
116,237,147014,2,0,B|135:309|135:309|122:350,1,100,14|2,0:0|0:3,0:3:0:0:
26,213,147514,1,6,0:0:0:0:
30,178,147639,1,2,0:0:0:0:
34,143,147764,1,2,0:0:0:0:
129,62,148014,2,0,L|138:132,1,50,14|0,0:0|0:0,0:0:0:0:
242,38,148264,1,2,0:3:0:0:
207,194,148514,6,0,P|266:225|308:213,1,100,6|0,0:0|0:3,0:0:0:0:
419,71,149014,2,6,L|426:214,1,100,10|0,0:0|0:0,0:0:0:0:
425,205,149389,1,2,0:0:0:0:
428,239,149514,1,2,0:0:0:0:
227,311,149764,5,2,3:3:0:0:
490,352,150014,1,14,3:2:0:0:
431,239,150264,1,2,3:0:0:0:
246,240,150514,6,0,B|210:275|210:275|140:282,1,100,6|0,0:0|0:0,0:0:0:0:
38,99,151014,2,0,B|88:105|88:105|138:138,1,100,14|0,0:0|0:0,0:0:0:0:
151,159,151389,1,2,0:0:0:0:
165,190,151514,1,6,0:0:0:0:
61,350,151764,5,2,3:3:0:0:
206,82,152014,1,14,0:0:0:0:
72,193,152264,1,2,0:3:0:0:
280,308,152514,5,6,0:0:0:0:
303,305,152639,2,0,L|411:292,1,100,2|0,0:0|0:0,0:0:0:0:
464,234,153014,2,0,P|442:152|405:139,1,100,14|2,0:0|0:3,0:0:0:0:
308,154,153514,2,0,P|243:148|206:87,1,100,6|2,0:0|0:3,0:0:0:0:
34,113,154014,2,0,P|99:107|136:46,1,100,12|2,0:0|0:3,0:0:0:0:
152,219,154514,5,6,0:0:0:0:
236,30,154764,1,0,3:3:0:0:
260,33,154889,1,0,3:3:0:0:
283,35,155014,2,0,L|392:44,1,80,0|0,3:3|0:0,3:3:0:0:
425,123,155514,1,0,3:3:0:0:
413,124,155639,1,0,3:3:0:0:
401,126,155764,1,0,3:3:0:0:
476,203,156014,1,0,3:3:0:0:
318,188,156264,1,0,3:3:0:0:
386,335,156514,6,0,L|461:324,1,69.9999978637696,6|0,3:2|3:2,3:2:0:0:
256,328,157014,2,0,L|186:338,1,69.9999978637696,12|0,3:2|3:2,3:2:0:0:
340,195,157514,1,4,3:2:0:0:
325,275,157764,1,0,3:2:0:0:
169,258,158014,1,12,3:2:0:0:
186,338,158264,1,0,3:2:0:0:
240,169,158514,6,0,L|230:93,1,69.9999978637696,4|0,3:2|3:2,3:2:0:0:
215,15,159014,1,12,3:2:0:0:
331,172,159264,2,0,L|321:96,1,69.9999978637696,0|4,3:2|3:2,3:2:0:0:
306,18,159764,1,0,3:2:0:0:
423,176,160014,2,0,L|413:100,1,69.9999978637696,12|0,3:2|3:2,3:2:0:0:
398,22,160514,6,0,P|448:27|484:62,1,69.9999978637696,4|0,3:2|3:2,3:2:0:0:
439,264,161014,2,0,P|389:259|353:224,1,69.9999978637696,12|0,3:2|3:2,3:2:0:0:
249,244,161514,2,0,L|264:332,1,69.9999978637696,4|0,3:2|0:2,3:2:0:0:
248,334,161889,1,0,3:2:0:0:
230,351,162014,2,0,P|180:346|144:311,1,69.9999978637696,12|0,3:2|3:2,3:2:0:0:
37,226,162514,6,0,P|68:210|103:211,1,69.9999978637696,4|0,3:2|3:2,3:2:0:0:
247,243,163014,1,12,3:2:0:0:
192,174,163264,1,0,3:2:0:0:
331,256,163514,1,4,3:2:0:0:
327,172,163764,1,0,3:2:0:0:
391,316,164014,1,12,3:2:0:0:
439,250,164264,1,0,3:2:0:0:
230,336,164514,6,0,L|142:327,1,69.9999978637696,4|0,3:2|3:2,3:2:0:0:
327,172,165014,2,0,L|415:163,1,69.9999978637696,12|0,3:2|3:2,3:2:0:0:
174,240,165514,2,0,P|125:224|100:188,1,69.9999978637696,4|0,3:2|3:2,3:2:0:0:
308,96,166014,2,0,L|396:87,1,69.9999978637696,12|0,3:2|3:2,3:2:0:0:
183,132,166514,6,0,L|173:35,1,69.9999978637696,4|0,3:2|3:2,3:2:0:0:
26,221,167014,1,12,3:2:0:0:
95,290,167264,1,0,3:2:0:0:
164,221,167514,1,4,3:2:0:0:
95,151,167764,1,0,3:2:0:0:
26,221,168014,1,12,3:2:0:0:
95,290,168264,1,0,3:2:0:0:
256,251,168514,6,0,L|342:235,1,69.9999978637696,4|0,3:2|3:2,3:2:0:0:
502,310,169014,2,0,P|451:295|410:311,1,69.9999978637696,12|0,3:2|3:2,3:2:0:0:
404,158,169514,2,0,L|411:67,1,69.9999978637696,4|0,3:2|0:2,3:2:0:0:
397,55,169889,1,0,3:2:0:0:
368,34,170014,2,0,P|314:27|278:47,1,69.9999978637696,12|0,3:2|3:2,3:2:0:0:
246,142,170514,5,6,3:2:0:0:
246,142,171014,5,0,3:2:0:0:
175,149,171264,1,0,3:2:0:0:
105,154,171514,1,0,3:2:0:0:
35,162,171764,1,0,3:2:0:0:
105,154,172014,1,0,3:2:0:0:
35,162,172264,1,0,3:2:0:0:
246,140,172514,6,0,P|307:125|329:80,1,100,6|0,0:0|0:0,0:0:0:0:
169,9,173014,2,0,P|152:70|180:111,1,100,14|2,0:0|0:0,0:0:0:0:
243,258,173514,1,6,0:0:0:0:
136,247,173764,1,0,0:0:0:0:
196,186,174014,1,12,0:0:0:0:
183,319,174264,1,2,0:0:0:0:
361,222,174514,6,0,L|344:116,1,100,6|0,0:0|0:0,0:0:0:0:
512,237,175014,2,0,L|496:335,1,100,14|0,0:0|0:0,0:0:0:0:
262,355,175514,2,0,P|230:311|262:209,1,150,6|0,0:0|0:0,0:0:0:0:
270,215,176014,5,2,0:3:0:0:
172,192,176264,1,2,0:3:0:0:
76,169,176514,1,4,0:3:0:0:
148,325,176764,5,2,0:0:0:0:
140,91,177014,1,14,0:0:0:0:
140,91,177264,1,2,0:0:0:0:
259,229,177514,2,0,P|315:240|364:204,1,100,6|0,0:0|0:0,0:0:0:0:
476,143,178014,2,0,P|431:122|383:134,1,100,12|2,0:0|0:0,0:0:0:0:
334,344,178514,6,0,B|327:258|327:258|301:231|301:231|295:137,1,200,6|14,0:0|0:0,0:0:0:0:
319,67,179264,1,0,0:0:0:0:
126,183,179514,6,0,B|76:185|76:185|21:158,1,100,6|0,0:0|0:0,0:0:0:0:
233,41,180014,2,0,B|229:90|229:90|195:142,1,100,12|0,0:0|0:0,0:0:0:0:
98,43,180514,5,4,0:0:0:0:
206,218,180764,2,2,B|187:253|195:293|207:318|207:318|186:297|148:279|86:298,1,200,2|0,0:0|0:0,2:0:0:0:
288,264,181514,2,0,L|390:276,1,100,6|0,0:0|0:0,0:0:0:0:
476,145,182014,2,0,L|372:156,1,100,12|0,0:0|0:0,0:0:0:0:
267,11,182514,5,4,0:0:0:0:
294,179,182764,2,2,B|281:145|299:107|320:86|320:86|292:102|255:108|223:90,1,200,2|0,0:0|0:0,0:0:0:0:
21,176,183514,1,6,0:0:0:0:
171,159,183764,1,0,0:0:0:0:
105,218,184014,1,12,0:0:0:0:
90,115,184264,1,0,0:0:0:0:
229,247,184514,6,0,P|233:298|217:358,1,80,6|0,0:0|0:0,0:0:0:0:
347,243,185014,2,0,P|368:289|373:354,1,80,6|0,0:0|0:0,0:0:0:0:
402,118,185514,2,0,P|439:153|468:209,1,80,6|0,0:0|0:0,0:0:0:0:
287,12,186014,2,0,L|275:158,1,120,6|0,0:0|0:0,0:0:0:0:
274,171,186514,1,2,0:3:0:0:
151,66,186764,6,0,P|95:59|50:72,1,80,2|0,0:0|0:0,0:0:0:0:
204,0,187264,1,0,0:0:0:0:
152,154,187514,6,2,L|167:332,2,160,2|0|0,0:0|0:0|0:0,0:0:0:0:
