osu file format v14

[General]
AudioFilename: audio.mp3
AudioLeadIn: 0
PreviewTime: 44195
Countdown: 0
SampleSet: Soft
StackLeniency: 0
Mode: 0
LetterboxInBreaks: 0
WidescreenStoryboard: 0

[Editor]
Bookmarks: 9695,13535,28895,44255,46175,61535,76895,92255,107135,107615,122975,138335,153455
DistanceSpacing: 0.4
BeatDivisor: 8
GridSize: 32
TimelineZoom: 2.100001

[Metadata]
Title:Casablanca Mix (Remake)
TitleUnicode:Casablanca Mix (Remake)
Artist:Pogo
ArtistUnicode:Pogo
Creator:Halgoh
Version:Strange Limerence
Source:
Tags:Electronic Instrumental vocal sample english
BeatmapID:3265082
BeatmapSetID:1598664

[Difficulty]
HPDrainRate:4.6
CircleSize:4
OverallDifficulty:8
ApproachRate:9
SliderMultiplier:2
SliderTickRate:1

[Events]
//Background and Video events
0,0,"pZHkItteb4oiQKfV6uDMl9PIYGL.jpg",0,0
//Break Periods
//Storyboard Layer 0 (Background)
//Storyboard Layer 1 (Fail)
//Storyboard Layer 2 (Pass)
//Storyboard Layer 3 (Foreground)
//Storyboard Layer 4 (Overlay)
//Storyboard Sound Samples

[TimingPoints]
95,480,4,2,0,65,1,0
5255,-133.333333333333,4,2,2,40,0,0
5615,-133.333333333333,4,2,2,5,0,0
5735,-100,4,2,2,40,0,0
5975,-100,4,2,2,5,0,0
6095,-200,4,2,2,40,0,0
6275,-200,4,2,2,5,0,0
6395,-166.666666666667,4,2,2,40,0,0
6815,-166.666666666667,4,2,2,20,0,0
6935,-166.666666666667,4,2,2,45,0,0
7145,-166.666666666667,4,2,2,40,0,0
7295,-166.666666666667,4,2,2,35,0,0
7415,-166.666666666667,4,2,2,30,0,0
7535,-100,4,2,2,40,0,0
7775,-100,4,2,2,5,0,0
7895,-200,4,2,2,40,0,0
8255,-200,4,2,2,5,0,0
8375,-100,4,2,2,40,0,0
8495,-100,4,2,2,5,0,0
8615,-66.6666666666667,4,2,2,40,0,0
8855,-66.6666666666667,4,2,2,5,0,0
8975,-50,4,2,2,40,0,0
9095,-50,4,2,2,5,0,0
9155,-50,4,2,2,40,0,0
9215,-200,4,2,2,40,0,0
9515,-200,4,2,2,5,0,0
9695,-100,4,2,10,50,0,0
11135,-133.333333333333,4,2,10,50,0,0
11375,-100,4,2,10,50,0,0
13055,-133.333333333333,4,2,10,50,0,0
13295,-100,4,2,10,50,0,0
13535,-100,4,2,20,80,0,0
14015,-50,4,2,20,80,0,0
14975,-40,4,2,20,80,0,0
15215,-100,4,2,20,80,0,0
15935,-50,4,2,20,80,0,0
16895,-40,4,2,20,80,0,0
17135,-100,4,2,20,80,0,0
17855,-50,4,2,20,80,0,0
18815,-40,4,2,20,80,0,0
19055,-100,4,2,20,80,0,0
19775,-50,4,2,20,80,0,0
20015,-133.333333333333,4,2,20,85,0,0
20255,-100,4,2,20,90,0,0
20495,-66.6666666666667,4,2,20,95,0,0
20735,-50,4,2,20,80,0,0
20975,-50,4,2,20,45,0,0
21095,-50,4,2,20,50,0,0
21215,-50,4,2,20,80,0,0
21455,-50,4,2,20,80,0,0
21695,-50,4,2,20,80,0,0
22655,-40,4,2,20,80,0,0
22895,-100,4,2,20,80,0,0
23135,-50,4,2,20,80,0,0
23615,-66.6666666666667,4,2,20,80,0,0
23855,-50,4,2,20,80,0,0
24095,-100,4,2,20,80,0,0
24575,-40,4,2,20,80,0,0
24815,-80,4,2,20,80,0,0
25055,-57.1428571428571,4,2,20,80,0,0
25535,-40,4,2,20,80,0,0
25775,-66.6666666666667,4,2,20,80,0,0
26015,-50,4,2,20,80,0,0
26195,-50,4,2,20,5,0,0
26255,-50,4,2,20,80,0,0
26435,-50,4,2,20,5,0,0
26495,-50,4,2,20,80,0,0
26735,-200,4,2,20,80,0,0
27455,-50,4,2,20,80,0,0
27695,-50,4,2,20,80,0,0
28655,-100,4,2,20,80,0,0
28895,-33.3333333333333,4,2,50,65,0,0
29375,-40,4,2,50,65,0,0
30335,-36.3636363636364,4,2,50,65,0,0
30575,-66.6666666666667,4,2,50,65,0,0
30815,-50,4,2,50,65,0,0
31775,-33.3333333333333,4,2,50,65,0,0
31955,-33.3333333333333,4,2,50,5,0,0
32015,-50,4,2,50,65,0,0
32255,-40,4,2,50,65,0,0
32435,-40,4,2,50,5,0,0
32495,-66.6666666666667,4,2,50,65,0,0
32735,-50,4,2,50,65,0,0
33215,-44.4444444444445,4,2,50,65,0,0
33695,-44.4444444444445,4,2,50,65,0,0
34175,-33.3333333333333,4,2,50,65,0,0
34355,-33.3333333333333,4,2,50,5,0,0
34415,-33.3333333333333,4,2,50,65,0,0
34595,-33.3333333333333,4,2,50,5,0,0
34655,-33.3333333333333,4,2,50,65,0,0
35135,-50,4,2,50,65,0,0
35375,-33.3333333333333,4,2,50,65,0,0
35555,-33.3333333333333,4,2,50,5,0,0
35615,-40,4,2,50,65,0,0
36095,-33.3333333333333,4,2,50,65,0,0
36575,-33.3333333333333,4,2,50,65,0,0
37055,-40,4,2,50,65,0,0
38015,-36.3636363636364,4,2,50,65,0,0
38255,-66.6666666666667,4,2,50,65,0,0
38495,-50,4,2,50,65,0,0
39455,-33.3333333333333,4,2,50,65,0,0
39635,-33.3333333333333,4,2,50,5,0,0
39695,-50,4,2,50,65,0,0
39935,-40,4,2,50,65,0,0
40175,-66.6666666666667,4,2,50,65,0,0
40415,-50,4,2,50,65,0,0
40895,-44.4444444444445,4,2,50,65,0,0
41855,-33.3333333333333,4,2,50,65,0,0
42035,-33.3333333333333,4,2,50,5,0,0
42095,-33.3333333333333,4,2,50,65,0,0
42275,-33.3333333333333,4,2,50,5,0,0
42335,-33.3333333333333,4,2,50,65,0,0
42815,-50,4,2,50,65,0,0
43055,-33.3333333333333,4,2,50,65,0,0
43235,-33.3333333333333,4,2,50,5,0,0
43295,-40,4,2,50,65,0,0
43775,-33.3333333333333,4,2,50,65,0,0
44015,-66.6666666666667,4,2,50,65,0,0
44075,-66.6666666666667,4,2,50,5,0,0
44135,-25,4,2,50,65,0,0
44195,-25,4,2,50,5,0,0
44255,-25,4,2,99,40,0,0
44375,-25,4,2,99,27,0,0
44495,-25,4,2,99,30,0,0
44615,-25,4,2,99,32,0,0
44735,-25,4,2,99,35,0,0
44855,-25,4,2,98,37,0,0
44975,-25,4,2,99,40,0,0
45095,-25,4,2,99,42,0,0
45215,-25,4,2,99,45,0,0
45335,-25,4,2,99,47,0,0
45455,-25,4,2,99,50,0,0
45575,-25,4,2,99,53,0,0
45695,-25,4,2,99,55,0,0
45815,-25,4,2,99,60,0,0
45935,-25,4,2,99,65,0,0
46055,-25,4,2,99,70,0,0
46175,-28.5714285714286,4,2,39,75,0,1
46415,-36.3636363636364,4,2,30,75,0,1
46655,-23.5294117647059,4,2,30,75,0,1
46835,-23.5294117647059,4,2,30,5,0,1
46895,-66.6666666666667,4,2,30,75,0,1
47135,-28.5714285714286,4,2,30,75,0,1
47615,-40,4,2,31,75,0,1
47855,-40,4,2,30,75,0,1
48095,-28.5714285714286,4,2,30,75,0,1
48335,-36.3636363636364,4,2,30,75,0,1
48575,-23.5294117647059,4,2,30,75,0,1
48755,-23.5294117647059,4,2,30,5,0,1
48815,-57.1428571428571,4,2,30,75,0,1
49055,-33.3333333333333,4,2,30,75,0,1
49535,-40,4,2,31,75,0,1
49775,-40,4,2,30,75,0,1
50015,-28.5714285714286,4,2,30,75,0,1
50255,-36.3636363636364,4,2,30,75,0,1
50495,-23.5294117647059,4,2,30,75,0,1
50675,-23.5294117647059,4,2,30,5,0,1
50735,-66.6666666666667,4,2,30,75,0,1
50975,-33.3333333333333,4,2,30,75,0,1
51455,-40,4,2,31,75,0,1
51695,-40,4,2,30,75,0,1
51935,-28.5714285714286,4,2,30,75,0,1
52175,-36.3636363636364,4,2,30,75,0,1
52415,-23.5294117647059,4,2,30,75,0,1
52595,-23.5294117647059,4,2,30,5,0,1
52655,-133.333333333333,4,2,30,75,0,1
52895,-30.7692307692308,4,2,30,75,0,1
53375,-399.999999999997,4,2,31,75,0,1
53615,-399.999999999997,4,2,30,75,0,1
53855,-28.5714285714286,4,2,30,75,0,1
54095,-40,4,2,30,75,0,1
54335,-23.5294117647059,4,2,30,75,0,1
54515,-23.5294117647059,4,2,30,5,0,1
54575,-66.6666666666667,4,2,30,75,0,1
54815,-33.3333333333333,4,2,30,75,0,1
55295,-40,4,2,31,75,0,1
55535,-40,4,2,30,75,0,1
55775,-28.5714285714286,4,2,30,75,0,1
56015,-36.3636363636364,4,2,30,75,0,1
56255,-23.5294117647059,4,2,30,75,0,1
56435,-23.5294117647059,4,2,30,5,0,1
56495,-57.1428571428571,4,2,30,75,0,1
56735,-28.5714285714286,4,2,30,75,0,1
57215,-40,4,2,31,75,0,1
57455,-40,4,2,30,75,0,1
57695,-28.5714285714286,4,2,30,75,0,1
57935,-36.3636363636364,4,2,30,75,0,1
58175,-23.5294117647059,4,2,30,75,0,1
58355,-23.5294117647059,4,2,30,5,0,1
58415,-133.333333333333,4,2,30,75,0,1
58655,-28.5714285714286,4,2,30,75,0,1
59135,-40,4,2,31,75,0,1
59375,-40,4,2,30,75,0,1
59615,-28.5714285714286,4,2,30,75,0,1
59855,-66.6666666666667,4,2,30,75,0,1
59915,-66.6666666666667,4,2,30,5,0,1
59975,-66.6666666666667,4,2,30,75,0,1
60035,-66.6666666666667,4,2,30,5,0,1
60095,-23.5294117647059,4,2,30,75,0,1
60335,-33.3333333333333,4,2,30,75,0,1
60575,-30.7692307692308,4,2,30,75,0,1
61055,-40,4,2,31,75,0,1
61295,-40,4,2,30,75,0,1
61535,-50,4,2,40,70,0,0
61835,-25,4,2,40,70,0,0
61955,-25,4,2,40,5,0,0
62015,-50,4,2,40,70,0,0
62075,-50,4,2,40,5,0,0
62135,-50,4,2,40,70,0,0
62195,-50,4,2,40,5,0,0
62255,-50,4,2,40,70,0,0
62315,-50,4,2,40,5,0,0
62375,-50,4,2,40,70,0,0
62435,-50,4,2,40,5,0,0
62495,-66.6666666666667,4,2,40,70,0,0
62915,-66.6666666666667,4,2,40,5,0,0
62975,-50,4,2,40,70,0,0
63215,-100,4,2,40,70,0,0
63455,-66.6666666666667,4,2,40,70,0,0
63695,-57.1428571428571,4,2,40,70,0,0
63935,-50,4,2,40,70,0,0
64175,-200,4,2,40,70,0,0
64415,-66.6666666666667,4,2,40,70,0,0
64895,-50,4,2,40,70,0,0
65315,-50,4,2,40,5,0,0
65375,-500,4,2,40,70,0,0
65855,-22.7272727272727,4,2,40,70,0,0
66095,-45.4545454545455,4,2,40,70,0,0
66575,-66.6666666666667,4,2,40,70,0,0
66755,-66.6666666666667,4,2,40,5,0,0
66815,-44.4444444444445,4,2,40,70,0,0
67715,-44.4444444444445,4,2,40,5,0,0
67775,-36.3636363636364,4,2,40,70,0,0
68015,-22.9885057471264,4,2,40,70,0,0
68195,-22.9885057471264,4,2,40,5,0,0
68255,-22.9885057471264,4,2,40,70,0,0
68495,-133.333333333333,4,2,40,70,0,0
68735,-30.7692307692308,4,2,40,70,0,0
69215,-50,4,2,40,70,0,0
69515,-25,4,2,40,70,0,0
69635,-25,4,2,40,5,0,0
69695,-50,4,2,40,70,0,0
69755,-50,4,2,40,5,0,0
69815,-50,4,2,40,70,0,0
69875,-50,4,2,40,5,0,0
69935,-50,4,2,40,70,0,0
69995,-50,4,2,40,5,0,0
70055,-50,4,2,40,70,0,0
70115,-50,4,2,40,5,0,0
70175,-66.6666666666667,4,2,40,70,0,0
70595,-66.6666666666667,4,2,40,5,0,0
70655,-50,4,2,40,70,0,0
70895,-100,4,2,40,70,0,0
71135,-66.6666666666667,4,2,40,70,0,0
71375,-57.1428571428571,4,2,40,70,0,0
71615,-50,4,2,40,70,0,0
71855,-133.333333333333,4,2,40,70,0,0
72095,-66.6666666666667,4,2,40,70,0,0
72575,-50,4,2,40,70,0,0
72995,-50,4,2,40,5,0,0
73055,-500,4,2,40,70,0,0
73535,-22.7272727272727,4,2,40,70,0,0
73775,-45.4545454545455,4,2,40,70,0,0
74255,-66.6666666666667,4,2,40,70,0,0
74495,-44.4444444444445,4,2,40,70,0,0
75395,-44.4444444444445,4,2,40,5,0,0
75455,-36.3636363636364,4,2,40,70,0,0
75695,-22.9885057471264,4,2,40,70,0,0
75875,-22.9885057471264,4,2,40,5,0,0
75935,-22.9885057471264,4,2,40,70,0,0
76175,-133.333333333333,4,2,40,70,0,0
76415,-30.7692307692308,4,2,40,70,0,0
76895,-30.7692307692308,4,2,50,65,0,0
77375,-40,4,2,50,65,0,0
77615,-80,4,2,50,65,0,0
77675,-80,4,2,50,5,0,0
77735,-57.1428571428571,4,2,50,65,0,0
77795,-57.1428571428571,4,2,50,5,0,0
77855,-28.5714285714286,4,2,50,65,0,0
78335,-25,4,2,50,65,0,0
78575,-33.3333333333333,4,2,50,65,0,0
78755,-33.3333333333333,4,2,50,5,0,0
78815,-50,4,2,50,65,0,0
79295,-40,4,2,50,65,0,0
79535,-33.3333333333333,4,2,50,65,0,0
79715,-33.3333333333333,4,2,50,5,0,0
79775,-33.3333333333333,4,2,50,65,0,0
80255,-100,4,2,50,65,0,0
80735,-33.3333333333333,4,2,50,65,0,0
81155,-33.3333333333333,4,2,50,5,0,0
81215,-28.5714285714286,4,2,50,65,0,0
81455,-57.1428571428571,4,2,50,65,0,0
81695,-44.4444444444445,4,2,50,65,0,0
82175,-33.3333333333333,4,2,50,65,0,0
82355,-33.3333333333333,4,2,50,5,0,0
82415,-33.3333333333333,4,2,50,65,0,0
82595,-33.3333333333333,4,2,50,5,0,0
82655,-33.3333333333333,4,2,50,65,0,0
83135,-50,4,2,50,65,0,0
83375,-33.3333333333333,4,2,50,65,0,0
83555,-33.3333333333333,4,2,50,5,0,0
83615,-40,4,2,50,65,0,0
85055,-40,4,2,50,65,0,0
85295,-80,4,2,50,65,0,0
85355,-80,4,2,50,5,0,0
85415,-57.1428571428571,4,2,50,65,0,0
85475,-57.1428571428571,4,2,50,5,0,0
85535,-28.5714285714286,4,2,50,65,0,0
86015,-25,4,2,50,65,0,0
86255,-28.5714285714286,4,2,50,65,0,0
86435,-28.5714285714286,4,2,50,5,0,0
86495,-50,4,2,50,65,0,0
86975,-25,4,2,50,65,0,0
87215,-33.3333333333333,4,2,50,65,0,0
87395,-33.3333333333333,4,2,50,5,0,0
87455,-33.3333333333333,4,2,50,65,0,0
87935,-100,4,2,50,65,0,0
88415,-33.3333333333333,4,2,50,65,0,0
88835,-33.3333333333333,4,2,50,5,0,0
88895,-28.5714285714286,4,2,50,65,0,0
89135,-57.1428571428571,4,2,50,65,0,0
89375,-44.4444444444445,4,2,50,65,0,0
89855,-33.3333333333333,4,2,50,65,0,0
90035,-33.3333333333333,4,2,50,5,0,0
90095,-25,4,2,50,65,0,0
90815,-50,4,2,50,65,0,0
91055,-33.3333333333333,4,2,50,65,0,0
91235,-33.3333333333333,4,2,50,5,0,0
91295,-40,4,2,50,65,0,0
92015,-50,4,2,50,65,0,0
92255,-23.5294117647059,4,2,70,85,0,1
92555,-23.5294117647059,4,2,70,5,0,1
92615,-33.3333333333333,4,2,70,85,0,1
92675,-33.3333333333333,4,2,70,5,0,1
92735,-50,4,2,70,85,0,1
92975,-66.6666666666667,4,2,70,85,0,1
93215,-40,4,2,70,85,0,1
93695,-33.3333333333333,4,2,70,85,0,1
94175,-22.2222222222222,4,2,70,85,0,1
94475,-22.2222222222222,4,2,70,5,0,1
94535,-30.7692307692308,4,2,70,85,0,1
94895,-54.054054054054,4,2,70,85,0,1
95135,-200,4,2,70,85,0,1
95615,-25,4,2,70,85,0,1
96035,-25,4,2,70,5,0,1
96095,-23.5294117647059,4,2,70,85,0,1
96395,-23.5294117647059,4,2,70,5,0,1
96455,-33.3333333333333,4,2,70,85,0,1
96515,-33.3333333333333,4,2,70,5,0,1
96575,-50,4,2,70,85,0,1
96815,-66.6666666666667,4,2,70,85,0,1
97055,-36.3636363636364,4,2,70,85,0,1
97535,-33.3333333333333,4,2,70,85,0,1
98015,-22.2222222222222,4,2,70,85,0,1
98375,-30.7692307692308,4,2,70,85,0,1
98735,-54.054054054054,4,2,70,85,0,1
98975,-200,4,2,70,85,0,1
99455,-25,4,2,70,85,0,1
99875,-25,4,2,70,5,0,1
99935,-23.5294117647059,4,2,70,85,0,1
100235,-23.5294117647059,4,2,70,5,0,1
100295,-30.7692307692308,4,2,70,85,0,1
100355,-30.7692307692308,4,2,70,5,0,1
100415,-50,4,2,70,85,0,1
100655,-66.6666666666667,4,2,70,85,0,1
100895,-36.3636363636364,4,2,70,85,0,1
101375,-33.3333333333333,4,2,70,85,0,1
101855,-22.2222222222222,4,2,70,85,0,1
102215,-30.7692307692308,4,2,70,85,0,1
102575,-54.054054054054,4,2,70,85,0,1
102815,-200,4,2,70,85,0,1
103295,-28.5714285714286,4,2,70,85,0,1
103715,-28.5714285714286,4,2,70,5,0,1
103775,-23.5294117647059,4,2,70,85,0,1
104075,-23.5294117647059,4,2,70,5,0,1
104135,-33.3333333333333,4,2,70,85,0,1
104195,-33.3333333333333,4,2,70,5,0,1
104255,-50,4,2,70,85,0,1
104495,-66.6666666666667,4,2,70,85,0,1
104735,-36.3636363636364,4,2,70,85,0,1
105215,-33.3333333333333,4,2,70,85,0,1
105695,-22.2222222222222,4,2,70,85,0,1
106055,-30.7692307692308,4,2,70,85,0,1
106415,-80,4,2,71,85,0,1
106595,-80,4,2,71,5,0,1
106655,-80,4,2,71,85,0,1
106775,-399.999999999997,4,2,71,85,0,1
107135,-100,4,2,71,85,0,0
107615,-66.6666666666667,4,2,79,50,0,0
108335,-57.1428571428571,4,2,79,50,0,0
108995,-57.1428571428571,4,2,79,5,0,0
109055,-57.1428571428571,4,2,79,50,0,0
109535,-50,4,2,79,50,0,0
110255,-44.4444444444445,4,2,79,50,0,0
110735,-57.1428571428571,4,2,79,50,0,0
110915,-57.1428571428571,4,2,79,5,0,0
110975,-57.1428571428571,4,2,79,50,0,0
111455,-50,4,2,79,50,0,0
112175,-44.4444444444445,4,2,79,50,0,0
112655,-57.1428571428571,4,2,79,50,0,0
112835,-57.1428571428571,4,2,79,5,0,0
112895,-57.1428571428571,4,2,79,50,0,0
113375,-40,4,2,79,50,0,0
114095,-44.4444444444445,4,2,79,50,0,0
114575,-57.1428571428571,4,2,79,50,0,0
114755,-57.1428571428571,4,2,79,5,0,0
114815,-57.1428571428571,4,2,79,50,0,0
115295,-66.6666666666667,4,2,79,50,0,0
116015,-57.1428571428571,4,2,79,50,0,0
116675,-57.1428571428571,4,2,79,5,0,0
116735,-57.1428571428571,4,2,79,50,0,0
117215,-50,4,2,79,50,0,0
117935,-44.4444444444445,4,2,79,50,0,0
118415,-57.1428571428571,4,2,79,50,0,0
118595,-57.1428571428571,4,2,79,5,0,0
118655,-57.1428571428571,4,2,79,50,0,0
119135,-50,4,2,79,50,0,0
119855,-44.4444444444445,4,2,79,50,0,0
120335,-57.1428571428571,4,2,79,50,0,0
120515,-57.1428571428571,4,2,79,5,0,0
120575,-57.1428571428571,4,2,79,50,0,0
121055,-40,4,2,79,50,0,0
121775,-44.4444444444445,4,2,79,50,0,0
122255,-57.1428571428571,4,2,79,50,0,0
122495,-285.714285714286,4,2,79,50,0,0
122975,-28.5714285714286,4,2,80,75,0,0
123395,-28.5714285714286,4,2,80,5,0,0
123455,-28.5714285714286,4,2,80,75,0,0
123635,-28.5714285714286,4,2,80,5,0,0
123695,-28.5714285714286,4,2,80,75,0,0
123875,-28.5714285714286,4,2,80,5,0,0
123935,-33.3333333333333,4,2,80,75,0,0
124175,-25,4,2,80,75,0,0
124355,-25,4,2,80,5,0,0
124415,-33.3333333333333,4,2,80,75,0,0
124655,-50,4,2,80,75,0,0
124895,-80,4,2,80,75,0,0
125315,-80,4,2,80,5,0,0
125375,-40,4,2,80,75,0,0
126275,-40,4,2,80,5,0,0
126335,-30.7692307692308,4,2,80,75,0,0
126515,-30.7692307692308,4,2,80,5,0,0
126575,-66.6666666666667,4,2,80,75,0,0
126755,-66.6666666666667,4,2,80,5,0,0
126815,-33.3333333333333,4,2,80,75,0,0
126995,-33.3333333333333,4,2,80,5,0,0
127055,-100,4,2,80,75,0,0
127295,-30.7692307692308,4,2,80,75,0,0
127475,-30.7692307692308,4,2,80,5,0,0
127535,-66.6666666666667,4,2,80,75,0,0
127655,-133.333333333333,4,2,80,75,0,0
128015,-44.4444444444445,4,2,80,75,0,0
128195,-44.4444444444445,4,2,80,5,0,0
128255,-30.7692307692308,4,2,80,75,0,0
128435,-30.7692307692308,4,2,80,5,0,0
128495,-222.222222222221,4,2,80,75,0,0
128675,-222.222222222221,4,2,80,5,0,0
128735,-33.3333333333333,4,2,80,75,0,0
129215,-40,4,2,80,75,0,0
129695,-133.333333333333,4,2,80,75,0,0
129755,-133.333333333333,4,2,80,5,0,0
129815,-133.333333333333,4,2,80,75,0,0
129875,-133.333333333333,4,2,80,5,0,0
129935,-40.3225806451613,4,2,80,75,0,0
130115,-40.3225806451613,4,2,80,5,0,0
130175,-66.6666666666667,4,2,80,75,0,0
130355,-66.6666666666667,4,2,80,5,0,0
130415,-55.5555555555556,4,2,80,75,0,0
130655,-28.5714285714286,4,2,80,75,0,0
131075,-28.5714285714286,4,2,80,5,0,0
131135,-28.5714285714286,4,2,80,75,0,0
131315,-28.5714285714286,4,2,80,5,0,0
131375,-28.5714285714286,4,2,80,75,0,0
131555,-28.5714285714286,4,2,80,5,0,0
131615,-33.3333333333333,4,2,80,75,0,0
131855,-25,4,2,80,75,0,0
132035,-25,4,2,80,5,0,0
132095,-33.3333333333333,4,2,80,75,0,0
132275,-33.3333333333333,4,2,80,5,0,0
132335,-33.3333333333333,4,2,80,75,0,0
132575,-80,4,2,80,75,0,0
132995,-80,4,2,80,5,0,0
133055,-40,4,2,80,75,0,0
133955,-40,4,2,80,5,0,0
134015,-30.7692307692308,4,2,80,75,0,0
134195,-30.7692307692308,4,2,80,5,0,0
134255,-66.6666666666667,4,2,80,75,0,0
134435,-66.6666666666667,4,2,80,5,0,0
134495,-33.3333333333333,4,2,80,75,0,0
134675,-33.3333333333333,4,2,80,5,0,0
134735,-100,4,2,80,75,0,0
134975,-30.7692307692308,4,2,80,75,0,0
135155,-30.7692307692308,4,2,80,5,0,0
135215,-66.6666666666667,4,2,80,75,0,0
135335,-133.333333333333,4,2,80,75,0,0
135695,-44.4444444444445,4,2,80,75,0,0
135875,-44.4444444444445,4,2,80,5,0,0
135935,-20.8333333333333,4,2,80,75,0,0
136175,-222.222222222221,4,2,80,75,0,0
136355,-222.222222222221,4,2,80,5,0,0
136415,-33.3333333333333,4,2,80,75,0,0
136895,-40,4,2,80,75,0,0
137375,-133.333333333333,4,2,80,75,0,0
137435,-133.333333333333,4,2,80,5,0,0
137495,-133.333333333333,4,2,80,75,0,0
137555,-133.333333333333,4,2,80,5,0,0
137615,-50,4,2,80,75,0,0
137855,-66.6666666666667,4,2,80,75,0,0
138035,-66.6666666666667,4,2,80,5,0,0
138095,-55.5555555555556,4,2,80,75,0,0
138335,-37.037037037037,4,2,90,85,0,1
138815,-27.7777777777778,4,2,90,85,0,1
138995,-27.7777777777778,4,2,90,5,0,1
139055,-55.5555555555556,4,2,90,85,0,1
139115,-55.5555555555556,4,2,90,5,0,1
139175,-55.5555555555556,4,2,90,85,0,1
139235,-55.5555555555556,4,2,90,5,0,1
139295,-33.3333333333333,4,2,90,85,0,1
139535,-41.6666666666667,4,2,90,85,0,1
139655,-27.7777777777778,4,2,90,85,0,1
139775,-20.8333333333333,4,2,90,85,0,1
139955,-20.8333333333333,4,2,90,5,0,1
140015,-20.8333333333333,4,2,90,85,0,1
140195,-20.8333333333333,4,2,90,5,0,1
140255,-37.037037037037,4,2,90,85,0,1
140735,-27.7777777777778,4,2,90,85,0,1
140915,-27.7777777777778,4,2,90,5,0,1
140975,-31.25,4,2,90,85,0,1
141035,-31.25,4,2,90,5,0,1
141095,-31.25,4,2,90,85,0,1
141155,-31.25,4,2,90,5,0,1
141215,-33.3333333333333,4,2,90,85,0,1
141455,-31.25,4,2,90,85,0,1
141635,-31.25,4,2,90,5,0,1
141695,-27.7777777777778,4,2,90,85,0,1
141875,-27.7777777777778,4,2,90,5,0,1
141935,-166.666666666667,4,2,90,85,0,1
142175,-37.037037037037,4,2,90,85,0,1
142655,-27.9329608938547,4,2,90,85,0,1
142835,-27.9329608938547,4,2,90,5,0,1
142895,-55.5555555555556,4,2,90,85,0,1
142955,-55.5555555555556,4,2,90,5,0,1
143015,-55.5555555555556,4,2,90,85,0,1
143075,-55.5555555555556,4,2,90,5,0,1
143135,-33.3333333333333,4,2,90,85,0,1
143375,-25,4,2,90,85,0,1
143435,-25,4,2,90,5,0,1
143495,-25,4,2,90,85,0,1
143555,-25,4,2,90,5,0,1
143615,-22.2222222222222,4,2,90,85,0,1
143855,-222.222222222221,4,2,90,85,0,1
144035,-222.222222222221,4,2,90,5,0,1
144095,-37.037037037037,4,2,90,85,0,1
144575,-27.7777777777778,4,2,90,85,0,1
144755,-27.7777777777778,4,2,90,5,0,1
144815,-41.6666666666667,4,2,90,85,0,1
144875,-41.6666666666667,4,2,90,5,0,1
144935,-41.6666666666667,4,2,90,85,0,1
144995,-41.6666666666667,4,2,90,5,0,1
145055,-35.7142857142857,4,2,90,85,0,1
145115,-35.7142857142857,4,2,90,5,0,1
145175,-35.7142857142857,4,2,90,85,0,1
145235,-35.7142857142857,4,2,90,5,0,1
145295,-27.7777777777778,4,2,90,85,0,1
145475,-27.7777777777778,4,2,90,5,0,1
145535,-25,4,2,90,85,0,1
145715,-25,4,2,90,5,0,1
145775,-1000,4,2,90,85,0,0
146015,-37.037037037037,4,2,90,85,0,1
146495,-27.7777777777778,4,2,90,85,0,1
146675,-27.7777777777778,4,2,90,5,0,1
146735,-55.5555555555556,4,2,90,85,0,1
146795,-55.5555555555556,4,2,90,5,0,1
146855,-55.5555555555556,4,2,90,85,0,1
146915,-55.5555555555556,4,2,90,5,0,1
146975,-33.3333333333333,4,2,90,85,0,1
147215,-41.6666666666667,4,2,90,85,0,1
147275,-41.6666666666667,4,2,90,5,0,1
147335,-27.7777777777778,4,2,90,85,0,1
147395,-27.7777777777778,4,2,90,5,0,1
147455,-23.5294117647059,4,2,90,85,0,1
147635,-23.5294117647059,4,2,90,5,0,1
147695,-20,4,2,90,85,0,1
147875,-20,4,2,90,5,0,1
147935,-33.8983050847458,4,2,90,85,0,1
148415,-27.7777777777778,4,2,90,85,0,1
148595,-27.7777777777778,4,2,90,5,0,1
148655,-31.25,4,2,90,85,0,1
148715,-31.25,4,2,90,5,0,1
148775,-31.25,4,2,90,85,0,1
148835,-31.25,4,2,90,5,0,1
148895,-33.3333333333333,4,2,90,85,0,1
149135,-28.5714285714286,4,2,90,85,0,1
149315,-28.5714285714286,4,2,90,5,0,1
149375,-27.7777777777778,4,2,90,85,0,1
149555,-27.7777777777778,4,2,90,5,0,1
149615,-166.666666666667,4,2,90,85,0,1
149855,-33.3333333333333,4,2,90,85,0,1
150335,-24.5098039215686,4,2,90,85,0,1
150515,-24.5098039215686,4,2,90,5,0,1
150575,-55.5555555555556,4,2,90,85,0,1
150635,-55.5555555555556,4,2,90,5,0,1
150695,-55.5555555555556,4,2,90,85,0,1
150755,-55.5555555555556,4,2,90,5,0,1
150815,-33.3333333333333,4,2,90,85,0,1
151055,-25,4,2,90,85,0,1
151115,-25,4,2,90,5,0,1
151175,-25,4,2,90,85,0,1
151235,-25,4,2,90,5,0,1
151295,-22.2222222222222,4,2,90,85,0,1
151535,-222.222222222221,4,2,90,85,0,1
151715,-222.222222222221,4,2,90,5,0,1
151775,-37.037037037037,4,2,90,85,0,1
152255,-27.7777777777778,4,2,90,85,0,1
152435,-27.7777777777778,4,2,90,5,0,1
152495,-41.6666666666667,4,2,90,85,0,1
152555,-41.6666666666667,4,2,90,5,0,1
152615,-41.6666666666667,4,2,90,85,0,1
152675,-41.6666666666667,4,2,90,5,0,1
152735,-35.7142857142857,4,2,90,85,0,1
152795,-35.7142857142857,4,2,90,5,0,1
152855,-35.7142857142857,4,2,90,85,0,1
152915,-35.7142857142857,4,2,90,5,0,1
152975,-27.7777777777778,4,2,90,85,0,1
153155,-27.7777777777778,4,2,90,5,0,1
153215,-25,4,2,90,85,0,1
153395,-25,4,2,90,5,0,1
153455,-100,4,2,90,75,0,0
153515,-100,4,2,90,5,0,0
153575,-50,4,2,90,65,0,0
153755,-50,4,2,90,45,0,0

[Colours]
Combo1 : 255,196,255
Combo2 : 255,255,255

[HitObjects]
192,0,5255,6,0,P|193:58|219:107,1,112.500004291535,2|0,0:0|0:0,0:0:0:0:
291,132,5735,6,0,P|336:112|386:107,1,100,2|0,0:0|0:0,0:0:0:0:
387,108,6095,6,0,P|382:125|384:149,1,37.5,2|0,0:0|0:0,0:0:0:0:
454,181,6395,2,0,P|490:169|492:107,1,104.999996795654,2|0,0:0|0:0,0:0:0:0:
387,108,6935,5,2,0:0:0:0:
454,181,7145,5,2,0:0:0:0:
470,228,7295,1,2,0:0:0:0:
461,254,7415,1,2,0:0:0:0:
397,293,7535,6,0,P|348:261|266:250,1,100,2|0,0:0|0:0,0:0:0:0:
231,249,7895,2,0,P|211:261|240:289,1,75,2|0,0:0|0:0,0:0:0:0:
282,108,8375,6,0,B|298:100|298:100|291:118|293:139,1,50,2|0,0:0|0:0,0:0:0:0:
308,250,8615,2,0,B|309:203|272:165|239:183|209:137,1,150.000005722046,2|0,0:0|0:0,0:0:0:0:
214,144,8975,6,0,P|205:189|174:243,1,100,2|0,0:0|0:0,0:0:0:0:
179,236,9155,5,2,0:0:0:0:
101,223,9215,2,0,P|103:190|96:154,1,62.5,2|0,0:0|0:0,0:0:0:0:
31,118,9695,6,0,P|99:101|80:170,1,150,2|0,0:0|0:0,0:0:0:0:
97,160,10175,2,0,P|29:177|48:108,1,150,2|0,0:0|0:0,0:0:0:0:
296,144,10655,6,0,B|298:165|308:184|308:184|267:135|208:144,1,150,2|0,0:0|0:0,0:0:0:0:
147,93,11135,6,0,P|145:72|141:44,1,37.5000014305115,2|0,0:0|0:0,0:0:0:0:
224,16,11375,2,0,P|224:41|221:66,1,50,2|0,0:0|0:0,0:0:0:0:
213,143,11615,6,0,P|223:208|283:182,1,150,2|0,0:0|0:0,0:0:0:0:
283,184,12095,2,0,P|273:119|213:145,1,150,2|0,0:0|0:0,0:0:0:0:
352,224,12575,6,0,B|394:225|419:191|403:174|434:147|479:149,1,150,2|0,0:0|0:0,0:0:0:0:
472,148,13055,6,0,P|470:168|461:196,1,37.5000014305115,2|0,0:0|0:0,0:0:0:0:
352,224,13295,2,0,P|364:245|383:263,1,50,2|0,0:0|0:0,0:0:0:0:
364,360,13535,5,2,1:2:0:0:
364,360,13775,5,0,0:0:0:0:
350,364,13895,1,0,0:0:0:0:
272,346,14015,6,0,B|235:352|235:352|259:342|270:324|270:324|285:340,1,100,8|0,0:0|0:0,0:0:0:0:
382,262,14255,2,0,L|361:381,1,100,0|0,1:0|0:0,0:0:0:0:
365,361,14495,2,0,B|313:375|313:375|286:296|210:284,1,200,2|0,0:0|0:0,0:0:0:0:
457,292,14855,5,0,0:0:0:0:
456,298,14975,2,0,B|480:304|492:323|492:323|494:284|460:276|460:276|457:293,1,125,10|0,0:0|0:0,0:0:0:0:
281,336,15215,2,0,L|290:287,1,50,2|0,0:0|0:0,0:0:0:0:
142,62,15455,5,2,1:2:0:0:
142,62,15695,5,0,0:0:0:0:
138,84,15815,1,0,0:0:0:0:
121,156,15935,6,0,B|116:172|116:172|140:176|155:192|155:192|153:171|131:166,1,100,8|0,0:0|0:0,0:0:0:0:
214,88,16175,2,0,P|258:128|273:177,1,100,0|0,1:0|0:0,0:0:0:0:
273,165,16415,2,0,B|261:184|261:184|165:187|99:248,1,200,2|0,0:0|0:0,0:0:0:0:
347,138,16775,5,0,0:0:0:0:
345,144,16895,2,0,B|352:166|344:190|344:190|373:171|364:137|364:137|347:139,1,125,10|0,0:0|0:0,0:0:0:0:
238,14,17135,2,0,L|221:67,1,50,2|0,0:0|0:0,0:0:0:0:
139,314,17375,5,2,1:2:0:0:
139,314,17615,5,0,0:0:0:0:
161,318,17735,1,0,0:0:0:0:
238,303,17855,6,0,B|269:288|266:260|266:260|239:265|233:289,1,100,8|0,0:0|0:0,0:0:0:0:
139,314,18095,2,0,L|31:290,1,100,0|0,1:0|0:0,0:0:0:0:
41,292,18335,2,0,B|55:345|55:345|58:251|141:232,1,200,2|0,0:0|0:0,0:0:0:0:
220,60,18695,5,0,0:0:0:0:
223,57,18815,2,0,B|228:43|228:43|260:58|255:93|255:93|245:71|222:61,1,125,10|0,0:0|0:0,0:0:0:0:
161,318,19055,2,0,L|154:268,1,50,2|0,0:0|0:0,0:0:0:0:
126,25,19295,5,2,1:2:0:0:
126,25,19535,5,0,0:0:0:0:
122,47,19655,1,0,0:0:0:0:
112,127,19775,6,0,B|127:158|155:155|155:155|150:128|126:122,1,100,8|0,0:0|0:0,0:0:0:0:
21,32,20015,6,0,B|15:42|15:42|31:79,1,37.5000014305115,0|0,3:0|0:0,0:0:0:0:
112,127,20255,2,0,B|118:137|118:137|102:174,1,50,0|0,3:0|0:0,0:0:0:0:
21,222,20495,2,0,B|14:232|14:232|38:290,1,75.0000028610231,0|0,3:0|0:0,0:0:0:0:
122,47,20735,6,0,B|153:32|150:4|150:4|123:9|117:33,1,100,10|0,0:0|0:0,0:0:0:0:
38,290,20975,5,0,1:0:0:0:
154,268,21095,5,0,1:0:0:0:
311,330,21215,5,2,1:2:0:0:
311,330,21455,5,0,0:0:0:0:
315,308,21575,1,0,0:0:0:0:
328,235,21695,6,0,B|354:236|374:216|374:216|364:241|377:268,1,100,8|0,0:0|0:0,0:0:0:0:
480,360,21935,2,0,L|351:378,1,100,0|0,1:0|0:0,0:0:0:0:
380,373,22175,2,0,B|392:297|392:297|463:269|448:197,1,200,2|0,0:0|0:0,0:0:0:0:
234,354,22535,5,0,0:0:0:0:
236,346,22655,2,0,P|212:292|228:208,1,125,10|0,0:0|0:0,0:0:0:0:
218,227,22895,6,0,B|229:206|254:221|242:241,1,50,2|0,0:0|0:0,0:0:0:0:
315,251,23135,6,0,B|207:252|136:350|136:350|165:312|154:268,1,300,2|0,1:2|0:0,0:0:0:0:
311,330,23615,6,0,L|451:346,1,75.0000028610231,8|0,0:0|0:0,0:0:0:0:
258,143,23855,6,0,P|253:190|218:226,1,100,0|0,1:0|0:0,0:0:0:0:
154,268,24095,6,0,P|121:258|150:279,1,100,2|0,0:0|0:0,0:0:0:0:
315,53,24455,5,0,0:0:0:0:
319,49,24575,2,0,B|341:110|341:110|357:109|343:173,1,125,10|0,0:0|0:0,0:0:0:0:
429,190,24815,2,0,B|439:161|439:161|452:153|462:132,1,62.5,2|0,0:0|0:0,0:0:0:0:
429,0,25055,5,2,1:2:0:0:
429,0,25295,5,0,0:0:0:0:
424,21,25415,1,0,0:0:0:0:
385,86,25535,6,2,B|352:81|324:103|329:114|311:136|274:135,1,125,8|0,0:0|0:0,0:0:0:0:
267,63,25775,2,0,B|264:48|245:32|245:32|253:55|267:63,1,75.0000028610231,0|0,1:0|0:0,0:0:0:0:
301,307,26015,6,0,P|330:238|343:164,1,150,2|0,0:0|0:0,0:0:0:0:
358,163,26255,2,0,P|379:234|416:299,1,150,2|0,0:0|0:0,0:0:0:0:
417,300,26495,6,0,B|432:281|459:280|459:280|426:272|407:295,1,100,10|0,0:0|0:0,0:0:0:0:
366,379,26735,2,0,L|362:350,1,25,2|0,0:0|0:0,0:0:0:0:
275,135,26975,5,2,1:2:0:0:
275,135,27215,5,0,0:0:0:0:
270,156,27335,1,0,0:0:0:0:
251,231,27455,6,0,B|261:253|246:248|239:277|239:277|245:248|230:246|250:231,1,100,8|0,0:0|0:0,0:0:0:0:
189,106,27695,2,0,P|232:115|269:155,1,100,0|0,1:0|0:0,0:0:0:0:
358,163,27935,6,0,B|304:136|240:172|264:192|223:227|164:212,1,200,2|0,0:0|0:0,0:0:0:0:
176,214,28295,5,0,0:0:0:0:
111,150,28415,1,0,0:0:0:0:
111,150,28655,6,0,L|99:203,1,50
200,319,28895,6,0,B|255:309|275:253|275:253|279:278|295:292,1,150.000005722046,0|0,1:0|0:0,0:0:0:0:
353,242,29135,1,0,0:0:0:0:
353,242,29255,1,0,0:0:0:0:
176,214,29375,6,0,B|152:218|124:282|159:328|159:328|150:296|164:266|164:266|184:222|141:186|97:214|105:246|76:268|37:258,1,375,8|0,0:0|0:0,0:0:0:0:
38,334,29855,2,0,P|132:246|280:243,1,250,0|0,1:0|0:0,0:0:0:0:
380,353,30215,5,0,0:0:0:0:
352,241,30335,2,0,B|337:336|337:336|318:346|308:365,1,137.500001311302,8|0,0:0|0:0,0:0:0:0:
260,307,30575,2,0,L|248:232,1,75.0000028610231
160,139,30815,6,0,B|179:95|137:66|130:27|202:-25|287:0|294:39|263:81|301:123,1,300,0|0,1:0|0:0,0:0:0:0:
234,162,31295,1,8,0:0:0:0:
398,33,31535,6,0,B|340:46|418:79|345:155,1,100
295,116,31775,2,0,B|269:137|276:181|276:181|346:133|420:180,1,225.000008583069,0|0,1:0|0:0,0:0:0:0:
419,179,32015,2,0,B|461:219|377:209|403:311,1,100,0|0,2:0|2:0,2:0:0:0:
462,309,32255,2,0,P|353:324|289:367,1,187.5,8|0,0:0|0:0,0:0:0:0:
234,311,32495,2,0,P|232:268|211:218,1,75.0000028610231
129,128,32735,6,0,P|75:186|150:132,1,300,0|0,1:0|0:0,0:0:0:0:
179,55,33215,6,0,B|191:19|138:30|191:19|209:-29|191:19|224:61|191:19|179:55,2,112.500004291535,8|0|0,0:0|0:0|0:0,0:0:0:0:
16,58,33695,6,0,B|36:81|78:74|93:33|74:11,2,112.500004291535,0|0|0,1:0|0:0|0:0,0:0:0:0:
183,268,34055,5,0,0:0:0:0:
158,137,34175,2,0,B|106:112|-6:136|98:244|-26:257,1,225.000008583069,8|0,0:0|0:0,0:0:0:0:
0,252,34415,2,0,P|73:206|189:287,1,225.000008583069
241,323,34655,5,0,1:0:0:0:
333,286,34775,1,0,0:0:0:0:
252,225,34895,5,0,0:0:0:0:
309,359,35015,1,0,0:0:0:0:
358,75,35135,6,0,B|380:61|390:37|390:37|380:61|389:85,1,100,8|0,0:0|0:0,0:0:0:0:
460,72,35375,6,0,B|450:49|504:27|524:91|456:139|432:92|364:127|374:188,1,225.000008583069
375,189,35615,6,0,B|365:207|381:239|387:225|403:248|407:283|407:283|425:234|381:175|343:147|294:170|303:189|230:179|229:127,1,375,0|0,1:0|0:0,0:0:0:0:
115,15,36095,6,0,B|175:16|183:71|183:71|161:86|153:113,1,150.000005722046,8|0,0:0|0:0,0:0:0:0:
34,289,36335,6,0,B|6:301|-13:255|14:244,2,75.0000028610231
184,209,36575,6,0,B|127:217|109:276|109:276|105:251|89:237,1,150.000005722046,0|0,1:0|0:0,0:0:0:0:
94,162,36815,1,0,0:0:0:0:
94,162,36935,1,0,0:0:0:0:
229,132,37055,6,0,B|222:157|260:213|314:208|314:208|286:200|267:172|267:172|239:133|186:152|189:204|220:213|225:250|196:282,1,375,8|0,0:0|0:0,0:0:0:0:
133,347,37535,6,0,P|263:297|372:299,1,250,0|0,1:0|0:0,0:0:0:0:
453,336,37895,5,0,0:0:0:0:
506,220,38015,2,0,B|486:192|452:191|452:191|463:238|437:267,1,137.500001311302,8|0,0:0|0:0,0:0:0:0:
383,373,38255,2,0,L|371:298,1,75.0000028610231
273,147,38495,6,0,B|306:183|275:225|282:264|367:289|439:237|432:198|390:169|409:125,1,300,0|0,1:0|0:0,0:0:0:0:
332,82,38975,1,8,0:0:0:0:
503,19,39215,6,0,B|445:32|504:57|481:100,1,100
408,125,39455,2,0,P|315:51|201:40,1,225.000008583069,0|0,1:0|0:0,0:0:0:0:
212,38,39695,2,0,B|246:84|165:60|173:165,1,100,0|0,2:0|2:0,2:0:0:0:
166,194,39935,2,0,P|205:156|277:148,1,125,8|0,0:0|0:0,0:0:0:0:
261,74,40175,2,0,P|263:117|284:167,1,75.0000028610231
332,281,40415,6,0,P|386:223|311:277,1,300,0|0,1:0|0:0,0:0:0:0:
211,310,40895,6,0,B|194:276|164:321|194:276|172:229|194:276|247:282|194:276|211:310,2,112.500004291535,8|0|0,0:0|0:0|0:0,0:0:0:0:
418,328,41375,6,0,B|405:355|429:390|473:387|485:360,2,112.500004291535,0|0|0,1:0|0:0|0:0,0:0:0:0:
349,168,41735,5,0,0:0:0:0:
334,281,41855,2,0,B|359:229|335:117|227:221|214:97,1,225.000008583069,8|0,0:0|0:0,0:0:0:0:
219,122,42095,2,0,P|244:204|136:295,1,225.000008583069
78,266,42335,5,0,1:0:0:0:
44,147,42455,1,0,0:0:0:0:
123,149,42575,5,0,0:0:0:0:
154,294,42695,1,0,0:0:0:0:
17,39,42815,6,0,B|1:13|18:-14|18:-14|12:10|24:27,1,100,8|0,0:0|0:0,0:0:0:0:
162,215,43055,6,0,B|110:222|67:174|115:141|56:71|-9:93|10:149|36:137,1,225.000008583069
35,137,43295,2,0,B|104:156|131:117|168:56|156:24|232:8|256:72|229:106|176:116|176:116|142:122|124:149,1,375,0|0,1:0|0:0,0:0:0:0:
3,260,43775,5,8,0:0:0:0:
291,255,44015,6,0,L|277:306,1,37.5000014305115
308,326,44135,2,0,B|265:352|265:352|241:309,1,100
0,72,44255,5,2,1:0:0:0:
5,61,44375,5,0,1:0:0:0:
22,43,44495,5,0,1:0:0:0:
59,39,44615,5,0,1:0:0:0:
102,65,44735,5,0,1:0:0:0:
123,149,44855,5,2,1:0:0:0:
186,44,44975,5,2,1:0:0:0:
244,106,45095,5,0,1:0:0:0:
232,184,45215,5,0,1:0:0:0:
149,222,45335,5,0,1:0:0:0:
328,83,45455,5,2,1:0:0:0:
361,172,45575,5,0,1:0:0:0:
281,291,45695,5,0,1:0:0:0:
442,51,45815,5,2,1:0:0:0:
488,175,45935,5,0,1:0:0:0:
376,341,46055,5,0,1:0:0:0:
69,145,46175,6,0,B|60:122|35:133|9:143|18:165|27:188|52:177|77:167|77:167|126:147,1,175.00000166893,6|2,1:2|2:0,0:0:0:0:
194,50,46415,6,0,B|202:12|220:17|224:3|227:-8|209:-13|191:-17|187:-5|184:9|202:12|194:50,1,137.500001311302,2|0,0:3|1:0,0:0:0:0:
214,199,46655,6,2,B|214:231|214:255|190:255|166:255|166:231|166:207|190:207|214:207|214:207|257:207|281:140|254:99|254:99|240:119|218:122,1,318.750006079674,8|0,0:0|0:0,2:0:0:0:
218,121,46895,2,2,P|211:160|236:205,1,75.0000028610231,2|2,0:3|2:0,2:0:0:0:
299,365,47135,6,2,B|255:344|269:315|225:295|225:295|167:268|174:253|196:264|217:274|211:288|204:303|182:293|160:282|160:282|15:215|15:215|80:245|67:274|125:301,1,525.00000500679,0|0,1:0|1:0,1:0:0:0:
176,372,47615,2,0,B|284:384|264:288|400:280,1,250,12|2,0:0|0:3,0:0:0:0:
399,280,47975,1,2,2:0:0:0:
493,321,48095,6,2,B|509:329|499:350|490:372|472:364|452:355|462:334|472:314|472:314|487:276|470:246,1,175.00000166893,4|2,1:2|2:0,3:0:0:0:
402,100,48335,6,2,B|374:94|380:67|386:41|412:46|439:51|433:78|428:104|402:100,1,137.500001311302,2|0,0:3|1:0,3:0:0:0:
442,176,48575,6,2,B|406:189|394:227|394:227|358:219|343:176|355:176|343:153|309:142|309:142|293:159|276:142|259:125|276:108|293:91|309:108|326:125|309:142,1,318.750006079674,8|0,0:0|0:0,0:0:0:0:
310,142,48815,2,2,P|310:181|284:226,1,87.500000834465,2|2,0:3|2:0,2:0:0:0:
291,310,49055,6,2,B|269:229|289:224|297:254|305:284|285:289|265:295|257:265|249:235|249:235|215:109|215:109|215:109|198:44|218:38|227:74|235:104|195:114|187:84|178:49|178:49|170:19,1,450.000017166138,0|0,1:0|1:0,1:0:0:0:
265,0,49535,2,0,P|296:47|174:171,1,250,12|2,0:0|0:3,0:0:0:0:
192,173,49895,1,2,2:0:0:0:
213,69,50015,6,2,B|205:69|205:77|205:85|213:85|221:85|221:77|221:69|212:69|292:37|316:77|284:101|308:125|348:125,1,175.00000166893,4|2,1:2|2:0,3:0:0:0:
192,173,50255,6,2,B|183:142|161:148|138:154|146:185|154:215|177:209|200:203|192:173,1,137.500001311302,2|0,0:3|1:0,3:0:0:0:
383,0,50495,6,2,B|396:-8|404:5|412:19|399:27|385:35|377:21|369:8|383:0|248:22|252:93|303:101|276:181|189:176,1,318.750006079674,8|0,0:0|0:0,2:0:0:0:
193,176,50735,2,2,P|205:214|206:281,1,75.0000028610231,2|2,0:3|2:0,2:0:0:0:
345,124,50975,6,2,B|336:155|336:155|330:180|323:204|307:200|291:195|297:172|303:147|320:151|303:216|303:216|289:264|322:273|311:313|311:313|298:361|266:353|230:343|242:295|242:295|253:254|290:264,1,450.000017166138,0|0,1:0|1:0,1:0:0:0:
149,296,51455,2,0,P|272:296|368:374,1,250,12|2,0:0|0:3,0:0:0:0:
367,372,51815,1,2,0:0:0:0:
396,245,51935,6,2,B|421:222|460:232|483:262|448:321|419:332|455:281|424:261|392:254,1,175.00000166893,4|2,1:2|0:0,3:0:0:0:
245,375,52175,2,2,B|251:344|232:312|221:320|197:285|207:248,1,137.500001311302,2|0,0:3|1:0,3:0:0:0:
145,138,52415,6,2,B|98:155|103:140|87:135|72:131|67:147|63:162|79:166|94:170|98:155|153:170|214:186|206:217|198:215|190:246|239:291|298:254,1,318.750006079674,8|0,0:0|0:0,2:0:0:0:
282,262,52655,2,2,L|292:218,1,37.5000014305115,2|2,0:3|2:0,2:0:0:0:
329,139,52895,6,2,B|349:62|260:84|282:-28|370:-51|436:12|397:121|332:58|311:135,1,325.000009298325,0|2,1:0|0:3,1:0:0:0:
207,248,53255,5,0,1:0:0:0:
396,245,53375,2,0,L|389:217,1,25,12|2,0:0|0:3,0:0:0:0:
404,197,53735,1,2,0:0:0:0:
481,342,53855,6,2,B|493:288|361:254|347:306,1,175.00000166893,4|2,1:2|0:0,3:0:0:0:
289,224,54095,2,2,P|298:287|281:348,1,125,2|0,0:3|1:0,3:0:0:0:
132,194,54335,6,2,B|125:170|102:177|79:183|85:206|91:229|115:223|161:210|161:210|215:196|246:188|238:157|229:126|198:134|168:142|178:181,1,318.750006079674,8|0,0:0|0:0,2:0:0:0:
178,181,54575,2,2,P|185:217|209:250,1,75.0000028610231,2|2,0:3|0:0,2:0:0:0:
347,303,54815,6,2,B|266:326|261:306|290:297|320:289|326:309|332:329|302:337|263:347|263:347|233:239|113:227|113:227|114:269|83:291,1,450.000017166138,0|0,1:0|1:0,1:0:0:0:
66,366,55295,2,0,P|38:214|-12:108,1,250,12|2,0:0|0:3,0:0:0:0:
0,127,55655,1,2,0:0:0:0:
6,22,55775,6,2,B|16:-9|51:-38|75:-36|104:-1|69:27|42:14|28:58,1,175.00000166893,4|2,1:2|0:0,3:0:0:0:
99,87,56015,2,2,B|188:80|175:121|232:116,1,137.500001311302,2|0,0:3|1:0,3:0:0:0:
344,66,56255,6,2,B|330:90|354:104|378:118|392:94|405:70|382:56|358:42|344:66|344:66|311:48|311:48|325:23|301:9|277:-5|263:20|249:44|273:58|298:72|311:48,1,318.750006079674,8|0,0:0|0:0,2:0:0:0:
311,47,56495,6,2,P|306:92|321:141,1,87.500000834465,2|2,0:3|0:0,2:0:0:0:
485,350,56735,6,2,B|485:308|395:220|383:359|310:322|309:264|395:220|430:-118|287:192|340:273|310:322|229:317|287:192|163:215|139:260,1,525.00000500679,0|0,1:0|1:0,1:0:0:0:
223,361,57215,2,0,P|246:246|228:108,1,250,12|2,0:0|0:3,0:0:0:0:
230,115,57575,1,2,0:0:0:0:
65,131,57695,6,2,B|34:136|11:104|41:66|88:75|80:137|113:144|146:139,1,175.00000166893,4|2,1:2|0:0,3:0:0:0:
167,53,57935,2,2,B|130:47|98:71|114:115|62:131,1,137.500001311302,2|0,0:3|1:0,3:0:0:0:
89,230,58175,6,2,B|62:239|72:265|81:291|107:282|133:272|124:246|115:220|89:230|89:230|78:198|78:198|28:52,1,318.750006079674,8|0,0:0|0:0,2:0:0:0:
31,60,58415,2,2,L|16:15,1,37.5000014305115,2|2,0:3|0:0,2:0:0:0:
31,361,58655,6,2,B|80:346|72:315|114:303|114:303|175:286|171:270|148:277|125:283|129:299|134:314|157:308|180:301|180:301|257:279|257:279|302:266|307:281|291:286|273:291|269:276|264:260|281:256|297:251|302:266|314:263|314:263|422:232,1,525.00000500679,0|0,1:0|1:0,1:0:0:0:
501,313,59135,2,0,B|477:365|401:359|401:359|441:293|417:229,1,250,12|2,0:0|0:3,0:0:0:0:
418,232,59495,1,2,0:0:0:0:
323,348,59615,6,2,P|316:259|278:177,1,175.00000166893,4|2,1:2|0:0,3:0:0:0:
207,151,59855,6,2,P|201:168|200:187,1,37.5000014305115,2|0,0:3|0:0,3:0:0:0:
177,171,59975,2,2,P|184:187|197:201,1,37.5000014305115,2|0,0:3|0:0,3:0:0:0:
170,347,60095,6,2,B|186:347|202:347|202:367|202:387|186:387|170:387|170:367|170:347|170:291|202:291|202:303|251:302|258:255,1,212.500004053116,8|0,0:0|0:0,2:0:0:0:
281,181,60335,2,2,B|329:133|433:181|329:229|281:181,1,150.000005722046,2|2,0:3|0:0,2:0:0:0:
229,45,60575,6,2,B|189:17|125:17|106:62|106:62|179:86|186:66|156:56|126:46|119:66|112:86|142:96|172:106|172:106|224:125|267:175|211:207|258:255,1,487.500013947487,0|0,1:0|1:0,1:0:0:0:
314,198,61055,2,0,P|213:138|90:196,1,250,12|2,0:0|1:3,0:0:0:0:
98,184,61415,1,2,0:0:0:0:
60,262,61535,6,0,B|73:291|73:291|37:307|37:307|47:329|47:329|119:295|119:295|109:274,1,200,6|0,1:2|0:0,0:0:0:0:
32,58,61835,2,2,B|14:124|14:124|107:149|107:149|98:184,1,200,0|0,0:0|0:0,0:0:0:0:
227,326,62015,6,0,B|240:323|240:323|281:290,1,50,10|0,0:0|0:0,0:0:0:0:
279,305,62135,2,0,B|276:291|276:291|243:250,1,50,2|0,0:0|0:0,0:0:0:0:
257,254,62255,2,0,B|243:256|243:256|202:289,1,50,2|0,0:0|0:0,0:0:0:0:
206,275,62375,2,0,B|208:288|208:288|241:329,1,50,2|0,0:0|0:0,0:0:0:0:
320,384,62495,6,2,B|337:318|337:318|380:329|380:329|389:294|389:294|346:283|346:283|366:210,1,262.500010013581,0|0,1:0|0:0,0:0:0:0:
365,215,62975,2,2,B|389:221|389:221|395:197|395:197|347:184|347:184|340:208|340:208|365:215,1,150,8|0,0:0|0:0,0:0:0:0:
456,354,63215,2,0,B|472:330|472:330|467:297,1,50,4|0,0:0|0:0,0:0:0:0:
364,96,63455,6,2,B|354:106|354:106|280:120,1,75.0000028610231,0|0,1:0|0:0,0:0:0:0:
474,71,63695,2,2,B|485:53|485:53|411:39,1,87.500000834465,0|0,0:0|0:0,0:0:0:0:
209,8,63935,6,2,B|226:-13|226:-13|240:61,1,100,8|0,0:0|0:0,0:0:0:0:
294,117,64175,2,2,L|288:149,1,25,0|0,0:0|0:0,0:0:0:0:
255,252,64415,6,2,B|242:255|242:255|227:192|227:192|212:196|212:196|219:227|219:227|196:233,1,150.000005722046,0|0,1:0|0:0,0:0:0:0:
196,233,64775,5,0,0:0:0:0:
122,316,64895,6,2,B|106:319|106:319|69:261|69:261|78:186|78:186|109:179|109:179|147:245|147:245|137:312|137:312|122:316,1,350,8|0,0:0|0:0,0:0:0:0:
17,365,65375,6,0,L|21:336,1,30,2|0,1:2|0:0,0:0:0:0:
387,192,65855,6,0,B|389:203|389:203|366:208|366:208|363:196|363:196|191:233,1,220.000006713867,10|0,0:0|0:0,0:0:0:0:
253,307,66095,2,0,B|284:299|284:299|269:253|269:253|304:245,1,110.000003356934
468,213,66335,5,2,1:2:0:0:
364,294,66455,1,2,0:0:0:0:
410,116,66575,6,2,B|401:113|401:113|397:94|397:94|419:77|419:77|431:103|431:103|418:118|418:118|410:116|410:116,1,112.500004291535,0|0,0:0|0:0,0:0:0:0:
480,292,66815,6,0,B|504:298|504:298|508:283|508:283|376:247|376:247|364:294,1,225.000008583069,10|0,0:0|0:0,0:0:0:0:
364,293,67175,2,0,B|381:314|381:314|419:307,2,56.2500021457673,0|2|0,0:0|0:0|1:0,0:0:0:0:
340,83,67415,5,2,0:0:0:0:
297,246,67535,2,2,B|282:183|282:183|294:180|294:180|290:165|290:165|279:168|279:168|261:90,1,168.750006437302,0|0,0:0|0:0,0:0:0:0:
250,27,67775,6,0,B|216:28|216:28|247:12|247:12|281:13|281:13|250:27|250:27,1,137.500001311302,10|0,0:0|0:0,0:0:0:0:
410,116,68015,6,0,B|411:123|411:123|396:127|396:127|394:119|394:119|139:178|139:178|141:186|141:186|125:189|125:189|123:182,1,326.249991910458,2|0,0:0|0:0,0:0:0:0:
52,140,68255,2,2,B|62:80|62:80|57:84|57:84|133:138|133:138|132:131|132:131|121:184,1,217.499994606972,0|0,1:0|0:0,0:0:0:0:
69,243,68495,2,0,B|49:229|49:229|48:216,1,37.5000014305115,2|0,0:0|0:0,0:0:0:0:
437,275,68735,6,2,B|431:297|431:297|482:310|482:310|486:296|486:296|365:264|365:264|375:258|375:258|359:254|359:254|365:264|365:264|297:246,1,325.000009298325,8|0,0:0|0:0,0:0:0:0:
297,246,69215,6,0,B|300:277|300:277|261:282|261:282|264:306|264:306|343:294|343:294|340:271,1,200,6|0,1:2|0:0,0:0:0:0:
437,275,69515,2,2,B|422:195|422:195|363:179|363:179|370:120,1,200,0|0,0:0|0:0,0:0:0:0:
351,9,69695,6,0,B|345:5|345:5|348:0|348:0|351:-5|351:-5|357:-2|357:-2|362:1|362:1|359:6|359:6|356:12|356:12|351:9|351:9,1,50,10|0,0:0|0:0,0:0:0:0:
351,9,69815,2,0,B|354:3|354:3|359:6|359:6|365:9|365:9|362:15|362:15|358:20|358:20|353:17|353:17|347:14|347:14|351:9|351:9,1,50,2|0,0:0|0:0,0:0:0:0:
350,9,69935,2,0,B|355:12|355:12|352:17|352:17|349:23|349:23|343:20|343:20|338:16|338:16|341:11|341:11|344:5|344:5|350:9|350:9,1,50,2|0,0:0|0:0,0:0:0:0:
349,8,70055,2,0,B|345:13|345:13|340:10|340:10|334:7|334:7|337:1|337:1|341:-3|341:-3|346:0|346:0|352:2|352:2|349:8|349:8,1,50,2|0,0:0|0:0,0:0:0:0:
292,86,70175,6,2,B|367:104|367:104|364:112|364:112|413:70|413:70|402:113|402:113|468:130,1,262.500010013581,0|0,1:0|0:0,0:0:0:0:
468,130,70655,2,0,B|497:75|497:75|444:88,1,100,8|0,0:0|0:0,0:0:0:0:
289,163,70895,2,0,B|265:179|265:179|239:173,1,50,4|0,0:0|0:0,0:0:0:0:
56,83,71135,6,2,L|36:-20,1,75.0000028610231,0|0,1:0|0:0,0:0:0:0:
209,105,71375,2,2,L|124:122,1,87.500000834465,2|0,0:0|0:0,0:0:0:0:
96,282,71615,6,2,L|76:179,1,100,8|0,0:0|0:0,0:0:0:0:
243,173,71855,2,2,L|207:181,1,37.5,0|0,0:0|0:0,0:0:0:0:
380,104,72095,6,2,B|385:20|385:20|328:4|328:4|293:78,1,225.000008583069,0|0,1:0|0:0,0:0:0:0:
207,181,72575,6,2,B|178:204|178:204|123:166|123:166|127:114|127:114|155:90|155:90|207:95|207:95|234:156|234:156|207:181,1,350,8|0,0:0|0:0,0:0:0:0:
100,282,73055,6,0,L|95:251,1,30,2|0,1:2|0:0,0:0:0:0:
20,228,73535,6,0,B|18:239|18:239|41:244|41:244|44:232|44:232|216:269,1,220.000006713867,10|0,0:0|0:0,0:0:0:0:
89,366,73775,2,0,B|82:334|82:334|35:348|35:348|28:312,1,110.000003356934
292,286,74015,5,2,1:2:0:0:
167,352,74135,1,2,0:0:0:0:
207,181,74255,6,2,B|204:166|204:166|221:152|221:152|231:173|231:173|221:185,1,75.0000028610231,0|0,0:0|0:0,0:0:0:0:
405,325,74495,2,0,B|421:321|421:321|435:296|435:296|307:330|307:330|291:285,1,225.000008583069,10|0,0:0|0:0,0:0:0:0:
291,285,74855,6,0,B|302:273|302:273|337:292,2,56.2500021457673,0|2|0,0:0|0:2|1:0,0:0:0:0:
506,156,75095,1,2,0:0:0:0:
508,365,75215,2,2,B|491:303|491:303|501:299|501:299|496:284|496:284|485:288|485:288|466:224,1,168.750006437302,0|0,0:0|0:0,0:0:0:0:
448,103,75455,6,0,B|427:92|427:92|446:52|446:52|493:53|493:53|494:82|494:82,1,137.500001311302,10|0,0:0|0:0,0:0:0:0:
466,224,75695,6,0,B|467:231|467:231|452:235|452:235|450:227|450:227|195:286|195:286|197:294|197:294|181:297|181:297|179:290,1,326.249991910458,2|0,0:0|0:0,0:0:0:0:
178,288,75935,6,2,B|168:348|168:348|173:344|173:344|97:290|97:290|98:297|98:297|109:244,1,217.499994606972,0|0,1:0|0:0,0:0:0:0:
152,181,76175,2,0,B|173:192|173:192|178:204,1,37.5000014305115,2|0,0:0|0:0,0:0:0:0:
291,285,76415,6,2,B|272:353|272:353|375:381|375:381|412:243|412:243|309:216|309:216|291:285,1,487.500013947487,8|0,0:0|0:0,0:0:0:0:
90,384,76895,5,0,1:0:0:0:
28,246,77015,1,0,0:0:0:0:
152,181,77135,1,0,0:0:0:0:
160,105,77255,1,0,0:0:0:0:
114,24,77375,6,0,B|87:41|85:77|85:77|95:44|115:51|114:24,1,125,8|0,0:0|0:0,0:0:0:0:
233,132,77615,6,0,P|234:115|243:91,1,31.25
247,130,77735,2,0,P|248:113|238:83,1,43.7500004172325
308,49,77855,6,0,B|256:17|184:45|208:81|176:113|136:105,2,175.00000166893,0|0|0,1:0|0:0|0:0,0:0:0:0:
434,206,78215,5,0,0:0:0:0:
403,78,78335,2,0,B|413:34|359:-8|359:-8|382:9|390:44|382:44|384:68|396:82,1,200,8|0,0:0|0:0,0:0:0:0:
322,161,78575,6,0,B|374:186|486:162|382:54|506:41,1,225.000008583069
434,206,78815,6,0,B|395:232|412:281|457:297|363:391|333:380|321:248|366:264|410:237|394:189,1,300,0|0,1:0|0:0,0:0:0:0:
480,46,79295,2,0,B|486:14|527:7|527:7|503:20|503:37|486:56,1,125,8|0,0:0|0:0,0:0:0:0:
495,254,79535,6,0,B|542:178|467:102|425:142|402:76,1,225.000008583069
402,77,79775,6,0,B|458:65|482:125|440:153|418:81|346:69|306:101|314:133|294:177|238:177,1,300.000011444092,0|0,1:0|0:0,0:0:0:0:
240,176,80135,1,0,0:0:0:0:
90,140,80255,6,0,P|99:117|116:99,1,50,8|0,0:0|0:0,0:0:0:0:
189,78,80495,2,0,P|215:87|238:110,1,50
330,364,80735,6,0,B|310:301|251:329|157:372|43:132|258:-3|318:79|355:134|402:76,1,525.00000500679,0|0,1:0|0:0,0:0:0:0:
401,76,81215,6,0,P|401:153|354:253,1,175.00000166893,8|0,0:0|0:0,0:0:0:0:
362,241,81455,2,0,P|324:206|322:152,1,87.500000834465
289,54,81695,6,0,B|269:31|227:38|212:79|231:101,2,112.500004291535,0|0|0,1:0|0:0|0:0,0:0:0:0:
438,226,82055,1,0,0:0:0:0:
509,112,82175,6,0,B|455:91|345:125|458:223|336:247,1,225.000008583069,8|0,0:0|0:0,0:0:0:0:
334,315,82415,2,0,P|424:306|362:240,1,225.000008583069
317,172,82655,5,0,1:0:0:0:
254,308,82775,1,0,0:0:0:0:
232,237,82895,5,0,0:0:0:0:
179,348,83015,1,0,0:0:0:0:
209,165,83135,6,0,B|216:119|254:113|253:149|205:153,1,100,8|0,0:0|0:0,0:0:0:0:
112,238,83375,6,0,B|193:294|161:339|114:312|102:267|107:219|137:189,1,225.000008583069
138,189,83615,2,0,B|70:109|-38:141|-82:241|-50:257|58:317|54:269|-3:234|58:176,1,375,0|0,1:0|0:0,0:0:0:0:
0,0,84095,5,8,0:0:0:0:
204,153,84335,6,0,B|193:146|213:136|211:114|233:126|213:136|214:159|204:153,3,62.5
109,313,84575,5,0,1:0:0:0:
53,180,84695,1,0,0:0:0:0:
138,189,84815,1,0,0:0:0:0:
204,153,84935,1,0,0:0:0:0:
258,67,85055,6,0,B|283:47|282:11|282:11|275:45|254:40|258:67,1,125,8|0,0:0|0:0,0:0:0:0:
252,237,85295,6,0,P|256:221|256:206,1,31.25
271,243,85415,2,0,P|277:222|277:200,1,43.7500004172325
353,243,85535,6,0,P|283:272|214:341,2,175.00000166893,0|0|0,1:0|0:0|0:0,0:0:0:0:
352,320,85895,5,0,0:0:0:0:
432,229,86015,2,0,B|477:216|521:266|521:266|500:246|467:239|467:247|443:245|432:229,1,200,8|0,0:0|0:0,0:0:0:0:
396,383,86255,6,0,B|455:339|443:237|350:269|363:165|413:148,1,262.500002503395
406,150,86495,6,0,B|439:183|429:49|520:92|435:120|563:88|563:-7|467:-7|435:120|463:35|506:126|367:111|406:150,1,300,0|0,1:0|0:0,0:0:0:0:
352,320,86975,6,0,P|339:224|292:131,1,200,8|0,0:0|0:0,0:0:0:0:
242,70,87215,6,0,B|185:115|192:186|244:218|296:178|293:133,1,225.000008583069
406,150,87455,6,0,P|161:192|55:366,1,450.000017166138,0|0,1:0|0:0,0:0:0:0:
41,197,87935,6,0,P|39:166|20:146,1,50,8|0,0:0|0:0,0:0:0:0:
117,263,88175,2,0,P|131:240|159:218,1,50
314,240,88415,6,0,B|249:254|272:315|306:413|57:505|-57:279|29:227|87:195|33:143,1,525.00000500679,0|0,1:0|0:0,0:0:0:0:
34,143,88895,6,0,P|103:91|210:95,1,175.00000166893,8|0,0:0|0:0,0:0:0:0:
112,69,89135,2,0,P|72:50|51:14,1,87.500000834465
256,127,89375,6,0,B|309:113|304:92|300:72|268:84|253:40,2,112.500004291535,0|0|0,1:0|0:0|0:0,0:0:0:0:
148,224,89735,1,0,0:0:0:0:
201,6,89855,6,0,B|180:60|214:170|312:57|336:179,1,225.000008583069,8|0,0:0|0:0,0:0:0:0:
328,153,90095,2,0,P|418:144|466:15,1,200
342,251,90335,5,0,1:0:0:0:
202,293,90455,1,0,0:0:0:0:
269,206,90575,5,0,0:0:0:0:
307,329,90695,1,0,0:0:0:0:
97,359,90815,6,0,P|61:363|10:321,1,100,8|0,0:0|0:0,0:0:0:0:
269,206,91055,6,0,B|329:192|381:236|345:280|377:328|437:328,1,225.000008583069
432,327,91295,2,0,B|441:291|448:265|555:255|462:212|360:203|474:168|598:201|619:121|495:88|381:57|359:137|474:168|555:255|462:212|360:203|448:265|441:291|432:327,1,437.5,0|0,1:0|0:0,0:0:0:0:
491,384,91775,5,8,0:0:0:0:
369,182,92015,6,0,B|358:169|354:156|347:128|354:126|361:124|368:152|372:166|369:182,1,100
201,316,92255,38,0,B|181:271|115:266|129:302|23:290|-2:164|126:119|165:192|165:192|162:112|253:100|301:158|258:225,1,531.25001013279,4|0,1:2|0:0,0:0:0:0:
331,247,92615,6,0,P|308:271|260:281,1,75.0000028610231
79,384,92735,6,0,P|101:341|104:286,1,100,8|0,0:0|0:0,0:0:0:0:
44,97,92975,6,0,B|58:91|53:77|47:63|33:68|19:73|24:87|29:102|44:97,1,75.0000028610231
430,144,93215,6,0,B|439:117|448:89|476:97|503:106|494:134|485:161|458:152|430:143|430:143|385:129|394:101|402:74|376:66|348:57|339:83|331:110|358:119|385:129|368:183,1,375,0|0,1:0|0:0,0:0:0:0:
268,281,93695,6,0,B|292:304|288:342|288:342|360:238|490:253,1,300.000011444092,8|0,0:0|0:0,0:0:0:0:
490,253,94055,5,0,0:0:0:0:
370,179,94175,38,0,B|358:136|305:132|298:156|236:150|194:41|298:1|337:55|337:55|343:-9|454:-28|476:87|412:126|403:106|358:136|370:180,1,562.500021457673,0|0,1:0|0:0,0:0:0:0:
405,304,94535,6,0,B|396:256|428:232|452:228|460:184|448:156,2,162.500004649162,0|8|0,0:0|0:0|0:0,0:0:0:0:
331,341,94895,6,0,P|307:301|265:280,1,92.4999996471405,2|0,0:0|0:0,0:0:0:0:
2,233,95135,6,0,L|74:214,1,75,0|0,1:0|0:0,0:0:0:0:
159,307,95615,6,0,B|179:301|206:294|206:294|220:241|191:207|169:205|161:190|161:190|161:174|178:161|187:118|147:75|147:75|120:82|93:89|93:89|66:97|43:103|43:103|26:161|59:194|79:195|88:210|88:210|86:228|69:239|61:291|106:321|106:321|129:314|152:308,1,700,8|0,0:0|0:0,0:0:0:0:
331,247,96095,38,0,B|351:202|417:197|403:233|509:221|534:95|406:50|367:123|367:123|370:43|279:31|231:89|274:156,1,531.25001013279,4|0,1:2|0:0,0:0:0:0:
263,135,96455,6,0,P|270:167|307:199,1,75.0000028610231
371,320,96575,6,0,P|405:289|413:231,1,100,8|0,0:0|0:0,0:0:0:0:
501,241,96815,6,0,P|491:196|454:157,1,75.0000028610231
142,378,97055,6,0,B|111:327|84:341|57:356|41:330|26:304|54:288|79:273|95:299|111:327|156:300|156:300|183:284|210:269|195:242|179:214|152:230|125:246|140:275|160:309,1,412.500003933907,0|0,1:0|0:0,0:0:0:0:
289,370,97535,6,0,B|324:306|252:217|215:275|133:212|163:134,1,300.000011444092,8|0,0:0|0:0,0:0:0:0:
162,134,97895,5,0,0:0:0:0:
290,150,98015,38,0,B|310:121|345:118|345:142|407:139|453:31|350:-11|309:40|309:40|306:-23|195:-46|169:67|232:108|242:89|281:117|274:146,1,450.000017166138,0|0,1:0|0:0,0:0:0:0:
290,150,98375,2,0,P|370:172|427:226,2,162.500004649162,0|8|0,0:0|0:0|0:0,0:0:0:0:
98,73,98735,6,0,P|138:94|161:133,1,92.4999996471405,2|0,0:0|0:0,0:0:0:0:
283,368,98975,6,0,L|302:295,1,75,0|0,1:0|0:0,0:0:0:0:
365,54,99455,6,0,B|341:47|318:41|318:41|273:70|281:124|298:135|300:153|300:153|291:168|270:169|237:202|255:261|255:261|278:268|305:275|305:275|332:282|360:289|360:289|400:246|391:202|374:189|374:173|374:173|382:158|404:156|434:122|419:68|419:68|392:61|371:55,1,700,8|0,0:0|0:0,0:0:0:0:
220,262,99935,38,0,B|204:216|137:211|152:246|46:235|21:109|149:63|188:136|188:136|185:56|276:44|311:102|291:149,1,531.25001013279,4|0,1:2|0:0,0:0:0:0:
220,262,100295,6,0,P|200:290|157:305,1,81.2500023245812
53,59,100415,6,0,P|39:24|59:55,1,100,8|0,0:0|0:0,0:0:0:0:
290,149,100655,6,0,P|306:127|295:152,1,75.0000028610231
68,378,100895,6,0,B|37:327|10:341|-17:356|-33:330|-48:304|-20:288|5:273|21:299|37:327|82:300|82:300|109:284|136:269|121:242|105:214|78:230|51:246|66:275|86:309,1,412.500003933907,0|0,1:0|0:0,0:0:0:0:
141,377,101375,6,0,P|109:197|4:119,1,300.000011444092,8|0,0:0|0:0,0:0:0:0:
24,127,101735,5,0,0:0:0:0:
290,149,101855,38,0,B|310:120|345:117|345:141|407:138|453:30|350:-12|309:39|309:39|306:-24|195:-47|169:66|232:107|242:88|281:116|274:145,1,450.000017166138,0|0,1:0|0:0,0:0:0:0:
234,88,102215,2,0,B|331:114|303:178|343:198,2,162.500004649162,0|8|0,0:0|0:0|0:0,0:0:0:0:
129,18,102575,6,0,P|142:61|131:104,1,92.4999996471405
68,378,102815,6,0,L|86:306,1,75,0|0,1:0|0:0,0:0:0:0:
107,226,103295,6,0,B|169:136|267:154|305:271|222:350|107:333|107:270|107:226|89:181|-17:154|-142:270|-62:386|53:386|107:333|107:226,1,612.500005841255,8|0,0:0|0:0,0:0:0:0:
208,307,103775,38,0,B|211:257|271:230|270:269|366:221|346:94|211:96|199:178|199:178|174:101|85:121|59:192|123:240,1,531.25001013279,4|0,1:2|0:0,0:0:0:0:
282,326,104135,6,0,P|318:334|360:319,1,75.0000028610231
474,107,104255,6,0,P|481:58|450:20,1,100,8|0,0:0|0:0,0:0:0:0:
379,49,104495,6,0,P|371:97|402:135,1,75.0000028610231
492,299,104735,6,0,B|501:265|509:233|539:241|570:249|561:280|553:309|523:301|493:293|493:293|442:280|450:249|457:220|429:212|398:204|390:233|383:263|413:271|442:280|427:340,1,412.500003933907,0|0,1:0|0:0,0:0:0:0:
495,375,105215,6,0,P|379:281|236:240,1,300.000011444092,8|0,0:0|0:0,0:0:0:0:
236,240,105575,5,0,0:0:0:0:
75,184,105695,6,0,B|40:169|37:70|148:77|152:145|152:145|193:94|301:138|250:244|188:247|188:223|155:225|133:255,1,450.000017166138,0|0,1:0|0:0,0:0:0:0:
48,363,106055,2,0,P|110:317|198:307,2,162.500004649162,0|8|0,0:0|0:0|0:0,0:0:0:0:
311,213,106415,6,0,B|316:193|335:198|341:178|346:159|326:153|307:148|301:168|321:173|316:193,1,93.75,2|0,0:0|0:0,0:0:0:0:
362,276,106655,5,0,1:0:0:0:
376,323,106775,2,0,L|381:308,1,12.5,0|0,1:0|0:0,0:0:0:0:
436,260,107015,5,0,1:0:0:0:
256,384,107135,1,0,1:0:0:0:
368,67,107615,6,0,B|411:55|399:12|388:-31|344:-19|301:-7|313:35|324:78|368:67,1,225.000008583069,0|0,1:0|0:0,0:0:0:0:
512,192,108095,5,8,0:0:0:0:
368,73,108335,2,0,B|318:86|305:35|291:-14|342:-28|392:-41|406:8|419:59|369:72,1,262.500002503395,0|0,1:0|0:0,0:0:0:0:
168,115,108815,6,0,B|204:107|228:131|220:143|248:167|284:167,1,131.250001251698
364,198,109055,6,0,B|343:209|343:209|368:179|363:144,1,87.500000834465,8|0,0:0|0:0,0:0:0:0:
368,73,109295,6,0,P|323:70|276:110,1,87.500000834465
138,203,109535,6,0,P|77:137|149:198,1,300,0|0,1:0|0:0,0:0:0:0:
0,192,110015,5,8,0:0:0:0:
155,202,110255,2,0,P|99:104|141:209,1,337.500012874604,0|0,1:0|0:0,0:0:0:0:
142,315,110735,6,0,B|178:307|202:331|194:343|222:367|258:367,1,131.250001251698
256,366,110975,6,0,B|235:377|235:377|260:347|255:312,1,87.500000834465,8|0,0:0|0:0,0:0:0:0:
277,248,111215,6,0,P|234:246|199:271,1,87.500000834465
402,346,111455,6,0,P|429:253|398:344,1,300,0|0,1:0|0:0,0:0:0:0:
512,192,111935,5,8,0:0:0:0:
396,349,112175,2,0,P|446:252|400:351,1,337.500012874604,0|0,1:0|0:0,0:0:0:0:
298,355,112655,6,0,B|271:333|265:296|279:292|276:258|243:241,1,131.250001251698
181,182,112895,6,0,B|203:176|203:176|172:198|168:233,1,87.500000834465,8|0,0:0|0:0,0:0:0:0:
189,303,113135,6,0,P|226:281|244:242,1,87.500000834465
118,31,113375,6,0,P|159:150|140:24,1,375,0|0,1:0|0:0,0:0:0:0:
0,192,113855,5,8,0:0:0:0:
149,30,114095,2,0,P|162:144|124:35,1,337.500012874604,0|0,1:0|0:0,0:0:0:0:
294,0,114575,6,0,B|327:25|327:25|311:72|339:112,1,131.250001251698
396,183,114815,6,0,B|372:185|372:185|406:167|415:133,1,87.500000834465,8|0,0:0|0:0,0:0:0:0:
401,58,115055,6,0,P|361:74|338:110,1,87.500000834465
244,245,115295,6,0,B|201:229|217:187|232:145|274:160|316:176|301:218|286:260|244:245,1,225.000008583069,0|0,1:0|0:0,0:0:0:0:
256,384,115775,5,8,0:0:0:0:
245,251,116015,2,0,B|291:267|308:218|326:169|277:150|227:132|210:182|191:231|242:250,1,262.500002503395,0|0,1:0|0:0,0:0:0:0:
476,367,116495,6,0,B|450:333|450:333|403:349|363:321,1,131.250001251698
366,323,116735,6,0,P|382:276|434:265,1,87.500000834465,8|0,0:0|0:0,0:0:0:0:
489,244,116975,6,0,P|490:279|456:330,1,87.500000834465
414,130,117215,6,0,P|486:65|416:132,1,300,0|0,1:0|0:0,0:0:0:0:
256,0,117695,5,8,0:0:0:0:
413,138,117935,2,0,P|490:60|408:133,1,337.500012874604,0|0,1:0|0:0,0:0:0:0:
408,133,118415,6,0,B|374:158|374:158|390:205|362:245,1,131.250001251698
364,243,118655,6,0,P|317:227|306:175,1,87.500000834465,8|0,0:0|0:0,0:0:0:0:
284,119,118895,6,0,P|319:117|370:152,1,87.500000834465
97,242,119135,6,0,P|70:149|101:240,1,300,0|0,1:0|0:0,0:0:0:0:
256,384,119615,5,8,0:0:0:0:
103,245,119855,2,0,P|53:148|99:247,1,337.500012874604,0|0,1:0|0:0,0:0:0:0:
63,331,120335,6,0,B|101:347|101:347|134:309|183:313,1,131.250001251698
180,313,120575,6,0,P|194:269|181:228,1,87.500000834465,8|0,0:0|0:0,0:0:0:0:
245,382,120815,2,0,P|256:335|288:291,1,87.500000834465
407,227,121055,6,0,P|440:348|384:234,1,375,0|0,1:0|0:0,0:0:0:0:
256,0,121535,5,8,0:0:0:0:
379,245,121775,2,0,P|432:345|401:235,1,337.500012874604,0|0,1:0|0:0,0:0:0:0:
324,46,122255,6,0,P|309:89|323:131,1,87.500000834465
478,192,122495,6,0,L|515:189,1,34.9999989318848,8|0,0:0|0:0,0:0:0:0:
393,197,122975,6,0,B|415:111|432:49|226:11|407:18|407:18|435:37|469:34|469:34|637:121|432:49|415:111|393:197,1,612.500005841255,0|0,1:0|0:0,0:0:0:0:
442,259,123455,6,0,B|409:251|399:215|399:215|317:212|292:269|308:278|297:322|255:333,1,262.500002503395,8|0,0:0|0:0,0:0:0:0:
259,331,123695,2,0,B|248:273|79:191|126:417|226:263,1,262.500002503395
261,198,123935,2,0,B|256:160|281:127|281:127|245:151|206:142,1,150,0|0,1:0|0:0,0:0:0:0:
79,85,124175,6,0,B|78:54|15:55|14:118|78:154|126:130|86:93|134:74|210:118|230:210|178:238|110:230|126:170|150:179,1,300
35,263,124415,6,0,B|46:252|51:233|51:233|124:211|124:211|128:191|143:178,1,150.000005722046,8|0,0:0|0:0,0:0:0:0:
201,44,124655,6,0,B|246:55|218:-23|154:31|201:44,1,100
327,302,124895,6,0,B|337:334|323:368|323:368|303:286|225:265,1,218.75,0|0,1:0|0:0,0:0:0:0:
261,198,125375,6,0,B|312:188|312:188|309:173|309:173|334:156|334:156|339:184,1,125,8|0,0:0|0:0,0:0:0:0:
340,183,125615,2,0,B|335:156|335:156|365:163|365:163|367:179|367:179|419:170,1,125
401,93,125855,6,0,B|421:74|421:74|423:67|423:67|414:41|414:41|394:59|394:59|392:66|392:66|401:93,1,125
439,277,126095,2,0,B|504:258|496:187|496:187|487:228|451:239,1,187.5
453,238,126335,2,0,P|346:237|303:75,1,243.750006973744,8|0,0:0|0:0,0:0:0:0:
240,64,126575,6,0,B|212:83|180:93|180:93|204:108|209:134,1,112.500004291535
207,128,126815,6,0,B|187:149|194:172|194:172|198:188|202:203|194:205|186:207|182:192|178:176|178:176|171:145|141:110|91:123,1,225.000008583069,0|0,1:0|0:0,0:0:0:0:
25,82,127055,2,0,P|15:107|14:131,1,50
0,341,127295,6,0,B|68:319|31:281|88:247|154:243|145:296|214:275,1,243.750006973744,8|0,0:0|0:0,0:0:0:0:
213,275,127535,6,0,P|203:260|199:236,1,37.5000014305115
152,358,127655,6,0,P|135:354|115:340,1,37.5000014305115,0|0,0:0|1:0,0:0:0:0:
393,225,128015,6,0,B|391:207|419:211|423:235|395:259|356:261|355:231|299:251|291:291,1,168.750006437302
260,363,128255,2,0,P|338:215|323:143,1,243.750006973744,8|0,0:0|0:0,0:0:0:0:
390,322,128495,6,0,B|395:337|408:334|414:352,1,33.7499989700318
412,346,128735,6,0,B|437:352|437:352|482:319|482:319|498:259|498:259|453:192|453:192|379:227|379:227|363:287|363:287|386:339|386:339|412:346,1,450.000017166138,0|0,1:0|0:0,0:0:0:0:
260,363,129215,6,0,B|190:336|174:278|219:212|219:212|291:246|307:305|260:363,1,375.000014305115,8|0,0:0|0:0,0:0:0:0:
25,356,129695,6,0,L|2:360,1,18.7500007152558,0|0,1:0|0:0,0:0:0:0:
0,341,129815,2,0,L|23:345,1,18.7500007152558
101,378,129935,6,0,L|126:187,1,185.99999262085
56,126,130175,6,0,P|58:79|97:105,1,112.500004291535,8|0,0:0|0:0,0:0:0:0:
175,115,130415,2,0,P|217:111|200:142,1,89.9999972534181
125,193,130655,6,0,B|136:107|145:43|-64:31|116:15|116:15|150:0|180:24|180:24|358:90|145:43|136:107|124:196,1,612.500005841255,0|0,1:0|0:0,0:0:0:0:
39,271,131135,6,0,P|173:199|296:194,1,262.500002503395,8|0,0:0|0:0,0:0:0:0:
280,191,131375,2,0,B|278:209|242:200|237:155|307:132|289:211|372:172|371:83|371:83|358:112|330:123,1,262.500002503395
330,122,131615,2,0,L|343:296,1,150,0|0,1:0|0:0,0:0:0:0:
298,382,131855,6,0,B|341:393|374:329|367:302|349:305|334:264|370:200|441:186|482:242|467:303|421:291|424:263,1,300
490,363,132095,6,0,P|436:303|266:270,1,225.000008583069,8|0,0:0|0:0,0:0:0:0:
301,265,132335,2,0,B|273:280|267:314|267:314|298:273|343:271,1,150.000005722046
474,104,132575,6,0,B|540:72|523:-81|440:45|474:104,1,218.75,0|0,1:0|0:0,0:0:0:0:
503,179,133055,6,0,B|494:151|494:151|429:131|429:131|403:148,1,125,8|0,0:0|0:0,0:0:0:0:
406,146,133295,2,0,B|397:173|397:173|332:193|332:193|306:176,1,125
338,48,133535,6,0,B|326:31|326:31|332:3|332:3|360:9|360:9|354:36|354:36|338:48,1,125
143,260,133775,6,0,B|152:192|223:189|223:189|184:205|178:242,1,187.5
270,354,134015,2,0,B|217:365|172:323|191:291|122:236|52:279,1,243.750006973744,8|0,0:0|0:0,0:0:0:0:
259,268,134255,6,0,P|297:237|306:169,1,112.500004291535
406,146,134495,6,0,B|452:133|452:133|468:129|483:125|485:133|487:141|472:145|456:149|456:149|425:156|391:186|401:240,1,225.000008583069,0|0,1:0|0:0,0:0:0:0:
480,281,134735,2,0,P|490:256|491:232,1,50
417,14,134975,6,0,B|351:29|332:94|332:94|279:54|218:77,1,243.750006973744,8|0,0:0|0:0,0:0:0:0:
218,76,135215,6,0,P|208:61|204:37,1,37.5000014305115
105,45,135335,2,0,P|108:27|122:7,1,37.5000014305115,0|0,0:0|1:0,0:0:0:0:
119,11,135695,6,0,B|112:-5|140:-9|150:12|129:43|92:55|83:26|34:60|37:101,1,168.750006437302
1,171,135935,6,0,P|120:165|217:235,1,239.999992675781,8|0,0:0|0:0,0:0:0:0:
66,255,136175,6,0,P|46:250|32:239,1,33.7499989700318
216,233,136415,6,0,B|228:221|228:221|284:214|284:214|266:144|266:144|188:132|188:132|127:181|127:181|145:251|145:251|197:229|197:229|216:233,1,450.000017166138,0|0,1:0|0:0,0:0:0:0:
412,282,136895,6,0,B|426:285|527:312|557:201|470:62|331:136|300:252|397:278|412:282,1,375,8|0,0:0|0:0,0:0:0:0:
488,374,137375,6,0,L|497:347,1,18.7500007152558,0|0,1:0|0:0,0:0:0:0:
507,381,137495,2,0,L|516:354,1,18.7500007152558
405,376,137615,6,0,B|392:347|392:347|414:275,1,100
381,103,137855,6,0,P|379:150|340:124,1,112.500004291535,8|0,0:0|0:0,0:0:0:0:
271,90,138095,2,0,P|230:77|258:55,1,89.9999972534181
187,0,138335,6,2,P|131:51|122:130,1,135.000000514984,0|0,1:0|0:0,3:0:0:0:
106,276,138575,5,2,0:2:0:0:
40,112,138695,1,2,0:2:0:0:
29,244,138815,6,2,B|54:226|55:189|55:189|175:141|175:141|134:164|135:205,1,269.999991760254,8|0,0:0|0:0,0:0:0:0:
208,231,139055,6,2,L|199:276,1,44.999998626709,2|0,0:0|0:0,2:0:0:0:
199,275,139175,2,2,L|190:320,1,44.999998626709,2|0,0:0|0:0,2:0:0:0:
190,319,139295,6,2,B|193:329|193:329|326:277,1,150,0|0,1:0|0:0,3:0:0:0:
368,174,139535,6,2,B|368:155|328:169|340:211,1,59.9999981689454,2|0,0:0|0:0,3:0:0:0:
377,378,139655,2,2,P|404:343|397:300,1,89.9999972534181,2|0,0:0|0:0,3:0:0:0:
307,68,139775,6,2,B|275:62|275:62|256:75|229:72|229:72|391:102|430:178|389:203|444:237,1,359.999989013672,8|0,0:0|0:0,0:0:0:0:
438,233,140015,2,2,B|434:124|508:26|508:26|465:82|391:89,1,359.999989013672,0|0,0:0|0:0,0:0:0:0:
208,231,140255,6,2,B|175:240|148:213|159:201|128:173|88:184,1,135.000000514984,0|0,1:0|0:0,3:0:0:0:
10,158,140495,5,2,0:2:0:0:
130,95,140615,1,2,0:2:0:0:
50,70,140735,6,2,B|53:98|36:118|36:118|71:178|71:178|138:117|206:151,1,269.999991760254,8|0,0:0|0:0,0:0:0:0:
391,88,140975,6,2,P|414:55|406:-14,1,80,2|0,0:0|0:0,2:0:0:0:
419,16,141095,2,2,P|395:48|404:118,1,80,2|0,0:0|0:0,2:0:0:0:
415,177,141215,6,2,P|390:122|314:138,1,150,0|0,1:0|0:0,3:0:0:0:
491,126,141455,6,2,P|428:221|313:215,1,240,0|0,0:0|0:0,0:0:0:0:
187,303,141695,6,2,B|232:344|218:412|158:284|322:445|272:397|222:348|277:328|174:365|162:261|218:221,1,269.999991760254,8|0,0:0|0:0,0:0:0:0:
313,215,141935,6,2,B|323:226|323:226|307:250,1,29.9999990844727,0|0,0:0|0:0,3:0:0:0:
452,353,142175,6,2,B|451:366|457:384|457:384|424:343|369:333,1,135.000000514984,0|0,1:0|0:0,3:0:0:0:
187,303,142415,5,2,0:2:0:0:
192,148,142535,1,2,0:2:0:0:
134,209,142655,6,2,B|114:227|116:257|116:257|155:174|242:187|242:187|213:199|205:234,1,268.500003687286,8|0,0:0|0:0,0:0:0:0:
39,271,142895,6,2,L|30:226,1,44.999998626709,2|0,0:0|0:0,2:0:0:0:
30,226,143015,2,2,L|21:181,1,44.999998626709,2|0,0:0|0:0,2:0:0:0:
21,181,143135,6,2,B|18:164|18:164|58:114|58:114|61:135|61:135|41:149|30:173,1,150,0|0,1:0|0:0,3:0:0:0:
273,348,143375,6,2,B|234:342|242:310|186:302,1,100,2|0,0:0|0:0,3:0:0:0:
113,333,143495,2,2,P|84:371|36:374,1,100,2|0,0:0|0:0,3:0:0:0:
133,208,143615,6,2,L|355:171,1,225.000008583069,8|0,0:0|0:0,0:0:0:0:
471,122,143855,6,2,B|462:131|466:142|455:156,1,33.7499989700318,0|0,0:0|0:0,2:0:0:0:
401,292,144095,6,2,B|393:268|370:255|370:255|354:167,1,135.000000514984,0|0,1:0|0:0,3:0:0:0:
463,234,144335,5,2,0:0:0:0:
320,330,144455,1,2,0:0:0:0:
330,28,144575,6,2,B|337:51|324:75|324:75|278:91|263:133|263:133|270:89|243:53|243:53|241:28|261:9,1,269.999991760254,8|0,0:0|0:0,0:0:0:0:
167,113,144815,6,2,B|120:121|120:121|103:100,1,59.9999981689454,2|0,0:0|0:0,3:0:0:0:
112,111,144935,2,2,B|135:70|135:70|162:70,1,59.9999981689454,2|0,0:0|0:0,3:0:0:0:
354,170,145055,6,2,B|370:190|370:190|364:214|364:214|336:224,1,69.9999978637696,2|0,1:2|0:0,3:0:0:0:
345,220,145175,2,2,B|339:245|339:245|317:255|317:255|292:240,1,69.9999978637696,2|0,0:0|0:0,3:0:0:0:
319,341,145295,6,2,B|387:308|387:308|393:226|393:226|506:174,1,269.999991760254,0|0,0:0|0:0,0:0:0:0:
488,339,145535,2,2,L|194:269,1,300,8|0,0:0|0:0,0:0:0:0:
120,295,145775,5,2,0:0:0:0:
120,295,146015,6,2,P|165:262|191:189,1,135.000000514984,0|0,1:0|0:0,3:0:0:0:
167,113,146255,5,2,0:0:0:0:
189,349,146375,1,2,0:0:0:0:
308,138,146495,6,2,B|199:98|119:173|119:173|120:211|87:230,1,269.999991760254,8|0,0:0|0:0,0:0:0:0:
45,170,146735,6,2,L|36:125,1,44.999998626709,2|0,0:0|0:0,2:0:0:0:
36,126,146855,2,2,L|27:81,1,44.999998626709,2|0,0:0|0:0,2:0:0:0:
27,81,146975,6,2,B|22:59|22:59|99:43|129:108,1,150.000005722046,0|0,1:0|0:0,3:0:0:0:
334,247,147215,6,2,P|360:263|390:264,1,59.9999981689454,2|0,0:0|0:0,3:0:0:0:
381,117,147335,2,2,L|466:90,1,89.9999972534181,2|0,0:0|0:0,3:0:0:0:
477,352,147455,6,2,B|367:243|217:275|217:275|196:246,1,318.750006079674,8|0,0:0|0:0,0:0:0:0:
307,138,147695,6,2,B|322:112|322:112|353:101|370:68|370:68|401:36|401:36|332:170|332:170|285:173|265:213,1,375,0|0,0:0|0:0,0:0:0:0:
320,384,147935,6,2,B|357:368|363:322|345:320|353:274|392:262,1,147.500004782677,0|0,1:0|0:0,3:0:0:0:
463,243,148175,5,2,0:0:0:0:
251,348,148295,1,2,0:0:0:0:
212,145,148415,6,2,B|206:113|206:113|270:66|270:66|292:168|292:168|266:181|265:215,1,269.999991760254,8|0,0:0|0:0,0:0:0:0:
55,330,148655,6,2,P|29:299|31:229,1,80,2|0,0:0|0:0,2:0:0:0:
22,260,148775,2,2,P|48:289|45:360,1,80,2|0,0:0|0:0,2:0:0:0:
136,384,148895,6,2,P|68:355|0:381,1,150.000005722046,0|0,1:0|0:0,3:0:0:0:
265,211,149135,6,2,P|150:272|22:260,1,262.500002503395,0|0,0:0|0:0,0:0:0:0:
0,116,149375,6,2,B|20:73|51:69|69:102|96:83|163:37|112:-65|32:-6|58:64|77:96,1,269.999991760254,8|0,0:0|0:0,0:0:0:0:
103,196,149615,6,2,L|113:162,1,29.9999990844727,0|0,0:0|0:0,3:0:0:0:
188,74,149855,6,2,B|168:76|145:67|145:67|203:95|211:147,1,150.000005722046,0|0,1:0|0:0,3:0:0:0:
251,348,150095,5,2,0:0:0:0:
463,243,150215,1,2,0:0:0:0:
265,211,150335,6,2,B|245:221|245:221|237:247|209:262|209:262|364:186|364:186|345:206|349:237,1,306.000001867676,8|0,0:0|0:0,0:0:0:0:
403,296,150575,6,2,L|389:339,1,44.999998626709,2|0,0:0|0:0,2:0:0:0:
390,340,150694,2,2,L|376:383,1,44.999998626709,2|0,0:0|0:0,2:0:0:0:
377,383,150815,2,2,P|301:339|296:259,1,150.000005722046,0|0,1:0|0:0,3:0:0:0:
316,127,151055,6,2,B|309:173|273:168|263:212,1,100,0|0,0:0|0:0,3:0:0:0:
209,262,151175,2,2,P|178:298|128:306,1,100,0|0,0:0|0:0,3:0:0:0:
92,156,151295,6,2,L|315:126,1,225.000008583069,8|0,0:0|0:0,0:0:0:0:
379,76,151535,6,2,B|388:85|384:96|395:110,1,33.7499989700318,0|0,0:0|0:0,2:0:0:0:
300,0,151775,6,2,B|286:16|259:26|259:26|236:112,1,135.000000514984,0|0,1:0|0:0,3:0:0:0:
138,229,152015,5,2,0:0:0:0:
403,296,152135,1,2,0:0:0:0:
92,156,152255,6,2,B|86:140|74:128|74:128|103:79|86:30|86:30|103:79|157:99|157:99|154:117|160:132,1,269.999991760254,8|0,0:0|0:0,0:0:0:0:
201,296,152495,6,2,B|209:323|209:323|193:349,1,59.9999981689454,2|0,0:0|0:0,3:0:0:0:
192,349,152615,2,2,B|164:342|164:342|148:315,1,59.9999981689454,2|0,0:0|0:0,3:0:0:0:
263,209,152735,6,2,B|266:197|266:197|312:209|312:209|309:221,1,69.9999978637696,2|0,1:2|0:0,3:0:0:0:
309,219,152855,2,2,B|320:222|320:222|308:268|308:268|296:265,1,69.9999978637696,2|0,0:0|0:0,3:0:0:0:
341,354,152975,6,2,B|267:334|267:334|246:255|246:255|125:225,1,269.999991760254,0|0,0:0|0:0,0:0:0:0:
6,335,153215,2,2,L|300:265,1,300,8|0,0:0|0:0,0:0:0:0:
403,296,153455,6,2,L|410:269,1,25,2|0,0:0|0:0,0:0:0:0:
430,192,153575,6,2,B|441:153|479:139|479:139|467:177|430:192,1,150,2|0,0:0|0:0,0:0:0:0:
