osu file format v14

[General]
AudioFilename: enjel.mp3
AudioLeadIn: 0
PreviewTime: 54
Countdown: 0
SampleSet: Normal
StackLeniency: 0.7
Mode: 1
LetterboxInBreaks: 0
WidescreenStoryboard: 0

[Editor]
DistanceSpacing: 1.3
BeatDivisor: 4
GridSize: 8
TimelineZoom: 1.2

[Metadata]
Title:Midnight Striken Clock ~ Glass Slipper
TitleUnicode:Midnight Striken Clock ~ Glass Slipper
Artist:Pocket Mirror Sound Team
ArtistUnicode:Pocket Mirror Sound Team
Creator:Rhytoly
Version:Muzukashii
Source:Pocket Mirror
Tags:Pocket Music OST Soundtrack Astralshift RPG maker horror game track 38 piano violin staircase cut ver.
BeatmapID:1933696
BeatmapSetID:925760

[Difficulty]
HPDrainRate:6
CircleSize:5
OverallDifficulty:5
ApproachRate:10
SliderMultiplier:1.4
SliderTickRate:1

[Events]
//Background and Video events
0,0,"3.jpg",0,0
//Break Periods
//Storyboard Layer 0 (Background)
//Storyboard Layer 1 (Fail)
//Storyboard Layer 2 (Pass)
//Storyboard Layer 3 (Foreground)
//Storyboard Sound Samples

[TimingPoints]
-1004,352.941176470588,4,1,0,60,1,0
48407,-100,4,1,0,60,0,1
62525,-100,4,1,0,60,0,0
110525,-100,4,1,0,60,0,1
124643,-100,4,1,0,60,0,0

[HitObjects]
226,80,54,5,8,0:0:0:0:
296,163,407,1,4,0:0:0:0:
166,89,760,1,8,0:0:0:0:
342,209,1113,1,0,0:0:0:0:
342,209,1290,1,0,0:0:0:0:
342,209,1466,1,8,0:0:0:0:
144,102,1819,1,0,0:0:0:0:
160,81,1995,1,0,0:0:0:0:
160,81,2172,1,8,0:0:0:0:
160,81,2348,1,0,0:0:0:0:
160,81,2437,1,0,0:0:0:0:
160,81,2525,1,0,0:0:0:0:
160,81,2701,1,0,0:0:0:0:
160,81,2878,1,8,0:0:0:0:
134,51,3231,1,8,0:0:0:0:
225,121,3584,1,0,0:0:0:0:
302,117,3937,1,0,0:0:0:0:
302,117,4113,1,0,0:0:0:0:
302,117,4290,1,8,0:0:0:0:
302,117,4643,1,0,0:0:0:0:
302,117,4819,1,0,0:0:0:0:
302,117,4995,1,8,0:0:0:0:
302,117,5701,1,0,0:0:0:0:
302,117,6054,1,4,0:0:0:0:
166,89,6407,1,8,0:0:0:0:
342,209,6760,1,0,0:0:0:0:
342,209,6937,1,0,0:0:0:0:
342,209,7113,1,8,0:0:0:0:
144,102,7466,1,0,0:0:0:0:
160,81,7642,1,0,0:0:0:0:
160,81,7819,1,8,0:0:0:0:
160,81,7995,1,0,0:0:0:0:
160,81,8084,1,0,0:0:0:0:
160,81,8172,1,0,0:0:0:0:
160,81,8348,1,0,0:0:0:0:
160,81,8525,1,8,0:0:0:0:
134,51,8878,1,8,0:0:0:0:
150,78,9054,1,0,0:0:0:0:
150,78,9143,1,0,0:0:0:0:
225,121,9231,1,0,0:0:0:0:
150,78,9407,1,0,0:0:0:0:
302,117,9584,1,8,0:0:0:0:
173,146,9937,1,0,0:0:0:0:
219,98,10113,1,0,0:0:0:0:
302,117,10290,1,8,0:0:0:0:
302,117,10466,1,8,0:0:0:0:
173,101,10554,1,8,0:0:0:0:
216,12,10643,1,8,0:0:0:0:
302,117,10819,1,0,0:0:0:0:
302,117,10995,1,8,0:0:0:0:
302,117,11701,1,4,0:0:0:0:
363,159,12054,1,8,0:0:0:0:
412,179,12407,1,0,0:0:0:0:
412,179,12584,1,0,0:0:0:0:
412,179,12760,1,8,0:0:0:0:
412,179,13113,1,8,0:0:0:0:
412,179,13290,1,0,0:0:0:0:
412,179,13378,1,0,0:0:0:0:
412,179,13466,1,8,0:0:0:0:
412,179,13643,1,0,0:0:0:0:
412,179,13819,1,8,0:0:0:0:
148,125,14172,1,8,0:0:0:0:
215,113,14348,1,0,0:0:0:0:
215,113,14525,1,8,0:0:0:0:
146,102,14613,1,8,0:0:0:0:
146,102,14701,1,8,0:0:0:0:
146,102,14878,1,0,0:0:0:0:
146,102,15054,1,8,0:0:0:0:
146,102,15231,1,0,0:0:0:0:
146,102,15584,1,8,0:0:0:0:
146,102,15760,1,8,0:0:0:0:
146,102,15937,1,0,0:0:0:0:
188,111,16643,1,8,0:0:0:0:
386,232,16819,1,0,0:0:0:0:
386,232,16907,1,0,0:0:0:0:
386,232,16995,1,0,0:0:0:0:
124,120,17172,1,0,0:0:0:0:
181,85,17348,1,8,0:0:0:0:
180,91,17701,1,0,0:0:0:0:
201,83,17878,1,0,0:0:0:0:
201,83,18054,1,8,0:0:0:0:
201,83,18231,1,0,0:0:0:0:
201,83,18319,1,0,0:0:0:0:
201,83,18407,1,8,0:0:0:0:
201,83,18584,1,8,0:0:0:0:
201,83,18760,1,0,0:0:0:0:
176,105,19113,1,0,0:0:0:0:
279,122,19290,1,0,0:0:0:0:
234,99,19466,1,8,0:0:0:0:
234,99,19819,1,0,0:0:0:0:
114,91,20172,1,4,0:0:0:0:
428,219,20525,1,8,0:0:0:0:
189,80,20878,1,0,0:0:0:0:
428,219,21054,1,0,0:0:0:0:
428,219,21231,1,8,0:0:0:0:
428,219,21584,1,0,0:0:0:0:
225,129,21760,1,0,0:0:0:0:
275,114,21937,1,8,0:0:0:0:
428,219,22025,1,8,0:0:0:0:
428,219,22112,1,8,0:0:0:0:
275,114,22290,1,8,0:0:0:0:
275,114,22643,1,8,0:0:0:0:
257,87,22995,1,8,0:0:0:0:
257,87,23172,1,0,0:0:0:0:
257,87,23260,1,0,0:0:0:0:
257,87,23348,1,0,0:0:0:0:
257,87,23525,1,0,0:0:0:0:
257,87,23701,1,8,0:0:0:0:
176,55,24054,1,8,0:0:0:0:
176,55,24231,1,8,0:0:0:0:
176,55,24407,1,0,0:0:0:0:
143,73,25113,1,8,0:0:0:0:
143,73,25290,1,0,0:0:0:0:
143,73,25378,1,0,0:0:0:0:
143,73,25466,1,0,0:0:0:0:
143,73,25643,1,0,0:0:0:0:
143,73,25819,1,8,0:0:0:0:
152,110,26172,1,0,0:0:0:0:
152,110,26348,1,8,0:0:0:0:
152,110,26525,1,0,0:0:0:0:
152,110,26701,1,0,0:0:0:0:
152,110,26790,1,0,0:0:0:0:
152,110,26878,1,8,0:0:0:0:
152,110,27054,1,8,0:0:0:0:
152,110,27231,1,0,0:0:0:0:
216,95,27584,1,0,0:0:0:0:
216,95,27760,1,0,0:0:0:0:
216,95,27937,1,8,0:0:0:0:
216,95,28290,1,0,0:0:0:0:
216,95,28643,1,4,0:0:0:0:
176,138,28995,1,8,0:0:0:0:
207,135,29348,1,0,0:0:0:0:
391,177,29525,1,0,0:0:0:0:
391,177,29701,1,8,0:0:0:0:
391,177,29878,1,0,0:0:0:0:
391,177,29966,1,0,0:0:0:0:
391,177,30054,1,8,0:0:0:0:
391,177,30231,1,8,0:0:0:0:
391,177,30407,1,0,0:0:0:0:
105,123,30760,1,8,0:0:0:0:
166,102,30937,1,8,0:0:0:0:
166,102,31113,1,0,0:0:0:0:
371,146,31290,1,0,0:0:0:0:
166,102,31466,1,8,0:0:0:0:
126,85,32172,1,0,0:0:0:0:
126,85,32348,1,0,0:0:0:0:
126,85,32525,1,8,0:0:0:0:
126,85,32701,1,0,0:0:0:0:
126,85,32790,1,0,0:0:0:0:
126,85,32878,1,0,0:0:0:0:
126,85,33054,1,0,0:0:0:0:
126,85,33231,1,8,0:0:0:0:
126,85,33584,1,0,0:0:0:0:
381,194,33760,1,0,0:0:0:0:
197,55,33937,1,8,0:0:0:0:
197,55,34290,1,0,0:0:0:0:
395,203,34643,1,8,0:0:0:0:
395,203,34995,1,0,0:0:0:0:
395,203,35172,1,0,0:0:0:0:
395,203,35348,1,8,0:0:0:0:
421,260,35525,1,0,0:0:0:0:
217,91,35613,1,0,0:0:0:0:
333,164,35701,1,8,0:0:0:0:
217,91,35878,1,8,0:0:0:0:
380,172,36054,1,0,0:0:0:0:
380,172,36407,1,0,0:0:0:0:
380,172,36584,1,8,0:0:0:0:
186,92,36760,1,8,0:0:0:0:
186,92,36937,1,0,0:0:0:0:
380,172,37113,1,8,0:0:0:0:
305,175,37819,1,0,0:0:0:0:
305,175,37995,1,8,0:0:0:0:
177,125,38084,1,8,0:0:0:0:
305,175,38172,1,8,0:0:0:0:
305,175,38348,1,0,0:0:0:0:
305,175,38525,1,8,0:0:0:0:
353,174,38878,1,0,0:0:0:0:
353,174,39054,1,8,0:0:0:0:
353,174,39231,1,0,0:0:0:0:
331,182,39937,1,8,0:0:0:0:
331,182,40113,1,0,0:0:0:0:
331,182,40201,1,0,0:0:0:0:
331,182,40290,1,0,0:0:0:0:
331,182,40466,1,0,0:0:0:0:
331,182,40643,1,8,0:0:0:0:
331,182,40995,1,0,0:0:0:0:
331,182,41172,1,8,0:0:0:0:
331,182,41348,1,8,0:0:0:0:
331,182,41525,1,0,0:0:0:0:
331,182,41613,1,0,0:0:0:0:
331,182,41701,1,0,0:0:0:0:
331,182,41878,1,0,0:0:0:0:
331,182,42054,1,8,0:0:0:0:
182,105,42407,1,0,0:0:0:0:
185,95,42584,1,0,0:0:0:0:
185,94,42760,1,8,0:0:0:0:
186,92,42937,1,8,0:0:0:0:
186,92,43025,1,8,0:0:0:0:
186,92,43113,1,8,0:0:0:0:
186,92,43290,1,0,0:0:0:0:
185,95,43466,1,8,0:0:0:0:
150,95,43819,1,0,0:0:0:0:
150,95,43995,1,8,0:0:0:0:
150,95,44172,1,8,0:0:0:0:
150,95,44348,1,0,0:0:0:0:
150,95,44437,1,0,0:0:0:0:
150,95,44525,1,0,0:0:0:0:
150,95,44701,1,0,0:0:0:0:
150,95,44878,1,8,0:0:0:0:
162,92,45231,1,0,0:0:0:0:
177,86,45407,1,0,0:0:0:0:
178,84,45584,1,8,0:0:0:0:
178,84,45760,1,0,0:0:0:0:
178,84,45848,1,0,0:0:0:0:
178,84,45937,1,0,0:0:0:0:
178,84,46113,1,0,0:0:0:0:
177,86,46290,1,8,0:0:0:0:
202,37,46643,1,0,0:0:0:0:
202,37,46819,1,0,0:0:0:0:
202,37,46995,1,8,0:0:0:0:
202,37,47172,1,8,0:0:0:0:
202,37,47260,1,8,0:0:0:0:
202,37,47348,1,8,0:0:0:0:
202,37,47525,1,0,0:0:0:0:
202,37,47701,1,8,0:0:0:0:
337,217,48407,1,4,0:0:0:0:
337,217,48760,1,0,0:0:0:0:
337,217,48937,1,0,0:0:0:0:
337,217,49113,1,8,0:0:0:0:
409,214,49466,1,8,0:0:0:0:
409,214,49643,1,8,0:0:0:0:
400,193,49731,1,8,0:0:0:0:
400,193,49819,1,8,0:0:0:0:
400,193,49995,1,0,0:0:0:0:
400,193,50172,1,8,0:0:0:0:
400,193,50525,1,8,0:0:0:0:
135,159,50701,1,0,0:0:0:0:
189,144,50878,1,8,0:0:0:0:
214,113,51054,1,0,0:0:0:0:
253,147,51143,1,0,0:0:0:0:
214,113,51231,1,8,0:0:0:0:
160,116,51584,1,0,0:0:0:0:
160,116,51760,1,8,0:0:0:0:
160,116,51937,1,0,0:0:0:0:
68,72,52290,1,0,0:0:0:0:
82,66,52466,1,0,0:0:0:0:
82,62,52643,1,8,0:0:0:0:
116,52,53348,1,8,0:0:0:0:
34,104,53525,1,0,0:0:0:0:
116,52,53701,1,8,0:0:0:0:
131,63,53790,1,8,0:0:0:0:
116,52,53878,1,8,0:0:0:0:
116,52,54054,1,0,0:0:0:0:
113,118,54407,1,0,0:0:0:0:
157,111,54584,1,8,0:0:0:0:
157,111,54760,1,0,0:0:0:0:
456,333,54937,1,0,0:0:0:0:
157,111,55025,1,0,0:0:0:0:
157,111,55113,1,8,0:0:0:0:
157,111,55290,1,8,0:0:0:0:
157,111,55466,1,0,0:0:0:0:
203,127,55819,1,0,0:0:0:0:
206,107,55995,1,8,0:0:0:0:
209,99,56172,1,8,0:0:0:0:
209,99,56348,1,0,0:0:0:0:
209,98,56525,1,8,0:0:0:0:
209,98,56613,1,8,0:0:0:0:
209,98,56701,1,8,0:0:0:0:
209,98,56878,1,0,0:0:0:0:
197,120,57231,1,8,0:0:0:0:
197,120,57407,1,0,0:0:0:0:
197,120,57584,1,0,0:0:0:0:
197,120,57760,1,8,0:0:0:0:
197,120,57848,1,8,0:0:0:0:
197,120,57937,1,0,0:0:0:0:
197,120,58113,1,0,0:0:0:0:
197,120,58290,1,8,0:0:0:0:
221,108,58643,1,8,0:0:0:0:
230,90,58819,1,8,0:0:0:0:
229,89,58995,1,0,0:0:0:0:
229,89,59172,1,0,0:0:0:0:
229,89,59348,1,8,0:0:0:0:
229,89,59437,1,8,0:0:0:0:
229,89,59525,1,8,0:0:0:0:
230,90,59701,1,0,0:0:0:0:
153,119,60054,1,0,0:0:0:0:
173,116,60231,1,0,0:0:0:0:
173,116,60407,1,8,0:0:0:0:
368,165,60584,1,0,0:0:0:0:
368,165,60672,1,0,0:0:0:0:
368,165,60760,1,0,0:0:0:0:
368,165,60937,1,0,0:0:0:0:
304,147,61113,1,8,0:0:0:0:
270,74,61466,1,0,0:0:0:0:
213,113,61643,1,0,0:0:0:0:
285,72,61819,1,8,0:0:0:0:
285,72,62172,1,8,0:0:0:0:
273,129,62525,1,4,0:0:0:0:
166,89,62878,1,8,0:0:0:0:
342,209,63231,1,0,0:0:0:0:
342,209,63408,1,0,0:0:0:0:
342,209,63584,1,8,0:0:0:0:
144,102,63937,1,0,0:0:0:0:
160,81,64113,1,8,0:0:0:0:
160,81,64290,1,8,0:0:0:0:
160,81,64466,1,0,0:0:0:0:
160,81,64555,1,0,0:0:0:0:
160,81,64643,1,0,0:0:0:0:
160,81,64819,1,0,0:0:0:0:
160,81,64996,1,8,0:0:0:0:
134,51,65349,1,8,0:0:0:0:
225,121,65702,1,0,0:0:0:0:
302,117,66055,1,8,0:0:0:0:
302,117,66231,1,0,0:0:0:0:
302,117,66408,1,8,0:0:0:0:
302,117,66761,1,0,0:0:0:0:
302,117,66937,1,8,0:0:0:0:
302,117,67113,1,8,0:0:0:0:
302,117,67290,1,0,0:0:0:0:
302,117,67466,1,8,0:0:0:0:
302,117,68172,1,4,0:0:0:0:
166,89,68525,1,8,0:0:0:0:
342,209,68878,1,0,0:0:0:0:
342,209,69055,1,0,0:0:0:0:
342,209,69231,1,8,0:0:0:0:
144,102,69584,1,0,0:0:0:0:
160,81,69760,1,8,0:0:0:0:
160,81,69937,1,8,0:0:0:0:
25,136,70290,1,0,0:0:0:0:
160,81,70643,1,8,0:0:0:0:
134,51,70996,1,8,0:0:0:0:
150,78,71172,1,0,0:0:0:0:
150,78,71261,1,0,0:0:0:0:
225,121,71349,1,0,0:0:0:0:
150,78,71525,1,8,0:0:0:0:
302,117,71702,1,0,0:0:0:0:
173,146,72055,1,8,0:0:0:0:
219,98,72231,1,8,0:0:0:0:
302,117,72408,1,0,0:0:0:0:
302,117,72584,1,8,0:0:0:0:
173,101,72672,1,8,0:0:0:0:
216,12,72761,1,8,0:0:0:0:
302,117,72937,1,0,0:0:0:0:
302,117,73113,1,8,0:0:0:0:
302,117,73819,1,4,0:0:0:0:
363,159,74172,1,8,0:0:0:0:
412,179,74525,1,0,0:0:0:0:
412,179,74702,1,0,0:0:0:0:
412,179,74878,1,8,0:0:0:0:
412,179,75231,1,8,0:0:0:0:
412,179,75408,1,0,0:0:0:0:
412,179,75496,1,0,0:0:0:0:
412,179,75584,1,0,0:0:0:0:
412,179,75761,1,0,0:0:0:0:
412,179,75937,1,8,0:0:0:0:
148,125,76290,1,8,0:0:0:0:
215,113,76466,1,0,0:0:0:0:
215,113,76643,1,8,0:0:0:0:
146,102,76731,1,8,0:0:0:0:
146,102,76819,1,8,0:0:0:0:
146,102,76996,1,8,0:0:0:0:
146,102,77172,1,0,0:0:0:0:
146,102,77349,1,8,0:0:0:0:
146,102,77702,1,8,0:0:0:0:
146,102,77878,1,8,0:0:0:0:
146,102,78055,1,0,0:0:0:0:
188,111,78761,1,8,0:0:0:0:
386,232,78937,1,0,0:0:0:0:
386,232,79025,1,0,0:0:0:0:
386,232,79113,1,0,0:0:0:0:
124,120,79290,1,0,0:0:0:0:
181,85,79466,1,8,0:0:0:0:
180,91,79819,1,0,0:0:0:0:
201,83,79996,1,0,0:0:0:0:
201,83,80172,1,8,0:0:0:0:
201,83,80349,1,0,0:0:0:0:
201,83,80437,1,0,0:0:0:0:
201,83,80525,1,8,0:0:0:0:
201,83,80702,1,8,0:0:0:0:
201,83,80878,1,0,0:0:0:0:
176,105,81231,1,0,0:0:0:0:
279,122,81408,1,0,0:0:0:0:
234,99,81584,1,8,0:0:0:0:
234,99,81937,1,0,0:0:0:0:
114,91,82290,1,4,0:0:0:0:
428,219,82643,1,8,0:0:0:0:
189,80,82996,1,0,0:0:0:0:
428,219,83172,1,0,0:0:0:0:
428,219,83349,1,8,0:0:0:0:
428,219,83702,1,8,0:0:0:0:
225,129,83878,1,0,0:0:0:0:
428,219,83966,1,0,0:0:0:0:
275,114,84055,1,8,0:0:0:0:
428,219,84230,1,0,0:0:0:0:
275,114,84408,1,8,0:0:0:0:
275,114,84761,1,8,0:0:0:0:
257,87,85113,1,8,0:0:0:0:
257,87,85290,1,0,0:0:0:0:
257,87,85378,1,0,0:0:0:0:
257,87,85466,1,0,0:0:0:0:
257,87,85643,1,0,0:0:0:0:
257,87,85819,1,8,0:0:0:0:
176,55,86172,1,8,0:0:0:0:
176,55,86349,1,8,0:0:0:0:
176,55,86525,1,0,0:0:0:0:
143,73,87231,1,8,0:0:0:0:
143,73,87408,1,0,0:0:0:0:
143,73,87496,1,0,0:0:0:0:
143,73,87584,1,0,0:0:0:0:
143,73,87761,1,0,0:0:0:0:
143,73,87937,1,8,0:0:0:0:
152,110,88290,1,8,0:0:0:0:
152,110,88466,1,8,0:0:0:0:
152,110,88643,1,0,0:0:0:0:
152,110,88819,1,0,0:0:0:0:
152,110,88996,1,8,0:0:0:0:
152,110,89084,1,8,0:0:0:0:
152,110,89172,1,8,0:0:0:0:
152,110,89349,1,0,0:0:0:0:
216,95,89702,1,0,0:0:0:0:
216,95,89878,1,0,0:0:0:0:
216,95,90055,1,8,0:0:0:0:
216,95,90408,1,0,0:0:0:0:
216,95,90761,1,4,0:0:0:0:
176,138,91113,1,8,0:0:0:0:
207,135,91466,1,8,0:0:0:0:
391,177,91643,1,0,0:0:0:0:
391,177,91819,1,8,0:0:0:0:
391,177,91996,1,0,0:0:0:0:
391,177,92084,1,0,0:0:0:0:
391,177,92172,1,8,0:0:0:0:
391,177,92348,1,8,0:0:0:0:
391,177,92525,1,0,0:0:0:0:
105,123,92878,1,8,0:0:0:0:
166,102,93055,1,8,0:0:0:0:
166,102,93231,1,0,0:0:0:0:
371,146,93408,1,0,0:0:0:0:
166,102,93584,1,8,0:0:0:0:
126,85,94290,1,0,0:0:0:0:
126,85,94466,1,0,0:0:0:0:
126,85,94643,1,8,0:0:0:0:
126,85,94819,1,0,0:0:0:0:
126,85,94907,1,0,0:0:0:0:
126,85,94996,1,0,0:0:0:0:
126,85,95172,1,0,0:0:0:0:
126,85,95349,1,8,0:0:0:0:
126,85,95702,1,0,0:0:0:0:
381,194,95878,1,0,0:0:0:0:
197,55,96055,1,8,0:0:0:0:
197,55,96408,1,0,0:0:0:0:
395,203,96761,1,8,0:0:0:0:
395,203,97113,1,0,0:0:0:0:
395,203,97290,1,0,0:0:0:0:
395,203,97466,1,8,0:0:0:0:
421,260,97643,1,0,0:0:0:0:
217,91,97731,1,0,0:0:0:0:
333,164,97819,1,8,0:0:0:0:
217,91,97996,1,8,0:0:0:0:
380,172,98172,1,0,0:0:0:0:
380,172,98525,1,8,0:0:0:0:
380,172,98702,1,0,0:0:0:0:
186,92,98878,1,8,0:0:0:0:
186,92,99055,1,8,0:0:0:0:
380,172,99231,1,0,0:0:0:0:
305,175,99937,1,8,0:0:0:0:
305,175,100113,1,0,0:0:0:0:
305,175,100290,1,8,0:0:0:0:
177,125,100378,1,8,0:0:0:0:
305,175,100466,1,8,0:0:0:0:
305,175,100643,1,8,0:0:0:0:
353,174,100996,1,0,0:0:0:0:
353,174,101172,1,8,0:0:0:0:
353,174,101349,1,0,0:0:0:0:
331,182,102055,1,8,0:0:0:0:
331,182,102231,1,8,0:0:0:0:
331,182,102319,1,8,0:0:0:0:
331,182,102408,1,8,0:0:0:0:
331,182,102584,1,0,0:0:0:0:
331,182,102761,1,8,0:0:0:0:
331,182,103113,1,0,0:0:0:0:
331,182,103290,1,0,0:0:0:0:
331,182,103466,1,8,0:0:0:0:
331,182,103643,1,0,0:0:0:0:
331,182,103731,1,0,0:0:0:0:
331,182,103819,1,0,0:0:0:0:
331,182,103996,1,0,0:0:0:0:
331,182,104172,1,8,0:0:0:0:
182,105,104525,1,0,0:0:0:0:
185,95,104702,1,8,0:0:0:0:
185,94,104878,1,8,0:0:0:0:
186,92,105055,1,0,0:0:0:0:
186,92,105143,1,0,0:0:0:0:
186,92,105231,1,0,0:0:0:0:
186,92,105408,1,0,0:0:0:0:
185,95,105584,1,8,0:0:0:0:
150,95,105937,1,0,0:0:0:0:
150,95,106113,1,8,0:0:0:0:
150,95,106290,1,0,0:0:0:0:
150,95,106466,1,8,0:0:0:0:
150,95,106555,1,8,0:0:0:0:
150,95,106643,1,8,0:0:0:0:
150,95,106819,1,0,0:0:0:0:
150,95,106996,1,8,0:0:0:0:
162,92,107349,1,8,0:0:0:0:
177,86,107525,1,0,0:0:0:0:
178,84,107702,1,8,0:0:0:0:
178,84,107878,1,0,0:0:0:0:
178,84,107966,1,0,0:0:0:0:
178,84,108055,1,0,0:0:0:0:
178,84,108231,1,0,0:0:0:0:
177,86,108408,1,8,0:0:0:0:
202,37,108761,1,0,0:0:0:0:
202,37,108937,1,0,0:0:0:0:
202,37,109113,1,8,0:0:0:0:
202,37,109290,1,0,0:0:0:0:
202,37,109378,1,0,0:0:0:0:
202,37,109466,1,0,0:0:0:0:
202,37,109643,1,0,0:0:0:0:
202,37,109819,1,8,0:0:0:0:
337,217,110525,1,4,0:0:0:0:
337,217,110878,1,0,0:0:0:0:
337,217,111055,1,0,0:0:0:0:
337,217,111231,1,8,0:0:0:0:
409,214,111584,1,0,0:0:0:0:
409,214,111761,1,8,0:0:0:0:
400,193,111937,1,8,0:0:0:0:
400,193,112113,1,0,0:0:0:0:
400,193,112202,1,0,0:0:0:0:
400,193,112290,1,8,0:0:0:0:
400,193,112643,1,8,0:0:0:0:
243,148,112819,1,0,0:0:0:0:
189,144,112996,1,8,0:0:0:0:
224,106,113084,1,8,0:0:0:0:
243,148,113172,1,8,0:0:0:0:
214,113,113349,1,8,0:0:0:0:
160,116,113702,1,8,0:0:0:0:
160,116,113878,1,8,0:0:0:0:
160,116,114055,1,0,0:0:0:0:
68,72,114408,1,0,0:0:0:0:
82,66,114584,1,0,0:0:0:0:
82,62,114761,1,8,0:0:0:0:
116,52,115466,1,8,0:0:0:0:
34,104,115643,1,0,0:0:0:0:
116,52,115819,1,8,0:0:0:0:
131,63,115908,1,8,0:0:0:0:
116,52,115996,1,8,0:0:0:0:
116,52,116172,1,0,0:0:0:0:
113,118,116525,1,0,0:0:0:0:
157,111,116702,1,8,0:0:0:0:
157,111,116878,1,8,0:0:0:0:
157,111,117055,1,0,0:0:0:0:
157,111,117143,1,0,0:0:0:0:
157,111,117231,1,8,0:0:0:0:
157,111,117408,1,8,0:0:0:0:
157,111,117584,1,0,0:0:0:0:
203,127,117937,1,0,0:0:0:0:
206,107,118113,1,0,0:0:0:0:
209,99,118290,1,8,0:0:0:0:
209,99,118466,1,0,0:0:0:0:
209,98,118643,1,8,0:0:0:0:
209,98,118731,1,8,0:0:0:0:
209,98,118819,1,8,0:0:0:0:
209,98,118996,1,0,0:0:0:0:
197,120,119349,1,8,0:0:0:0:
197,120,119525,1,8,0:0:0:0:
197,120,119702,1,0,0:0:0:0:
197,120,119878,1,8,0:0:0:0:
197,120,119966,1,8,0:0:0:0:
197,120,120055,1,0,0:0:0:0:
197,120,120231,1,0,0:0:0:0:
197,120,120408,1,8,0:0:0:0:
221,108,120761,1,8,0:0:0:0:
230,90,120937,1,8,0:0:0:0:
229,89,121113,1,0,0:0:0:0:
229,89,121290,1,0,0:0:0:0:
229,89,121466,1,8,0:0:0:0:
229,89,121555,1,8,0:0:0:0:
229,89,121643,1,8,0:0:0:0:
230,90,121819,1,0,0:0:0:0:
153,119,122172,1,0,0:0:0:0:
173,116,122349,1,8,0:0:0:0:
173,116,122525,1,8,0:0:0:0:
368,165,122702,1,0,0:0:0:0:
368,165,122790,1,0,0:0:0:0:
368,165,122878,1,8,0:0:0:0:
368,165,123055,1,0,0:0:0:0:
304,147,123231,1,8,0:0:0:0:
270,74,123584,1,0,0:0:0:0:
253,151,123760,1,0,0:0:0:0:
285,72,123937,1,8,0:0:0:0:
285,72,124290,1,8,0:0:0:0:
273,129,124643,1,4,0:0:0:0:
