osu file format v14

[General]
AudioFilename: enjel.mp3
AudioLeadIn: 0
PreviewTime: 54
Countdown: 0
SampleSet: Normal
StackLeniency: 0.7
Mode: 1
LetterboxInBreaks: 0
WidescreenStoryboard: 0

[Editor]
DistanceSpacing: 1.3
BeatDivisor: 4
GridSize: 8
TimelineZoom: 0.4999999

[Metadata]
Title:Midnight Striken Clock ~ Glass Slipper
TitleUnicode:Midnight Striken Clock ~ Glass Slipper
Artist:Pocket Mirror Sound Team
ArtistUnicode:Pocket Mirror Sound Team
Creator:Rhytoly
Version:Kantan
Source:Pocket Mirror
Tags:Pocket Music OST Soundtrack Astralshift RPG maker horror game track 38 piano violin staircase cut ver.
BeatmapID:1933695
BeatmapSetID:925760

[Difficulty]
HPDrainRate:7
CircleSize:5
OverallDifficulty:3
ApproachRate:10
SliderMultiplier:1.4
SliderTickRate:1

[Events]
//Background and Video events
0,0,"1.jpg",0,50
//Break Periods
//Storyboard Layer 0 (Background)
//Storyboard Layer 1 (Fail)
//Storyboard Layer 2 (Pass)
//Storyboard Layer 3 (Foreground)
//Storyboard Sound Samples

[TimingPoints]
-1004,352.941176470588,4,1,0,60,1,0
48407,-100,4,1,0,60,0,1
62525,-100,4,1,0,60,0,0
110525,-100,4,1,0,60,0,1
124643,-100,4,1,0,60,0,0

[HitObjects]
61,88,407,5,4,0:0:0:0:
385,137,1113,1,0,0:0:0:0:
385,137,1466,1,8,0:0:0:0:
65,130,2172,1,8,0:0:0:0:
173,46,2878,1,0,0:0:0:0:
114,76,3231,1,8,0:0:0:0:
245,87,3937,1,0,0:0:0:0:
221,92,5348,1,8,0:0:0:0:
117,144,6054,1,4,0:0:0:0:
372,194,6760,1,8,0:0:0:0:
372,194,7113,1,0,0:0:0:0:
117,122,7466,1,0,0:0:0:0:
157,88,7819,1,8,0:0:0:0:
154,96,8525,1,8,0:0:0:0:
158,80,8878,1,0,0:0:0:0:
325,142,10290,1,0,0:0:0:0:
391,178,10995,1,8,0:0:0:0:
155,62,11701,1,4,0:0:0:0:
394,187,12407,1,8,0:0:0:0:
345,171,13113,1,0,0:0:0:0:
356,184,13466,1,0,0:0:0:0:
356,184,13819,1,8,0:0:0:0:
157,75,14525,1,0,0:0:0:0:
211,98,15231,1,8,0:0:0:0:
211,98,15584,1,8,0:0:0:0:
162,36,15937,1,0,0:0:0:0:
211,98,17348,1,8,0:0:0:0:
162,117,18054,1,0,0:0:0:0:
162,117,18407,1,8,0:0:0:0:
162,117,18760,1,0,0:0:0:0:
155,73,19466,1,8,0:0:0:0:
241,69,20172,1,4,0:0:0:0:
161,46,20878,1,8,0:0:0:0:
201,88,21584,1,0,0:0:0:0:
201,88,21937,1,8,0:0:0:0:
46,141,22290,1,8,0:0:0:0:
224,86,22995,1,0,0:0:0:0:
224,86,23701,1,8,0:0:0:0:
224,86,24054,1,8,0:0:0:0:
224,86,24407,1,0,0:0:0:0:
132,141,25819,1,8,0:0:0:0:
121,142,26525,1,0,0:0:0:0:
162,128,26878,1,0,0:0:0:0:
163,68,27231,1,8,0:0:0:0:
182,36,27937,1,8,0:0:0:0:
130,116,28643,1,4,0:0:0:0:
250,84,29348,1,0,0:0:0:0:
275,118,29701,1,0,0:0:0:0:
236,122,30054,1,8,0:0:0:0:
205,70,30760,1,8,0:0:0:0:
261,122,31113,1,0,0:0:0:0:
203,128,31466,1,8,0:0:0:0:
212,85,32172,1,0,0:0:0:0:
212,85,32525,1,8,0:0:0:0:
210,80,32878,1,8,0:0:0:0:
118,128,34290,1,8,0:0:0:0:
243,118,34995,1,0,0:0:0:0:
243,118,35701,1,8,0:0:0:0:
243,118,36054,1,8,0:0:0:0:
243,118,36407,1,0,0:0:0:0:
228,79,36760,1,0,0:0:0:0:
208,69,37113,1,8,0:0:0:0:
271,60,37819,1,0,0:0:0:0:
62,131,38172,1,0,0:0:0:0:
156,115,38525,1,8,0:0:0:0:
224,108,39937,1,8,0:0:0:0:
224,108,40643,1,8,0:0:0:0:
224,108,40995,1,0,0:0:0:0:
159,117,41348,1,8,0:0:0:0:
206,85,42054,1,8,0:0:0:0:
206,85,42407,1,8,0:0:0:0:
206,85,42760,1,0,0:0:0:0:
165,93,43466,1,8,0:0:0:0:
175,137,43819,1,0,0:0:0:0:
102,151,44172,1,0,0:0:0:0:
231,34,44878,1,8,0:0:0:0:
116,117,46290,1,0,0:0:0:0:
228,67,46995,1,8,0:0:0:0:
110,102,47348,1,8,0:0:0:0:
211,73,48054,1,8,0:0:0:0:
211,73,48407,1,4,0:0:0:0:
288,145,49113,1,0,0:0:0:0:
232,103,49466,1,8,0:0:0:0:
232,103,49819,1,0,0:0:0:0:
232,103,50172,1,0,0:0:0:0:
216,89,50525,1,8,0:0:0:0:
148,43,51231,1,8,0:0:0:0:
376,203,51937,1,0,0:0:0:0:
376,203,52290,1,0,0:0:0:0:
200,127,52643,1,8,0:0:0:0:
376,203,52995,1,8,0:0:0:0:
376,203,53348,1,0,0:0:0:0:
161,56,54054,1,8,0:0:0:0:
338,147,55466,1,0,0:0:0:0:
338,147,56172,1,0,0:0:0:0:
338,147,56525,1,8,0:0:0:0:
336,140,56878,1,0,0:0:0:0:
276,90,57584,1,8,0:0:0:0:
182,138,57937,1,0,0:0:0:0:
182,138,58290,1,8,0:0:0:0:
182,138,58643,1,8,0:0:0:0:
182,138,58995,1,0,0:0:0:0:
180,103,59701,1,0,0:0:0:0:
202,102,60407,1,8,0:0:0:0:
202,102,61113,1,0,0:0:0:0:
61,88,62525,1,4,0:0:0:0:
385,137,63231,1,0,0:0:0:0:
385,137,63584,1,0,0:0:0:0:
65,130,64290,1,8,0:0:0:0:
173,46,64996,1,0,0:0:0:0:
114,76,65349,1,8,0:0:0:0:
245,87,66055,1,0,0:0:0:0:
221,92,67466,1,8,0:0:0:0:
117,144,68172,1,4,0:0:0:0:
372,194,68878,1,0,0:0:0:0:
372,194,69231,1,0,0:0:0:0:
117,122,69584,1,0,0:0:0:0:
157,88,69937,1,8,0:0:0:0:
154,96,70643,1,8,0:0:0:0:
158,80,70996,1,0,0:0:0:0:
325,142,72408,1,0,0:0:0:0:
391,178,73113,1,8,0:0:0:0:
155,62,73819,1,4,0:0:0:0:
394,187,74525,1,0,0:0:0:0:
345,171,75231,1,8,0:0:0:0:
356,184,75584,1,0,0:0:0:0:
356,184,75937,1,8,0:0:0:0:
157,75,76643,1,8,0:0:0:0:
211,98,77349,1,0,0:0:0:0:
211,98,77702,1,8,0:0:0:0:
162,36,78055,1,0,0:0:0:0:
211,98,79466,1,8,0:0:0:0:
162,117,80172,1,0,0:0:0:0:
162,117,80525,1,0,0:0:0:0:
162,117,80878,1,8,0:0:0:0:
155,73,81584,1,8,0:0:0:0:
241,69,82290,1,4,0:0:0:0:
161,46,82996,1,8,0:0:0:0:
201,88,83702,1,0,0:0:0:0:
201,88,84055,1,0,0:0:0:0:
46,141,84408,1,8,0:0:0:0:
224,86,85113,1,0,0:0:0:0:
224,86,85819,1,8,0:0:0:0:
224,86,86172,1,0,0:0:0:0:
224,86,86525,1,8,0:0:0:0:
132,141,87937,1,8,0:0:0:0:
121,142,88643,1,0,0:0:0:0:
162,128,88996,1,8,0:0:0:0:
163,68,89349,1,0,0:0:0:0:
182,36,90055,1,8,0:0:0:0:
130,116,90761,1,4,0:0:0:0:
250,84,91466,1,8,0:0:0:0:
275,118,91819,1,8,0:0:0:0:
236,122,92172,1,0,0:0:0:0:
205,70,92878,1,8,0:0:0:0:
261,122,93231,1,0,0:0:0:0:
203,128,93584,1,8,0:0:0:0:
212,85,94290,1,0,0:0:0:0:
212,85,94643,1,0,0:0:0:0:
210,80,94996,1,8,0:0:0:0:
118,128,96408,1,8,0:0:0:0:
243,118,97113,1,0,0:0:0:0:
243,118,97819,1,0,0:0:0:0:
243,118,98172,1,8,0:0:0:0:
243,118,98525,1,8,0:0:0:0:
228,79,98878,1,0,0:0:0:0:
208,69,99231,1,8,0:0:0:0:
271,60,99937,1,0,0:0:0:0:
62,131,100290,1,0,0:0:0:0:
156,115,100643,1,8,0:0:0:0:
224,108,102055,1,8,0:0:0:0:
224,108,102761,1,8,0:0:0:0:
224,108,103113,1,0,0:0:0:0:
159,117,103466,1,8,0:0:0:0:
206,85,104172,1,8,0:0:0:0:
206,85,104525,1,8,0:0:0:0:
206,85,104878,1,0,0:0:0:0:
165,93,105584,1,8,0:0:0:0:
175,137,105937,1,0,0:0:0:0:
102,151,106290,1,0,0:0:0:0:
231,34,106996,1,8,0:0:0:0:
116,117,108408,1,0,0:0:0:0:
228,67,109113,1,8,0:0:0:0:
110,102,109466,1,8,0:0:0:0:
211,73,110172,1,8,0:0:0:0:
211,73,110525,1,4,0:0:0:0:
288,145,111231,1,8,0:0:0:0:
232,103,111584,1,0,0:0:0:0:
232,103,111937,1,8,0:0:0:0:
232,103,112290,1,8,0:0:0:0:
216,89,112643,1,0,0:0:0:0:
148,43,113349,1,8,0:0:0:0:
376,203,114055,1,0,0:0:0:0:
376,203,114408,1,0,0:0:0:0:
200,127,114761,1,8,0:0:0:0:
376,203,115113,1,8,0:0:0:0:
376,203,115466,1,8,0:0:0:0:
161,56,116172,1,8,0:0:0:0:
338,147,117584,1,0,0:0:0:0:
338,147,118290,1,8,0:0:0:0:
338,147,118643,1,8,0:0:0:0:
336,140,118996,1,0,0:0:0:0:
276,90,119702,1,0,0:0:0:0:
182,138,120055,1,8,0:0:0:0:
182,138,120408,1,8,0:0:0:0:
182,138,120761,1,8,0:0:0:0:
182,138,121113,1,0,0:0:0:0:
180,103,121819,1,0,0:0:0:0:
202,102,122525,1,8,0:0:0:0:
202,102,123231,1,8,0:0:0:0:
202,102,124643,1,4,0:0:0:0:
