osu file format v14

[General]
AudioFilename: audio.mp3
AudioLeadIn: 0
PreviewTime: 44149
Countdown: 0
SampleSet: Normal
StackLeniency: 0.7
Mode: 1
LetterboxInBreaks: 0
WidescreenStoryboard: 1

[Editor]
Bookmarks: 11049,44152,88290,99325,110359,121394,165532,187428
DistanceSpacing: 0.8
BeatDivisor: 2
GridSize: 32
TimelineZoom: 2.3

[Metadata]
Title:Square Peg
TitleUnicode:Square Peg
Artist:Pluvio
ArtistUnicode:Pluvio
Creator:ZTH
Version:Kantan
Source:
Tags:neurofunk breaks electronic instrumental koul
BeatmapID:4191492
BeatmapSetID:1985507

[Difficulty]
HPDrainRate:8
CircleSize:5
OverallDifficulty:3
ApproachRate:5
SliderMultiplier:1.4
SliderTickRate:1

[Events]
//Background and Video events
0,0,"thomas-dubois-thomas-dubois-digiscape-014-web6.jpg",0,-50
//Break Periods
//Storyboard Layer 0 (Background)
//Storyboard Layer 1 (Fail)
//Storyboard Layer 2 (Pass)
//Storyboard Layer 3 (Foreground)
//Storyboard Layer 4 (Overlay)
//Storyboard Sound Samples

[TimingPoints]
12,344.827586206897,4,1,0,60,1,0
12,-100,4,1,0,60,0,0
11043,-100,4,1,0,80,0,0
34833,-100,4,1,0,75,0,0
35868,-100,4,1,0,60,0,0
38626,-100,4,1,0,60,0,0
40009,-100,4,1,0,62,0,0
41388,-100,4,1,0,64,0,0
42077,-100,4,1,0,66,0,0
42767,-100,4,1,0,68,0,0
43109,-100,4,1,0,76,0,0
43454,-100,4,1,0,88,0,0
44143,-100,4,1,0,90,0,0
85006,-100,4,1,0,60,0,0
88281,-100,4,1,0,85,0,0
110957,-100,4,1,0,80,0,0
112075,-100,4,1,0,75,0,0
113109,-100,4,1,0,60,0,0
115868,-100,4,1,0,75,0,0
120006,-100,4,1,0,75,0,0
120350,-100,4,1,0,79,0,0
120695,-100,4,1,0,83,0,0
121385,-100,4,1,0,90,0,0
162247,-100,4,1,0,60,0,0
165523,-100,4,1,0,85,0,0

[HitObjects]
252,193,11046,5,0,0:0:0:0:
268,219,11736,1,8,0:0:0:0:
267,230,12253,1,8,0:0:0:0:
267,230,12770,1,0,0:0:0:0:
267,230,13115,1,8,0:0:0:0:
267,230,13805,1,0,0:0:0:0:
267,230,14494,1,8,0:0:0:0:
267,237,15529,1,0,0:0:0:0:
267,237,15874,1,8,0:0:0:0:
276,244,16563,1,0,0:0:0:0:
275,214,17253,1,8,0:0:0:0:
272,210,17770,1,8,0:0:0:0:
254,220,18287,1,0,0:0:0:0:
265,224,18632,1,8,0:0:0:0:
286,218,19322,1,0,0:0:0:0:
278,224,20012,1,8,0:0:0:0:
277,234,21046,1,0,0:0:0:0:
273,241,21391,1,0,0:0:0:0:
287,224,21736,1,0,0:0:0:0:
259,237,22080,1,0,0:0:0:0:
265,248,22770,1,8,0:0:0:0:
265,248,23287,1,8,0:0:0:0:
265,248,23805,1,0,0:0:0:0:
270,257,24149,1,8,0:0:0:0:
279,260,24839,1,0,0:0:0:0:
279,259,25529,1,8,0:0:0:0:
279,259,26563,1,0,0:0:0:0:
271,271,26908,1,8,0:0:0:0:
280,279,27598,1,0,0:0:0:0:
284,289,28287,1,8,0:0:0:0:
276,257,28805,1,8,0:0:0:0:
276,257,29322,1,0,0:0:0:0:
276,257,29667,1,8,0:0:0:0:
276,257,30356,1,0,0:0:0:0:
276,257,31046,1,8,0:0:0:0:
280,251,32080,1,0,0:0:0:0:
280,251,32425,1,0,0:0:0:0:
271,255,32770,1,0,0:0:0:0:
266,255,33115,1,0,0:0:0:0:
277,256,33805,1,8,0:0:0:0:
277,256,34322,1,8,0:0:0:0:
277,256,34839,1,8,0:0:0:0:
256,192,35874,12,0,37943,0:0:0:0:
257,191,38632,5,0,0:0:0:0:
257,190,40012,1,0,0:0:0:0:
239,197,41391,1,0,0:0:0:0:
252,210,42080,1,0,0:0:0:0:
252,210,42770,1,0,0:0:0:0:
252,210,43115,1,0,0:0:0:0:
251,229,43460,1,8,0:0:0:0:
231,169,44149,5,0,0:0:0:0:
244,167,44494,1,0,0:0:0:0:
261,178,44839,1,8,0:0:0:0:
243,172,45356,1,8,0:0:0:0:
243,172,45874,1,0,0:0:0:0:
245,192,46218,1,8,0:0:0:0:
258,199,46908,1,0,0:0:0:0:
264,190,47598,5,8,0:0:0:0:
240,198,48632,1,0,0:0:0:0:
237,189,48977,1,8,0:0:0:0:
244,199,49667,1,0,0:0:0:0:
244,221,50012,1,0,0:0:0:0:
243,229,50356,1,8,0:0:0:0:
268,231,50874,1,8,0:0:0:0:
255,234,51391,1,0,0:0:0:0:
255,234,51736,1,8,0:0:0:0:
262,229,52080,1,0,0:0:0:0:
259,204,52425,1,0,0:0:0:0:
265,220,53115,1,8,0:0:0:0:
305,221,53632,1,8,0:0:0:0:
257,236,54149,1,8,0:0:0:0:
290,234,55184,1,0,0:0:0:0:
268,225,55874,1,8,0:0:0:0:
254,242,56391,1,8,0:0:0:0:
256,243,56908,1,0,0:0:0:0:
270,253,57253,1,8,0:0:0:0:
186,202,57943,1,0,0:0:0:0:
259,231,58632,1,8,0:0:0:0:
221,199,59667,1,0,0:0:0:0:
265,192,60012,1,8,0:0:0:0:
247,197,60356,1,8,0:0:0:0:
231,169,60701,5,0,0:0:0:0:
261,178,61391,1,8,0:0:0:0:
243,172,61908,1,8,0:0:0:0:
243,172,62425,1,0,0:0:0:0:
244,182,62770,1,8,0:0:0:0:
203,202,63460,1,0,0:0:0:0:
215,198,63805,1,0,0:0:0:0:
256,192,64839,12,0,65874,0:0:0:0:
251,187,66218,5,0,0:0:0:0:
260,199,66908,1,8,0:0:0:0:
266,236,67598,1,0,0:0:0:0:
244,179,67943,1,0,0:0:0:0:
270,255,68287,1,8,0:0:0:0:
192,192,68977,1,0,0:0:0:0:
176,202,69667,1,8,0:0:0:0:
292,236,71046,1,8,0:0:0:0:
220,215,71391,1,8,0:0:0:0:
260,231,71736,1,0,0:0:0:0:
260,231,72425,1,8,0:0:0:0:
249,233,72770,1,0,0:0:0:0:
270,238,73460,1,0,0:0:0:0:
275,243,73805,1,8,0:0:0:0:
254,221,74149,1,8,0:0:0:0:
278,257,74494,1,0,0:0:0:0:
264,225,75184,1,8,0:0:0:0:
216,226,75874,1,0,0:0:0:0:
214,241,76218,1,0,0:0:0:0:
292,219,76563,1,8,0:0:0:0:
238,224,77253,1,0,0:0:0:0:
267,227,77943,1,8,0:0:0:0:
270,232,78977,1,0,0:0:0:0:
265,247,79322,1,8,0:0:0:0:
226,200,79667,1,8,0:0:0:0:
158,172,80012,1,0,0:0:0:0:
220,180,80701,5,8,0:0:0:0:
288,256,81218,1,8,0:0:0:0:
288,256,81736,1,8,0:0:0:0:
221,200,82253,1,8,0:0:0:0:
288,256,82770,1,0,0:0:0:0:
256,256,83460,1,8,0:0:0:0:
256,224,83977,1,8,0:0:0:0:
256,224,84494,1,0,0:0:0:0:
224,224,84839,1,8,0:0:0:0:
256,192,85529,12,0,87253,0:0:0:0:
224,192,88287,5,0,0:0:0:0:
228,179,88977,5,8,0:0:0:0:
233,190,89494,1,8,0:0:0:0:
238,210,90012,1,0,0:0:0:0:
228,179,90356,1,8,0:0:0:0:
228,179,91046,1,0,0:0:0:0:
210,213,91391,1,0,0:0:0:0:
229,191,91736,1,8,0:0:0:0:
241,193,92253,1,8,0:0:0:0:
236,198,92770,1,0,0:0:0:0:
270,227,93115,1,8,0:0:0:0:
224,192,93805,1,0,0:0:0:0:
228,179,94494,1,8,0:0:0:0:
223,185,95529,1,0,0:0:0:0:
228,179,95874,1,8,0:0:0:0:
230,183,96563,1,0,0:0:0:0:
235,200,96908,1,0,0:0:0:0:
229,191,97253,1,8,0:0:0:0:
229,191,97770,1,8,0:0:0:0:
229,191,98287,1,0,0:0:0:0:
270,227,98632,1,8,0:0:0:0:
224,192,99322,5,0,0:0:0:0:
228,179,100012,5,8,0:0:0:0:
233,190,100529,1,8,0:0:0:0:
238,210,101046,1,0,0:0:0:0:
228,179,101391,1,8,0:0:0:0:
228,179,102080,1,0,0:0:0:0:
210,213,102425,1,0,0:0:0:0:
229,191,102770,1,8,0:0:0:0:
241,193,103287,1,8,0:0:0:0:
236,198,103805,1,0,0:0:0:0:
270,227,104149,1,8,0:0:0:0:
224,192,104839,1,0,0:0:0:0:
228,179,105529,1,8,0:0:0:0:
223,185,106563,1,0,0:0:0:0:
228,179,106908,1,8,0:0:0:0:
230,183,107598,1,0,0:0:0:0:
235,200,107943,1,0,0:0:0:0:
229,191,108287,1,8,0:0:0:0:
229,191,108805,1,8,0:0:0:0:
229,191,109322,1,0,0:0:0:0:
270,227,109667,1,8,0:0:0:0:
150,211,110356,1,0,0:0:0:0:
239,244,111046,5,8,0:0:0:0:
233,250,111563,1,8,0:0:0:0:
257,236,112080,1,8,0:0:0:0:
256,192,113115,12,0,115184,0:0:0:0:
257,228,115874,5,0,0:0:0:0:
234,218,117253,1,0,0:0:0:0:
238,208,118632,1,0,0:0:0:0:
232,205,118977,1,8,0:0:0:0:
267,224,119322,1,0,0:0:0:0:
250,208,120012,1,0,0:0:0:0:
250,208,120356,1,0,0:0:0:0:
250,208,120701,1,8,0:0:0:0:
250,208,121391,1,0,0:0:0:0:
245,232,121736,1,8,0:0:0:0:
276,249,122425,1,8,0:0:0:0:
260,243,122770,1,0,0:0:0:0:
260,243,123115,1,8,0:0:0:0:
253,234,123805,1,8,0:0:0:0:
268,221,124149,1,0,0:0:0:0:
224,224,124839,1,8,0:0:0:0:
256,224,125874,1,0,0:0:0:0:
160,224,126218,1,8,0:0:0:0:
275,233,126908,1,0,0:0:0:0:
267,245,127253,1,0,0:0:0:0:
268,240,127598,1,8,0:0:0:0:
268,258,128115,1,8,0:0:0:0:
259,263,128632,1,0,0:0:0:0:
275,263,128977,1,8,0:0:0:0:
254,251,129322,1,8,0:0:0:0:
256,256,129667,1,0,0:0:0:0:
254,222,130356,1,8,0:0:0:0:
253,242,130874,1,8,0:0:0:0:
255,231,131391,1,0,0:0:0:0:
297,248,132425,1,0,0:0:0:0:
286,240,132770,1,0,0:0:0:0:
243,231,133115,1,8,0:0:0:0:
286,240,133632,1,8,0:0:0:0:
248,231,134149,1,0,0:0:0:0:
257,237,134494,1,8,0:0:0:0:
216,192,135184,1,0,0:0:0:0:
239,203,135874,1,8,0:0:0:0:
244,185,136908,1,0,0:0:0:0:
152,210,137253,1,8,0:0:0:0:
233,192,137598,1,0,0:0:0:0:
228,193,137943,1,0,0:0:0:0:
189,200,138632,1,8,0:0:0:0:
213,227,139149,1,8,0:0:0:0:
207,203,139667,1,0,0:0:0:0:
212,215,140012,1,8,0:0:0:0:
215,227,140701,1,0,0:0:0:0:
235,211,141046,1,0,0:0:0:0:
226,207,142080,1,8,0:0:0:0:
260,211,142598,1,8,0:0:0:0:
263,229,143115,1,8,0:0:0:0:
251,187,143460,5,0,0:0:0:0:
260,199,144149,1,8,0:0:0:0:
266,236,144839,1,0,0:0:0:0:
244,179,145184,1,0,0:0:0:0:
270,255,145529,1,8,0:0:0:0:
192,192,146218,1,0,0:0:0:0:
176,202,146908,1,8,0:0:0:0:
292,236,148287,1,8,0:0:0:0:
220,215,148632,1,8,0:0:0:0:
260,231,148977,1,0,0:0:0:0:
260,231,149667,1,8,0:0:0:0:
249,233,150012,1,0,0:0:0:0:
270,238,150701,1,0,0:0:0:0:
275,243,151046,1,8,0:0:0:0:
254,221,151391,1,8,0:0:0:0:
278,257,151736,1,0,0:0:0:0:
264,225,152425,1,8,0:0:0:0:
216,226,153115,1,0,0:0:0:0:
214,241,153460,1,0,0:0:0:0:
292,219,153805,1,8,0:0:0:0:
238,224,154494,1,0,0:0:0:0:
267,227,155184,1,8,0:0:0:0:
270,232,156218,1,0,0:0:0:0:
265,247,156563,1,8,0:0:0:0:
226,200,156908,1,8,0:0:0:0:
158,172,157253,1,0,0:0:0:0:
220,180,157943,5,8,0:0:0:0:
288,256,158460,1,8,0:0:0:0:
288,256,158977,1,8,0:0:0:0:
221,200,159494,1,8,0:0:0:0:
288,256,160012,1,0,0:0:0:0:
256,256,160701,1,8,0:0:0:0:
256,224,161218,1,8,0:0:0:0:
256,224,161736,1,0,0:0:0:0:
224,224,162080,1,8,0:0:0:0:
256,192,162770,12,0,164494,0:0:0:0:
252,193,165529,5,0,0:0:0:0:
268,219,166218,1,8,0:0:0:0:
267,230,166736,1,8,0:0:0:0:
267,230,167253,1,0,0:0:0:0:
267,230,167598,1,8,0:0:0:0:
267,230,168287,1,0,0:0:0:0:
267,230,168977,1,8,0:0:0:0:
267,237,170012,1,0,0:0:0:0:
267,237,170356,1,8,0:0:0:0:
276,244,171046,1,0,0:0:0:0:
275,214,171736,1,8,0:0:0:0:
272,210,172253,1,8,0:0:0:0:
254,220,172770,1,0,0:0:0:0:
265,224,173115,1,8,0:0:0:0:
286,218,173805,1,0,0:0:0:0:
278,224,174494,1,8,0:0:0:0:
277,234,175529,1,0,0:0:0:0:
273,241,175874,1,0,0:0:0:0:
287,224,176218,1,0,0:0:0:0:
259,237,176563,1,0,0:0:0:0:
265,248,177253,1,8,0:0:0:0:
265,248,177770,1,8,0:0:0:0:
265,248,178287,1,0,0:0:0:0:
270,257,178632,1,8,0:0:0:0:
279,260,179322,1,0,0:0:0:0:
279,259,180012,1,8,0:0:0:0:
279,259,181046,1,0,0:0:0:0:
271,271,181391,1,8,0:0:0:0:
280,279,182080,1,0,0:0:0:0:
284,289,182770,1,8,0:0:0:0:
276,257,183287,1,8,0:0:0:0:
276,257,183805,1,0,0:0:0:0:
276,257,184149,1,8,0:0:0:0:
276,257,184839,1,0,0:0:0:0:
276,257,185529,1,8,0:0:0:0:
280,251,186563,1,0,0:0:0:0:
280,251,186908,1,0,0:0:0:0:
271,255,187253,1,8,0:0:0:0:
