osu file format v14

[General]
AudioFilename: audio.mp3
AudioLeadIn: 0
PreviewTime: 86715
Countdown: 0
SampleSet: Normal
StackLeniency: 0.4
Mode: 0
LetterboxInBreaks: 0
WidescreenStoryboard: 1

[Editor]
DistanceSpacing: 1
BeatDivisor: 4
GridSize: 8
TimelineZoom: 1

[Metadata]
Title:Until the Blue Moon Rises
TitleUnicode:Until the Blue Moon Rises
Artist:Plutian
ArtistUnicode:Plutian
Creator:ktgster
Version:Hard
Source:VOEZ
Tags:uplifting trance instrumental video game
BeatmapID:2418491
BeatmapSetID:995205

[Difficulty]
HPDrainRate:3.5
CircleSize:5.5
OverallDifficulty:5
ApproachRate:3
SliderMultiplier:1.2
SliderTickRate:1

[Events]
//Background and Video events
0,0,"_20190129_170748.JPG",0,0
//Break Periods
//Storyboard Layer 0 (Background)
//Storyboard Layer 1 (Fail)
//Storyboard Layer 2 (Pass)
//Storyboard Layer 3 (Foreground)
//Storyboard Layer 4 (Overlay)
//Storyboard Sound Samples

[TimingPoints]
1725,434.782608695652,4,1,1,40,1,0
3029,-100,4,1,1,60,0,0
43464,-100,4,2,1,5,0,0
44007,-100,4,1,1,60,0,0
45203,-100,4,2,1,60,0,0
50420,-100,4,2,1,5,0,0
50964,-100,4,2,1,60,0,0
57377,-100,4,2,1,5,0,0
57920,-100,4,2,1,60,0,0
79985,-100,4,1,1,60,0,0
86942,-100,4,1,1,60,0,1
128681,-100,4,1,1,50,0,0
135638,-100,4,1,1,40,0,0

[Colours]
Combo1 : 163,70,255
Combo2 : 164,164,255

[HitObjects]
256,192,855,12,8,3029,0:2:0:0:
60,346,3464,5,4,0:0:0:0:
102,303,3898,1,0,0:2:0:0:
144,345,4333,1,0,0:2:0:0:
186,384,4768,1,0,0:2:0:0:
228,341,5203,1,0,0:2:0:0:
270,298,5638,1,0,0:2:0:0:
312,340,6072,1,0,0:2:0:0:
355,380,6507,1,0,0:2:0:0:
396,341,6942,5,0,0:2:0:0:
354,298,7377,1,0,0:2:0:0:
312,340,7811,1,0,0:2:0:0:
270,379,8246,1,0,0:2:0:0:
228,336,8681,1,0,0:2:0:0:
186,293,9116,1,0,0:2:0:0:
144,335,9551,1,0,0:2:0:0:
101,375,9985,1,0,0:2:0:0:
58,332,10420,5,4,0:0:0:0:
80,277,10855,1,0,0:2:0:0:
141,277,11290,1,0,0:2:0:0:
163,222,11724,1,0,0:2:0:0:
224,222,12159,1,0,0:2:0:0:
202,167,12594,1,0,0:2:0:0:
141,167,13029,1,0,0:2:0:0:
119,112,13464,1,0,0:2:0:0:
141,57,13898,5,0,0:2:0:0:
189,92,14333,1,0,0:2:0:0:
248,95,14768,1,0,0:2:0:0:
301,67,15203,1,0,0:2:0:0:
326,12,15638,1,0,0:2:0:0:
256,192,15746,12,8,16942,0:2:0:0:
208,261,17377,5,4,0:0:0:0:
183,315,17594,2,0,L|88:331,2,90,2|2|0,0:2|0:2|0:2,0:0:0:0:
270,333,18572,1,2,0:2:0:0:
357,352,18898,1,0,0:2:0:0:
424,252,19333,6,0,L|518:235,2,90,2|2|0,0:2|0:2|0:2,0:0:0:0:
337,234,20311,1,2,0:2:0:0:
250,215,20638,1,0,0:2:0:0:
163,131,21072,5,0,0:2:0:0:
99,194,21398,1,2,0:2:0:0:
144,271,21724,2,0,B|103:293|103:293|35:273,2,90,0|2|2,0:2|0:2|0:2,0:0:0:0:
250,215,22811,5,2,0:2:0:0:
314,278,23138,1,0,0:2:0:0:
269,355,23464,2,0,B|310:377|310:377|378:357,2,90,2|2|2,0:2|0:2|0:2,0:0:0:0:
164,294,24551,5,2,0:2:0:0:
100,231,24877,1,2,0:2:0:0:
163,167,25203,2,0,L|180:73,1,90,0|2,0:2|0:2,0:0:0:0:
242,14,25855,1,0,0:2:0:0:
362,14,26290,5,2,0:2:0:0:
426,77,26616,1,2,0:2:0:0:
363,141,26942,2,0,L|346:235,1,90,0|2,0:2|0:2,0:0:0:0:
284,294,27594,1,0,0:2:0:0:
163,294,28029,5,0,0:2:0:0:
100,231,28355,1,2,0:2:0:0:
163,168,28681,1,0,0:2:0:0:
99,105,29007,1,2,0:2:0:0:
162,42,29333,1,0,0:2:0:0:
256,192,29551,12,4,31290,0:0:0:0:
183,103,31942,6,0,P|147:139|11:146,1,180,2|2,0:2|0:2,0:0:0:0:
23,274,33029,5,0,0:2:0:0:
24,274,33246,2,0,P|112:270|183:323,1,180,2|0,0:2|0:2,0:0:0:0:
183,323,34551,1,2,0:2:0:0:
256,192,34768,12,0,36507,0:0:0:0:
256,192,37159,5,0,0:0:0:0:
256,192,37377,2,0,L|256:252,1,60,2|0,0:2|0:2,0:0:0:0:
329,103,38246,5,4,0:0:0:0:
329,103,38898,2,0,P|365:139|501:146,1,180,2|2,0:2|0:2,0:0:0:0:
489,274,39985,5,0,0:2:0:0:
488,274,40203,2,0,P|399:270|328:323,1,180,2|0,0:2|0:2,0:0:0:0:
329,323,41507,1,2,0:2:0:0:
256,192,41724,12,0,43464,0:0:0:0:
256,192,44116,5,0,0:0:0:0:
256,192,44333,2,0,L|256:252,1,60,2|0,0:2|0:2,0:0:0:0:
78,112,45203,5,4,1:0:0:0:
78,112,45855,1,2,0:2:0:0:
121,192,46507,1,0,0:2:0:0:
121,192,47159,1,2,0:2:0:0:
78,272,47811,1,0,0:2:0:0:
78,272,48464,1,2,0:2:0:0:
256,192,48681,12,0,50420,0:0:0:0:
256,192,51072,5,0,0:0:0:0:
256,192,51290,2,0,L|256:252,1,60,2|0,0:2|0:2,0:0:0:0:
434,112,52159,5,4,0:2:0:0:
434,112,52811,1,2,0:2:0:0:
391,192,53464,1,0,0:2:0:0:
391,192,54116,1,2,0:2:0:0:
434,272,54768,1,0,0:2:0:0:
434,272,55420,1,2,0:2:0:0:
256,192,55638,12,0,57377,0:0:0:0:
256,192,58029,5,0,0:0:0:0:
256,192,58246,2,0,L|256:252,1,60,2|0,0:2|0:2,0:0:0:0:
408,87,59116,5,4,1:0:0:0:
438,264,59768,5,0,0:0:0:0:
449,323,59985,2,0,L|459:382,1,60,2|0,0:2|0:2,0:0:0:0:
408,87,60855,5,2,0:2:0:0:
378,255,61507,5,0,0:0:0:0:
389,314,61724,2,0,L|400:377,1,60,2|0,0:2|0:2,0:0:0:0:
408,87,62594,5,2,0:2:0:0:
318,246,63246,5,0,0:0:0:0:
329,305,63464,2,0,L|340:368,2,60,2|0|2,0:2|0:2|0:0,0:0:0:0:
408,87,64333,5,0,0:2:0:0:
378,255,64985,5,0,0:0:0:0:
389,314,65203,2,0,L|400:377,1,60,2|0,0:2|0:2,0:0:0:0:
408,87,66072,5,2,0:2:0:0:
438,264,66724,5,0,0:0:0:0:
448,323,66942,1,2,0:0:0:0:
459,382,67159,1,0,0:0:0:0:
408,87,67811,5,2,0:2:0:0:
378,255,68464,5,0,0:0:0:0:
389,314,68681,1,2,0:0:0:0:
400,374,68898,1,0,0:0:0:0:
408,87,69551,5,2,0:2:0:0:
318,246,70203,5,0,0:2:0:0:
329,305,70420,2,0,L|340:368,2,60,2|0|2,0:2|0:2|0:0,0:0:0:0:
272,285,71072,1,0,0:2:0:0:
187,369,71507,1,0,0:2:0:0:
102,284,71942,5,0,0:2:0:0:
144,241,72159,1,2,0:2:0:0:
186,198,72377,1,0,0:2:0:0:
143,155,72594,1,8,0:2:0:0:
100,112,72811,1,0,0:2:0:0:
57,154,73029,5,4,1:0:0:0:
57,274,73464,1,0,1:2:0:0:
116,274,73681,2,0,L|116:338,2,60,0|2|0,0:2|1:2|0:2,0:0:0:0:
158,232,74333,1,0,1:2:0:0:
262,293,74768,5,2,1:2:0:0:
262,172,75203,1,0,1:2:0:0:
321,172,75420,2,0,L|321:108,2,60,0|2|0,0:2|1:2|0:2,0:0:0:0:
363,214,76072,1,0,1:2:0:0:
453,293,76507,6,0,L|471:396,2,90,0|2|0,1:2|0:2|0:2,0:0:0:0:
495,250,77377,1,0,1:2:0:0:
452,207,77594,1,0,0:2:0:0:
409,164,77811,1,2,1:2:0:0:
451,121,78029,1,0,0:2:0:0:
493,78,78246,5,2,1:2:0:0:
429,14,78572,1,2,0:2:0:0:
365,77,78898,1,2,0:2:0:0:
365,77,79116,5,2,1:2:0:0:
301,140,79442,1,2,0:2:0:0:
240,79,79768,1,2,0:2:0:0:
240,79,79985,6,0,L|240:15,1,60,4|0,0:0|0:2,0:0:0:0:
179,20,80420,2,0,L|179:84,1,60,0|0,0:2|0:2,0:0:0:0:
118,79,80855,2,0,L|118:15,1,60,0|0,0:2|0:2,0:0:0:0:
57,20,81290,2,0,L|57:84,1,60,0|0,0:2|0:2,0:0:0:0:
57,138,81724,6,0,L|57:202,1,60,0|0,0:2|0:2,0:0:0:0:
117,198,82159,2,0,L|117:138,1,60,0|0,0:2|0:2,0:0:0:0:
177,138,82594,2,0,L|177:198,1,60,0|0,0:2|0:2,0:0:0:0:
238,198,83029,2,0,L|238:138,1,60,0|0,0:2|0:2,0:0:0:0:
298,138,83464,6,0,L|298:170,7,30,4|0|0|0|0|0|0|0,0:0|0:2|0:2|0:2|0:2|0:2|0:2|0:2,0:0:0:0:
298,168,84333,2,0,L|298:200,8,30,0|0|0|0|0|0|0|0|4,0:2|0:2|0:2|0:2|0:2|0:2|0:2|0:2|0:2,0:0:0:0:
363,86,86507,5,8,0:2:0:0:
363,86,86942,2,0,P|387:48|381:-17,2,90,4|2|0,0:0|0:2|0:2,0:0:0:0:
320,128,87811,1,0,0:2:0:0:
256,64,88138,1,2,0:2:0:0:
192,128,88464,1,0,0:2:0:0:
149,86,88681,6,0,P|125:48|131:-17,2,90,0|2|0,0:2|0:2|0:2,0:0:0:0:
192,128,89551,1,0,0:2:0:0:
256,192,89877,1,2,0:2:0:0:
192,256,90203,1,0,0:2:0:0:
149,298,90420,6,0,P|125:336|131:401,2,90,0|2|0,0:2|0:2|0:2,0:0:0:0:
192,256,91290,1,0,0:2:0:0:
234,298,91507,1,0,0:2:0:0:
276,255,91724,1,2,0:2:0:0:
318,212,91942,1,0,0:2:0:0:
360,254,92159,5,2,0:2:0:0:
423,317,92485,1,2,0:2:0:0:
486,253,92811,1,0,0:2:0:0:
486,253,93029,2,0,L|504:150,2,90,2|2|0,0:2|0:2|0:2,0:0:0:0:
466,309,93898,6,0,L|363:327,1,90,0|2,0:2|0:2,0:0:0:0:
313,260,94551,1,0,0:2:0:0:
313,260,94768,2,0,L|210:242,1,90,0|2,0:2|0:2,0:0:0:0:
160,308,95420,1,0,0:2:0:0:
160,308,95638,2,0,L|57:326,1,90,0|2,0:2|0:2,0:0:0:0:
2,264,96290,1,0,0:2:0:0:
2,264,96507,6,0,L|20:161,1,90,2|0,0:2|0:2,0:0:0:0:
97,134,97159,1,0,0:2:0:0:
150,107,97377,2,0,L|168:4,1,90,2|0,0:2|0:2,0:0:0:0:
254,2,98029,1,2,0:2:0:0:
296,44,98246,5,0,0:2:0:0:
253,86,98464,1,0,0:2:0:0:
295,128,98681,1,2,0:2:0:0:
337,170,98898,1,0,0:2:0:0:
294,212,99116,2,0,L|276:315,2,90,2|2|2,0:2|0:2|0:2,0:0:0:0:
251,169,99985,2,0,L|233:66,1,90,0|0,0:2|0:2,0:0:0:0:
28,191,100855,5,4,0:0:0:0:
28,280,101181,1,2,0:2:0:0:
91,343,101507,1,0,0:2:0:0:
133,300,101724,1,0,0:2:0:0:
133,209,102051,1,2,0:2:0:0:
196,145,102377,1,0,0:2:0:0:
238,187,102594,6,0,L|238:284,2,90,0|2|0,0:2|0:2|0:2,0:0:0:0:
280,144,103464,1,0,0:2:0:0:
343,80,103790,1,2,0:2:0:0:
406,143,104116,1,0,0:2:0:0:
406,202,104333,6,0,L|503:202,2,90,0|2|0,0:2|0:2|0:2,0:0:0:0:
363,244,105203,1,0,0:2:0:0:
320,286,105420,1,0,0:2:0:0:
277,243,105638,1,2,0:2:0:0:
234,200,105855,1,0,0:2:0:0:
191,242,106072,5,2,0:2:0:0:
127,305,106398,1,2,0:2:0:0:
63,241,106724,1,2,0:2:0:0:
20,198,106942,2,0,L|20:101,2,90,2|2|2,0:2|0:2|0:2,0:0:0:0:
5,256,107811,5,0,0:0:0:0:
68,319,108138,1,2,0:2:0:0:
131,255,108464,1,0,0:2:0:0:
173,212,108681,1,0,0:2:0:0:
236,275,109007,1,2,0:2:0:0:
299,211,109333,1,0,0:2:0:0:
341,168,109551,2,0,L|341:71,2,90,0|2|0,0:2|0:2|0:2,0:0:0:0:
383,210,110420,5,2,0:2:0:0:
383,299,110746,2,0,L|286:299,1,90,2|0,0:2|0:2,0:0:0:0:
232,299,111290,1,2,0:2:0:0:
232,209,111616,2,0,L|134:209,1,90,2|0,0:2|0:2,0:0:0:0:
82,209,112159,5,0,0:2:0:0:
39,251,112377,1,2,0:2:0:0:
81,293,112594,1,0,0:2:0:0:
38,335,112811,1,2,0:2:0:0:
80,377,113029,1,0,0:2:0:0:
320,360,114333,5,8,0:2:0:0:
320,360,114768,1,4,1:0:0:0:
257,296,115094,1,2,0:2:0:0:
321,232,115420,2,0,L|370:232,2,30,0|0|0,0:2|0:2|0:2,0:0:0:0:
258,168,115964,1,2,0:2:0:0:
195,104,116290,5,0,0:2:0:0:
195,104,116398,1,0,0:2:0:0:
195,104,116507,1,0,0:2:0:0:
259,40,116833,1,2,0:2:0:0:
317,104,117159,2,0,L|366:104,2,30,0|0|0,0:2|0:2|0:2,0:0:0:0:
258,168,117703,1,2,0:2:0:0:
195,231,118029,5,0,0:2:0:0:
195,231,118138,1,0,0:2:0:0:
195,231,118246,1,0,0:2:0:0:
259,294,118572,1,2,0:2:0:0:
323,230,118898,1,0,0:2:0:0:
366,272,119116,1,0,0:2:0:0:
409,229,119333,1,0,0:2:0:0:
452,271,119551,2,0,L|452:320,2,30,2|0|0,0:2|0:2|0:2,0:0:0:0:
495,228,119985,5,2,0:2:0:0:
495,228,120311,1,0,0:2:0:0:
495,137,120638,2,0,L|495:88,2,30,0|2|0,0:2|0:2|0:2,0:0:0:0:
415,176,121181,1,0,0:2:0:0:
335,137,121507,5,2,0:2:0:0:
335,137,121616,1,0,0:2:0:0:
335,137,121724,1,0,0:2:0:0:
335,227,122051,1,2,0:2:0:0:
246,227,122377,2,0,L|246:275,2,30,2|0|0,0:2|0:2|0:2,0:0:0:0:
246,137,122920,1,2,0:2:0:0:
157,137,123246,5,2,0:2:0:0:
157,137,123355,1,0,0:2:0:0:
157,137,123464,1,0,0:2:0:0:
157,227,123790,1,2,0:2:0:0:
68,227,124116,2,0,L|68:275,2,30,2|0|0,0:2|0:2|0:2,0:0:0:0:
68,137,124659,1,2,0:2:0:0:
68,47,124985,5,0,0:2:0:0:
68,47,125094,1,2,0:2:0:0:
68,47,125203,1,0,0:2:0:0:
68,227,125855,2,0,L|68:275,2,30,0|2|0,0:2|0:2|0:2,0:0:0:0:
27,183,126290,1,0,0:2:0:0:
70,140,126507,2,0,L|70:92,2,30,0|0|2,0:2|0:2|0:2,0:0:0:0:
112,183,126942,5,0,0:2:0:0:
176,246,127268,1,2,0:2:0:0:
240,182,127594,2,0,L|240:134,2,30,0|0|2,0:2|0:2|0:2,0:0:0:0:
282,224,128029,1,2,0:2:0:0:
326,266,128246,1,0,0:0:0:0:
374,314,128464,5,2,0:2:0:0:
374,314,128572,1,0,0:0:0:0:
374,314,128681,2,0,L|471:314,1,90,4|2,0:0|0:2,0:0:0:0:
497,237,129333,1,0,0:2:0:0:
497,237,129442,1,0,0:2:0:0:
497,237,129551,2,0,L|400:237,1,90,0|2,0:2|0:2,0:0:0:0:
374,160,130203,5,0,0:2:0:0:
374,160,130311,1,2,0:2:0:0:
374,160,130420,2,0,L|471:160,1,90,0|2,0:2|0:2,0:0:0:0:
497,83,131072,1,0,0:2:0:0:
497,83,131181,1,0,0:2:0:0:
497,83,131290,2,0,L|400:83,1,90,0|2,0:2|0:2,0:0:0:0:
317,83,131942,5,0,0:2:0:0:
317,83,132051,1,0,0:2:0:0:
317,83,132159,1,0,0:2:0:0:
254,146,132485,1,2,0:2:0:0:
191,82,132811,1,0,0:0:0:0:
191,82,132920,1,0,0:0:0:0:
191,82,133029,1,0,0:0:0:0:
149,124,133246,1,0,0:2:0:0:
107,81,133464,2,0,L|107:33,2,30,2|0|0,0:2|0:2|0:2,0:0:0:0:
65,123,133898,5,2,0:2:0:0:
65,123,134224,1,0,0:2:0:0:
65,213,134551,2,0,L|65:261,2,30,0|2|0,0:2|0:2|0:2,0:0:0:0:
129,149,135094,1,0,0:2:0:0:
129,239,135420,6,0,L|129:287,2,30,0|0|4,0:2|0:2|0:2,0:0:0:0:
193,175,135964,1,2,0:2:0:0:
193,175,136290,2,0,L|193:127,2,30,2|0|0,0:2|0:2|0:2,0:0:0:0:
257,238,136833,1,0,0:2:0:0:
257,238,137159,2,0,L|257:286,2,30,0|2|0,0:2|0:2|0:2,0:0:0:0:
321,174,137703,1,0,0:2:0:0:
321,174,138029,2,0,L|321:126,2,30,0|0|2,0:2|0:2|0:2,0:0:0:0:
385,237,138572,1,0,0:2:0:0:
385,237,138898,6,0,L|385:285,2,30,0|0|2,0:2|0:2|0:2,0:0:0:0:
449,173,139442,1,2,0:2:0:0:
386,109,139768,1,0,0:2:0:0:
344,66,139985,1,0,0:2:0:0:
305,109,140203,1,0,0:2:0:0:
263,67,140420,1,2,0:2:0:0:
221,25,140638,1,0,0:2:0:0:
179,68,140855,5,0,0:2:0:0:
179,68,141181,1,0,0:2:0:0:
179,68,141507,1,0,0:2:0:0:
137,110,141724,2,0,L|137:207,2,90,0|0|2,0:2|0:2|0:2,0:0:0:0:
