osu file format v14

[General]
AudioFilename: audioSingletap 200 BPM250BPM.mp3
AudioLeadIn: 0
PreviewTime: -1
Countdown: 1
SampleSet: Soft
StackLeniency: 0.2
Mode: 0
LetterboxInBreaks: 0
WidescreenStoryboard: 1

[Editor]
DistanceSpacing: 1.5
BeatDivisor: 4
GridSize: 16
TimelineZoom: 2.2

[Metadata]
Title:[Training] Singletaps
TitleUnicode:[Training] Singletaps
Artist:PlusPlus
ArtistUnicode:PlusPlus
Creator:PlusPlus
Version:Singletap 250 BPM
Source:
Tags:
BeatmapID:2159915
BeatmapSetID:1033070

[Difficulty]
HPDrainRate:3
CircleSize:4
OverallDifficulty:8
ApproachRate:9.2
SliderMultiplier:0.5
SliderTickRate:1

[Events]
//Background and Video events
0,0,"Night-sky-milky-way2.jpg",0,0
//Break Periods
//Storyboard Layer 0 (Background)
//Storyboard Layer 1 (Fail)
//Storyboard Layer 2 (Pass)
//Storyboard Layer 3 (Foreground)
//Storyboard Layer 4 (Overlay)
//Storyboard Sound Samples

[TimingPoints]
-24,240,4,2,0,100,1,0

[Colours]
Combo1 : 255,255,255
Combo2 : 255,255,255
SliderBorder : 255,255,255

[HitObjects]
32,64,3816,5,0,0:0:0:0:
96,64,4056,1,0,0:0:0:0:
160,64,4296,1,0,0:0:0:0:
224,64,4536,1,0,0:0:0:0:
288,64,4776,1,0,0:0:0:0:
352,64,5016,1,0,0:0:0:0:
416,64,5256,1,0,0:0:0:0:
480,64,5496,1,0,0:0:0:0:
496,144,5736,5,0,0:0:0:0:
464,144,5856,1,0,0:0:0:0:
432,144,5976,1,0,0:0:0:0:
400,144,6096,1,0,0:0:0:0:
368,144,6216,1,0,0:0:0:0:
336,144,6336,1,0,0:0:0:0:
304,144,6456,1,0,0:0:0:0:
272,144,6576,1,0,0:0:0:0:
240,144,6696,1,0,0:0:0:0:
208,144,6816,1,0,0:0:0:0:
176,144,6936,1,0,0:0:0:0:
144,144,7056,1,0,0:0:0:0:
112,144,7176,1,0,0:0:0:0:
80,144,7296,1,0,0:0:0:0:
48,144,7416,1,0,0:0:0:0:
16,144,7536,1,0,0:0:0:0:
32,224,7656,5,0,0:0:0:0:
96,224,7896,1,0,0:0:0:0:
160,224,8136,1,0,0:0:0:0:
224,224,8376,1,0,0:0:0:0:
288,224,8616,1,0,0:0:0:0:
352,224,8856,1,0,0:0:0:0:
416,224,9096,1,0,0:0:0:0:
480,224,9336,1,0,0:0:0:0:
496,304,9576,5,0,0:0:0:0:
464,304,9696,1,0,0:0:0:0:
432,304,9816,1,0,0:0:0:0:
400,304,9936,1,0,0:0:0:0:
368,304,10056,1,0,0:0:0:0:
336,304,10176,1,0,0:0:0:0:
304,304,10296,1,0,0:0:0:0:
272,304,10416,1,0,0:0:0:0:
240,304,10536,1,0,0:0:0:0:
208,304,10656,1,0,0:0:0:0:
176,304,10776,1,0,0:0:0:0:
144,304,10896,1,0,0:0:0:0:
112,304,11016,1,0,0:0:0:0:
80,304,11136,1,0,0:0:0:0:
48,304,11256,1,0,0:0:0:0:
16,304,11376,1,0,0:0:0:0:
32,224,11496,5,0,0:0:0:0:
96,224,11736,1,0,0:0:0:0:
160,224,11976,1,0,0:0:0:0:
224,224,12216,1,0,0:0:0:0:
288,224,12456,1,0,0:0:0:0:
352,224,12696,1,0,0:0:0:0:
416,224,12936,1,0,0:0:0:0:
480,224,13176,1,0,0:0:0:0:
496,144,13416,5,0,0:0:0:0:
464,144,13536,1,0,0:0:0:0:
432,144,13656,1,0,0:0:0:0:
400,144,13776,1,0,0:0:0:0:
368,144,13896,1,0,0:0:0:0:
336,144,14016,1,0,0:0:0:0:
304,144,14136,1,0,0:0:0:0:
272,144,14256,1,0,0:0:0:0:
240,144,14376,1,0,0:0:0:0:
208,144,14496,1,0,0:0:0:0:
176,144,14616,1,0,0:0:0:0:
144,144,14736,1,0,0:0:0:0:
112,144,14856,1,0,0:0:0:0:
80,144,14976,1,0,0:0:0:0:
48,144,15096,1,0,0:0:0:0:
16,144,15216,1,0,0:0:0:0:
32,64,15336,5,0,0:0:0:0:
176,64,15576,1,0,0:0:0:0:
336,64,15816,1,0,0:0:0:0:
480,64,16056,1,0,0:0:0:0:
480,64,16296,5,0,0:0:0:0:
336,64,16536,1,0,0:0:0:0:
176,64,16776,1,0,0:0:0:0:
32,64,17016,1,0,0:0:0:0:
16,144,17256,5,0,0:0:0:0:
48,144,17376,1,0,0:0:0:0:
80,144,17496,1,0,0:0:0:0:
112,144,17616,1,0,0:0:0:0:
144,144,17736,1,0,0:0:0:0:
176,144,17856,1,0,0:0:0:0:
208,144,17976,1,0,0:0:0:0:
240,144,18096,1,0,0:0:0:0:
272,144,18216,1,0,0:0:0:0:
304,144,18336,1,0,0:0:0:0:
336,144,18456,1,0,0:0:0:0:
368,144,18576,1,0,0:0:0:0:
400,144,18696,1,0,0:0:0:0:
432,144,18816,1,0,0:0:0:0:
464,144,18936,1,0,0:0:0:0:
496,144,19056,1,0,0:0:0:0:
480,224,19176,5,0,0:0:0:0:
416,224,19416,1,0,0:0:0:0:
352,224,19656,1,0,0:0:0:0:
288,224,19896,1,0,0:0:0:0:
224,224,20136,1,0,0:0:0:0:
160,224,20376,1,0,0:0:0:0:
96,224,20616,1,0,0:0:0:0:
32,224,20856,1,0,0:0:0:0:
16,304,21096,5,0,0:0:0:0:
48,304,21216,1,0,0:0:0:0:
80,304,21336,1,0,0:0:0:0:
112,304,21456,1,0,0:0:0:0:
144,304,21576,1,0,0:0:0:0:
176,304,21696,1,0,0:0:0:0:
208,304,21816,1,0,0:0:0:0:
240,304,21936,1,0,0:0:0:0:
272,304,22056,1,0,0:0:0:0:
304,304,22176,1,0,0:0:0:0:
336,304,22296,1,0,0:0:0:0:
368,304,22416,1,0,0:0:0:0:
400,304,22536,1,0,0:0:0:0:
432,304,22656,1,0,0:0:0:0:
464,304,22776,1,0,0:0:0:0:
496,304,22896,1,0,0:0:0:0:
480,224,23016,5,0,0:0:0:0:
416,224,23256,1,0,0:0:0:0:
352,224,23496,1,0,0:0:0:0:
288,224,23736,1,0,0:0:0:0:
224,224,23976,1,0,0:0:0:0:
160,224,24216,1,0,0:0:0:0:
96,224,24456,1,0,0:0:0:0:
32,224,24696,1,0,0:0:0:0:
16,144,24936,5,0,0:0:0:0:
48,144,25056,1,0,0:0:0:0:
80,144,25176,1,0,0:0:0:0:
112,144,25296,1,0,0:0:0:0:
144,144,25416,1,0,0:0:0:0:
176,144,25536,1,0,0:0:0:0:
208,144,25656,1,0,0:0:0:0:
240,144,25776,1,0,0:0:0:0:
272,144,25896,1,0,0:0:0:0:
304,144,26016,1,0,0:0:0:0:
336,144,26136,1,0,0:0:0:0:
368,144,26256,1,0,0:0:0:0:
400,144,26376,1,0,0:0:0:0:
432,144,26496,1,0,0:0:0:0:
464,144,26616,1,0,0:0:0:0:
496,144,26736,1,0,0:0:0:0:
480,64,26856,5,0,0:0:0:0:
336,64,27096,1,0,0:0:0:0:
176,64,27336,1,0,0:0:0:0:
32,64,27576,1,0,0:0:0:0:
32,64,27816,5,0,0:0:0:0:
176,64,28056,1,0,0:0:0:0:
336,64,28296,1,0,0:0:0:0:
480,64,28536,1,0,0:0:0:0:
496,144,28776,5,0,0:0:0:0:
464,144,28896,1,0,0:0:0:0:
432,144,29016,1,0,0:0:0:0:
400,144,29136,1,0,0:0:0:0:
368,144,29256,1,0,0:0:0:0:
336,144,29376,1,0,0:0:0:0:
304,144,29496,1,0,0:0:0:0:
272,144,29616,1,0,0:0:0:0:
240,144,29736,1,0,0:0:0:0:
208,144,29856,1,0,0:0:0:0:
176,144,29976,1,0,0:0:0:0:
144,144,30096,1,0,0:0:0:0:
112,144,30216,1,0,0:0:0:0:
80,144,30336,1,0,0:0:0:0:
48,144,30456,1,0,0:0:0:0:
16,144,30576,1,0,0:0:0:0:
32,224,30696,5,0,0:0:0:0:
96,224,30936,1,0,0:0:0:0:
160,224,31176,1,0,0:0:0:0:
224,224,31416,1,0,0:0:0:0:
288,224,31656,1,0,0:0:0:0:
352,224,31896,1,0,0:0:0:0:
416,224,32136,1,0,0:0:0:0:
480,224,32376,1,0,0:0:0:0:
496,304,32616,5,0,0:0:0:0:
464,304,32736,1,0,0:0:0:0:
432,304,32856,1,0,0:0:0:0:
400,304,32976,1,0,0:0:0:0:
368,304,33096,1,0,0:0:0:0:
336,304,33216,1,0,0:0:0:0:
304,304,33336,1,0,0:0:0:0:
272,304,33456,1,0,0:0:0:0:
240,304,33576,1,0,0:0:0:0:
208,304,33696,1,0,0:0:0:0:
176,304,33816,1,0,0:0:0:0:
144,304,33936,1,0,0:0:0:0:
112,304,34056,1,0,0:0:0:0:
80,304,34176,1,0,0:0:0:0:
48,304,34296,1,0,0:0:0:0:
16,304,34416,1,0,0:0:0:0:
32,224,34536,5,0,0:0:0:0:
96,224,34776,1,0,0:0:0:0:
160,224,35016,1,0,0:0:0:0:
224,224,35256,1,0,0:0:0:0:
288,224,35496,1,0,0:0:0:0:
352,224,35736,1,0,0:0:0:0:
416,224,35976,1,0,0:0:0:0:
480,224,36216,1,0,0:0:0:0:
496,144,36456,5,0,0:0:0:0:
464,144,36576,1,0,0:0:0:0:
432,144,36696,1,0,0:0:0:0:
400,144,36816,1,0,0:0:0:0:
368,144,36936,1,0,0:0:0:0:
336,144,37056,1,0,0:0:0:0:
304,144,37176,1,0,0:0:0:0:
272,144,37296,1,0,0:0:0:0:
240,144,37416,1,0,0:0:0:0:
208,144,37536,1,0,0:0:0:0:
176,144,37656,1,0,0:0:0:0:
144,144,37776,1,0,0:0:0:0:
112,144,37896,1,0,0:0:0:0:
80,144,38016,1,0,0:0:0:0:
48,144,38136,1,0,0:0:0:0:
16,144,38256,1,0,0:0:0:0:
32,64,38376,5,0,0:0:0:0:
176,64,38616,1,0,0:0:0:0:
336,64,38856,1,0,0:0:0:0:
480,64,39096,1,0,0:0:0:0:
480,64,39336,5,0,0:0:0:0:
336,64,39576,1,0,0:0:0:0:
176,64,39816,1,0,0:0:0:0:
32,64,40056,1,0,0:0:0:0:
16,144,40296,5,0,0:0:0:0:
48,144,40416,1,0,0:0:0:0:
80,144,40536,1,0,0:0:0:0:
112,144,40656,1,0,0:0:0:0:
144,144,40776,1,0,0:0:0:0:
176,144,40896,1,0,0:0:0:0:
208,144,41016,1,0,0:0:0:0:
240,144,41136,1,0,0:0:0:0:
272,144,41256,1,0,0:0:0:0:
304,144,41376,1,0,0:0:0:0:
336,144,41496,1,0,0:0:0:0:
368,144,41616,1,0,0:0:0:0:
400,144,41736,1,0,0:0:0:0:
432,144,41856,1,0,0:0:0:0:
464,144,41976,1,0,0:0:0:0:
496,144,42096,1,0,0:0:0:0:
480,224,42216,5,0,0:0:0:0:
416,224,42456,1,0,0:0:0:0:
352,224,42696,1,0,0:0:0:0:
288,224,42936,1,0,0:0:0:0:
224,224,43176,1,0,0:0:0:0:
160,224,43416,1,0,0:0:0:0:
96,224,43656,1,0,0:0:0:0:
32,224,43896,1,0,0:0:0:0:
16,304,44136,5,0,0:0:0:0:
48,304,44256,1,0,0:0:0:0:
80,304,44376,1,0,0:0:0:0:
112,304,44496,1,0,0:0:0:0:
144,304,44616,1,0,0:0:0:0:
176,304,44736,1,0,0:0:0:0:
208,304,44856,1,0,0:0:0:0:
240,304,44976,1,0,0:0:0:0:
272,304,45096,1,0,0:0:0:0:
304,304,45216,1,0,0:0:0:0:
336,304,45336,1,0,0:0:0:0:
368,304,45456,1,0,0:0:0:0:
400,304,45576,1,0,0:0:0:0:
432,304,45696,1,0,0:0:0:0:
464,304,45816,1,0,0:0:0:0:
496,304,45936,1,0,0:0:0:0:
480,224,46056,5,0,0:0:0:0:
416,224,46296,1,0,0:0:0:0:
352,224,46536,1,0,0:0:0:0:
288,224,46776,1,0,0:0:0:0:
224,224,47016,1,0,0:0:0:0:
160,224,47256,1,0,0:0:0:0:
96,224,47496,1,0,0:0:0:0:
32,224,47736,1,0,0:0:0:0:
16,144,47976,5,0,0:0:0:0:
48,144,48096,1,0,0:0:0:0:
80,144,48216,1,0,0:0:0:0:
112,144,48336,1,0,0:0:0:0:
144,144,48456,1,0,0:0:0:0:
176,144,48576,1,0,0:0:0:0:
208,144,48696,1,0,0:0:0:0:
240,144,48816,1,0,0:0:0:0:
272,144,48936,1,0,0:0:0:0:
304,144,49056,1,0,0:0:0:0:
336,144,49176,1,0,0:0:0:0:
368,144,49296,1,0,0:0:0:0:
400,144,49416,1,0,0:0:0:0:
432,144,49536,1,0,0:0:0:0:
464,144,49656,1,0,0:0:0:0:
496,144,49776,1,0,0:0:0:0:
480,64,49896,5,0,0:0:0:0:
336,64,50136,1,0,0:0:0:0:
176,64,50376,1,0,0:0:0:0:
32,64,50616,1,0,0:0:0:0:
32,64,50856,5,0,0:0:0:0:
176,64,51096,1,0,0:0:0:0:
336,64,51336,1,0,0:0:0:0:
480,64,51576,1,0,0:0:0:0:
496,144,51816,5,0,0:0:0:0:
464,144,51936,1,0,0:0:0:0:
432,144,52056,1,0,0:0:0:0:
400,144,52176,1,0,0:0:0:0:
368,144,52296,1,0,0:0:0:0:
336,144,52416,1,0,0:0:0:0:
304,144,52536,1,0,0:0:0:0:
272,144,52656,1,0,0:0:0:0:
240,144,52776,1,0,0:0:0:0:
208,144,52896,1,0,0:0:0:0:
176,144,53016,1,0,0:0:0:0:
144,144,53136,1,0,0:0:0:0:
112,144,53256,1,0,0:0:0:0:
80,144,53376,1,0,0:0:0:0:
48,144,53496,1,0,0:0:0:0:
16,144,53616,1,0,0:0:0:0:
32,224,53736,5,0,0:0:0:0:
96,224,53976,1,0,0:0:0:0:
160,224,54216,1,0,0:0:0:0:
224,224,54456,1,0,0:0:0:0:
288,224,54696,1,0,0:0:0:0:
352,224,54936,1,0,0:0:0:0:
416,224,55176,1,0,0:0:0:0:
480,224,55416,1,0,0:0:0:0:
496,304,55656,5,0,0:0:0:0:
464,304,55776,1,0,0:0:0:0:
432,304,55896,1,0,0:0:0:0:
400,304,56016,1,0,0:0:0:0:
368,304,56136,1,0,0:0:0:0:
336,304,56256,1,0,0:0:0:0:
304,304,56376,1,0,0:0:0:0:
272,304,56496,1,0,0:0:0:0:
240,304,56616,1,0,0:0:0:0:
208,304,56736,1,0,0:0:0:0:
176,304,56856,1,0,0:0:0:0:
144,304,56976,1,0,0:0:0:0:
112,304,57096,1,0,0:0:0:0:
80,304,57216,1,0,0:0:0:0:
48,304,57336,1,0,0:0:0:0:
16,304,57456,1,0,0:0:0:0:
32,224,57576,5,0,0:0:0:0:
96,224,57816,1,0,0:0:0:0:
160,224,58056,1,0,0:0:0:0:
224,224,58296,1,0,0:0:0:0:
288,224,58536,1,0,0:0:0:0:
352,224,58776,1,0,0:0:0:0:
416,224,59016,1,0,0:0:0:0:
480,224,59256,1,0,0:0:0:0:
496,144,59496,5,0,0:0:0:0:
464,144,59616,1,0,0:0:0:0:
432,144,59736,1,0,0:0:0:0:
400,144,59856,1,0,0:0:0:0:
368,144,59976,1,0,0:0:0:0:
336,144,60096,1,0,0:0:0:0:
304,144,60216,1,0,0:0:0:0:
272,144,60336,1,0,0:0:0:0:
240,144,60456,1,0,0:0:0:0:
208,144,60576,1,0,0:0:0:0:
176,144,60696,1,0,0:0:0:0:
144,144,60816,1,0,0:0:0:0:
112,144,60936,1,0,0:0:0:0:
80,144,61056,1,0,0:0:0:0:
48,144,61176,1,0,0:0:0:0:
16,144,61296,1,0,0:0:0:0:
32,64,61416,5,0,0:0:0:0:
176,64,61656,1,0,0:0:0:0:
336,64,61896,1,0,0:0:0:0:
480,64,62136,1,0,0:0:0:0:
480,64,62376,5,0,0:0:0:0:
336,64,62616,1,0,0:0:0:0:
176,64,62856,1,0,0:0:0:0:
32,64,63096,1,0,0:0:0:0:
16,144,63336,5,0,0:0:0:0:
48,144,63456,1,0,0:0:0:0:
80,144,63576,1,0,0:0:0:0:
112,144,63696,1,0,0:0:0:0:
144,144,63816,1,0,0:0:0:0:
176,144,63936,1,0,0:0:0:0:
208,144,64056,1,0,0:0:0:0:
240,144,64176,1,0,0:0:0:0:
272,144,64296,1,0,0:0:0:0:
304,144,64416,1,0,0:0:0:0:
336,144,64536,1,0,0:0:0:0:
368,144,64656,1,0,0:0:0:0:
400,144,64776,1,0,0:0:0:0:
432,144,64896,1,0,0:0:0:0:
464,144,65016,1,0,0:0:0:0:
496,144,65136,1,0,0:0:0:0:
480,224,65256,5,0,0:0:0:0:
416,224,65496,1,0,0:0:0:0:
352,224,65736,1,0,0:0:0:0:
288,224,65976,1,0,0:0:0:0:
224,224,66216,1,0,0:0:0:0:
160,224,66456,1,0,0:0:0:0:
96,224,66696,1,0,0:0:0:0:
32,224,66936,1,0,0:0:0:0:
16,304,67176,5,0,0:0:0:0:
48,304,67296,1,0,0:0:0:0:
80,304,67416,1,0,0:0:0:0:
112,304,67536,1,0,0:0:0:0:
144,304,67656,1,0,0:0:0:0:
176,304,67776,1,0,0:0:0:0:
208,304,67896,1,0,0:0:0:0:
240,304,68016,1,0,0:0:0:0:
272,304,68136,1,0,0:0:0:0:
304,304,68256,1,0,0:0:0:0:
336,304,68376,1,0,0:0:0:0:
368,304,68496,1,0,0:0:0:0:
400,304,68616,1,0,0:0:0:0:
432,304,68736,1,0,0:0:0:0:
464,304,68856,1,0,0:0:0:0:
496,304,68976,1,0,0:0:0:0:
480,224,69096,5,0,0:0:0:0:
416,224,69336,1,0,0:0:0:0:
352,224,69576,1,0,0:0:0:0:
288,224,69816,1,0,0:0:0:0:
224,224,70056,1,0,0:0:0:0:
160,224,70296,1,0,0:0:0:0:
96,224,70536,1,0,0:0:0:0:
32,224,70776,1,0,0:0:0:0:
16,144,71016,5,0,0:0:0:0:
48,144,71136,1,0,0:0:0:0:
80,144,71256,1,0,0:0:0:0:
112,144,71376,1,0,0:0:0:0:
144,144,71496,1,0,0:0:0:0:
176,144,71616,1,0,0:0:0:0:
208,144,71736,1,0,0:0:0:0:
240,144,71856,1,0,0:0:0:0:
272,144,71976,1,0,0:0:0:0:
304,144,72096,1,0,0:0:0:0:
336,144,72216,1,0,0:0:0:0:
368,144,72336,1,0,0:0:0:0:
400,144,72456,1,0,0:0:0:0:
432,144,72576,1,0,0:0:0:0:
464,144,72696,1,0,0:0:0:0:
496,144,72816,1,0,0:0:0:0:
480,64,72936,5,0,0:0:0:0:
336,64,73176,1,0,0:0:0:0:
176,64,73416,1,0,0:0:0:0:
32,64,73656,1,0,0:0:0:0:
32,64,73896,5,0,0:0:0:0:
176,64,74136,1,0,0:0:0:0:
336,64,74376,1,0,0:0:0:0:
480,64,74616,1,0,0:0:0:0:
496,144,74856,5,0,0:0:0:0:
464,144,74976,1,0,0:0:0:0:
432,144,75096,1,0,0:0:0:0:
400,144,75216,1,0,0:0:0:0:
368,144,75336,1,0,0:0:0:0:
336,144,75456,1,0,0:0:0:0:
304,144,75576,1,0,0:0:0:0:
272,144,75696,1,0,0:0:0:0:
240,144,75816,1,0,0:0:0:0:
208,144,75936,1,0,0:0:0:0:
176,144,76056,1,0,0:0:0:0:
144,144,76176,1,0,0:0:0:0:
112,144,76296,1,0,0:0:0:0:
80,144,76416,1,0,0:0:0:0:
48,144,76536,1,0,0:0:0:0:
16,144,76656,1,0,0:0:0:0:
32,224,76776,5,0,0:0:0:0:
96,224,77016,1,0,0:0:0:0:
160,224,77256,1,0,0:0:0:0:
224,224,77496,1,0,0:0:0:0:
288,224,77736,1,0,0:0:0:0:
352,224,77976,1,0,0:0:0:0:
416,224,78216,1,0,0:0:0:0:
480,224,78456,1,0,0:0:0:0:
496,304,78696,5,0,0:0:0:0:
464,304,78816,1,0,0:0:0:0:
432,304,78936,1,0,0:0:0:0:
400,304,79056,1,0,0:0:0:0:
368,304,79176,1,0,0:0:0:0:
336,304,79296,1,0,0:0:0:0:
304,304,79416,1,0,0:0:0:0:
272,304,79536,1,0,0:0:0:0:
240,304,79656,1,0,0:0:0:0:
208,304,79776,1,0,0:0:0:0:
176,304,79896,1,0,0:0:0:0:
144,304,80016,1,0,0:0:0:0:
112,304,80136,1,0,0:0:0:0:
80,304,80256,1,0,0:0:0:0:
48,304,80376,1,0,0:0:0:0:
16,304,80496,1,0,0:0:0:0:
32,224,80616,5,0,0:0:0:0:
96,224,80856,1,0,0:0:0:0:
160,224,81096,1,0,0:0:0:0:
224,224,81336,1,0,0:0:0:0:
288,224,81576,1,0,0:0:0:0:
352,224,81816,1,0,0:0:0:0:
416,224,82056,1,0,0:0:0:0:
480,224,82296,1,0,0:0:0:0:
496,144,82536,5,0,0:0:0:0:
464,144,82656,1,0,0:0:0:0:
432,144,82776,1,0,0:0:0:0:
400,144,82896,1,0,0:0:0:0:
368,144,83016,1,0,0:0:0:0:
336,144,83136,1,0,0:0:0:0:
304,144,83256,1,0,0:0:0:0:
272,144,83376,1,0,0:0:0:0:
240,144,83496,1,0,0:0:0:0:
208,144,83616,1,0,0:0:0:0:
176,144,83736,1,0,0:0:0:0:
144,144,83856,1,0,0:0:0:0:
112,144,83976,1,0,0:0:0:0:
80,144,84096,1,0,0:0:0:0:
48,144,84216,1,0,0:0:0:0:
16,144,84336,1,0,0:0:0:0:
32,64,84456,5,0,0:0:0:0:
176,64,84696,1,0,0:0:0:0:
336,64,84936,1,0,0:0:0:0:
480,64,85176,1,0,0:0:0:0:
480,64,85416,5,0,0:0:0:0:
336,64,85656,1,0,0:0:0:0:
176,64,85896,1,0,0:0:0:0:
32,64,86136,1,0,0:0:0:0:
16,144,86376,5,0,0:0:0:0:
48,144,86496,1,0,0:0:0:0:
80,144,86616,1,0,0:0:0:0:
112,144,86736,1,0,0:0:0:0:
144,144,86856,1,0,0:0:0:0:
176,144,86976,1,0,0:0:0:0:
208,144,87096,1,0,0:0:0:0:
240,144,87216,1,0,0:0:0:0:
272,144,87336,1,0,0:0:0:0:
304,144,87456,1,0,0:0:0:0:
336,144,87576,1,0,0:0:0:0:
368,144,87696,1,0,0:0:0:0:
400,144,87816,1,0,0:0:0:0:
432,144,87936,1,0,0:0:0:0:
464,144,88056,1,0,0:0:0:0:
496,144,88176,1,0,0:0:0:0:
480,224,88296,5,0,0:0:0:0:
416,224,88536,1,0,0:0:0:0:
352,224,88776,1,0,0:0:0:0:
288,224,89016,1,0,0:0:0:0:
224,224,89256,1,0,0:0:0:0:
160,224,89496,1,0,0:0:0:0:
96,224,89736,1,0,0:0:0:0:
32,224,89976,1,0,0:0:0:0:
16,304,90216,5,0,0:0:0:0:
48,304,90336,1,0,0:0:0:0:
80,304,90456,1,0,0:0:0:0:
112,304,90576,1,0,0:0:0:0:
144,304,90696,1,0,0:0:0:0:
176,304,90816,1,0,0:0:0:0:
208,304,90936,1,0,0:0:0:0:
240,304,91056,1,0,0:0:0:0:
272,304,91176,1,0,0:0:0:0:
304,304,91296,1,0,0:0:0:0:
336,304,91416,1,0,0:0:0:0:
368,304,91536,1,0,0:0:0:0:
400,304,91656,1,0,0:0:0:0:
432,304,91776,1,0,0:0:0:0:
464,304,91896,1,0,0:0:0:0:
496,304,92016,1,0,0:0:0:0:
480,224,92136,5,0,0:0:0:0:
416,224,92376,1,0,0:0:0:0:
352,224,92616,1,0,0:0:0:0:
288,224,92856,1,0,0:0:0:0:
224,224,93096,1,0,0:0:0:0:
160,224,93336,1,0,0:0:0:0:
96,224,93576,1,0,0:0:0:0:
32,224,93816,1,0,0:0:0:0:
16,144,94056,5,0,0:0:0:0:
48,144,94176,1,0,0:0:0:0:
80,144,94296,1,0,0:0:0:0:
112,144,94416,1,0,0:0:0:0:
144,144,94536,1,0,0:0:0:0:
176,144,94656,1,0,0:0:0:0:
208,144,94776,1,0,0:0:0:0:
240,144,94896,1,0,0:0:0:0:
272,144,95016,1,0,0:0:0:0:
304,144,95136,1,0,0:0:0:0:
336,144,95256,1,0,0:0:0:0:
368,144,95376,1,0,0:0:0:0:
400,144,95496,1,0,0:0:0:0:
432,144,95616,1,0,0:0:0:0:
464,144,95736,1,0,0:0:0:0:
496,144,95856,1,0,0:0:0:0:
480,64,95976,5,0,0:0:0:0:
336,64,96216,1,0,0:0:0:0:
176,64,96456,1,0,0:0:0:0:
32,64,96696,1,0,0:0:0:0:
32,64,96936,5,0,0:0:0:0:
176,64,97176,1,0,0:0:0:0:
336,64,97416,1,0,0:0:0:0:
480,64,97656,1,0,0:0:0:0:
496,144,97896,5,0,0:0:0:0:
464,144,98016,1,0,0:0:0:0:
432,144,98136,1,0,0:0:0:0:
400,144,98256,1,0,0:0:0:0:
368,144,98376,1,0,0:0:0:0:
336,144,98496,1,0,0:0:0:0:
304,144,98616,1,0,0:0:0:0:
272,144,98736,1,0,0:0:0:0:
240,144,98856,1,0,0:0:0:0:
208,144,98976,1,0,0:0:0:0:
176,144,99096,1,0,0:0:0:0:
144,144,99216,1,0,0:0:0:0:
112,144,99336,1,0,0:0:0:0:
80,144,99456,1,0,0:0:0:0:
48,144,99576,1,0,0:0:0:0:
16,144,99696,1,0,0:0:0:0:
32,224,99816,5,0,0:0:0:0:
96,224,100056,1,0,0:0:0:0:
160,224,100296,1,0,0:0:0:0:
224,224,100536,1,0,0:0:0:0:
288,224,100776,1,0,0:0:0:0:
352,224,101016,1,0,0:0:0:0:
416,224,101256,1,0,0:0:0:0:
480,224,101496,1,0,0:0:0:0:
496,304,101736,5,0,0:0:0:0:
464,304,101856,1,0,0:0:0:0:
432,304,101976,1,0,0:0:0:0:
400,304,102096,1,0,0:0:0:0:
368,304,102216,1,0,0:0:0:0:
336,304,102336,1,0,0:0:0:0:
304,304,102456,1,0,0:0:0:0:
272,304,102576,1,0,0:0:0:0:
240,304,102696,1,0,0:0:0:0:
208,304,102816,1,0,0:0:0:0:
176,304,102936,1,0,0:0:0:0:
144,304,103056,1,0,0:0:0:0:
112,304,103176,1,0,0:0:0:0:
80,304,103296,1,0,0:0:0:0:
48,304,103416,1,0,0:0:0:0:
16,304,103536,1,0,0:0:0:0:
32,224,103656,5,0,0:0:0:0:
96,224,103896,1,0,0:0:0:0:
160,224,104136,1,0,0:0:0:0:
224,224,104376,1,0,0:0:0:0:
288,224,104616,1,0,0:0:0:0:
352,224,104856,1,0,0:0:0:0:
416,224,105096,1,0,0:0:0:0:
480,224,105336,1,0,0:0:0:0:
496,144,105576,5,0,0:0:0:0:
464,144,105696,1,0,0:0:0:0:
432,144,105816,1,0,0:0:0:0:
400,144,105936,1,0,0:0:0:0:
368,144,106056,1,0,0:0:0:0:
336,144,106176,1,0,0:0:0:0:
304,144,106296,1,0,0:0:0:0:
272,144,106416,1,0,0:0:0:0:
240,144,106536,1,0,0:0:0:0:
208,144,106656,1,0,0:0:0:0:
176,144,106776,1,0,0:0:0:0:
144,144,106896,1,0,0:0:0:0:
112,144,107016,1,0,0:0:0:0:
80,144,107136,1,0,0:0:0:0:
48,144,107256,1,0,0:0:0:0:
16,144,107376,1,0,0:0:0:0:
32,64,107496,5,0,0:0:0:0:
176,64,107736,1,0,0:0:0:0:
336,64,107976,1,0,0:0:0:0:
480,64,108216,1,0,0:0:0:0:
480,64,108456,5,0,0:0:0:0:
336,64,108696,1,0,0:0:0:0:
176,64,108936,1,0,0:0:0:0:
32,64,109176,1,0,0:0:0:0:
16,144,109416,5,0,0:0:0:0:
48,144,109536,1,0,0:0:0:0:
80,144,109656,1,0,0:0:0:0:
112,144,109776,1,0,0:0:0:0:
144,144,109896,1,0,0:0:0:0:
176,144,110016,1,0,0:0:0:0:
208,144,110136,1,0,0:0:0:0:
240,144,110256,1,0,0:0:0:0:
272,144,110376,1,0,0:0:0:0:
304,144,110496,1,0,0:0:0:0:
336,144,110616,1,0,0:0:0:0:
368,144,110736,1,0,0:0:0:0:
400,144,110856,1,0,0:0:0:0:
432,144,110976,1,0,0:0:0:0:
464,144,111096,1,0,0:0:0:0:
496,144,111216,1,0,0:0:0:0:
480,224,111336,5,0,0:0:0:0:
416,224,111576,1,0,0:0:0:0:
352,224,111816,1,0,0:0:0:0:
288,224,112056,1,0,0:0:0:0:
224,224,112296,1,0,0:0:0:0:
160,224,112536,1,0,0:0:0:0:
96,224,112776,1,0,0:0:0:0:
32,224,113016,1,0,0:0:0:0:
16,304,113256,5,0,0:0:0:0:
48,304,113376,1,0,0:0:0:0:
80,304,113496,1,0,0:0:0:0:
112,304,113616,1,0,0:0:0:0:
144,304,113736,1,0,0:0:0:0:
176,304,113856,1,0,0:0:0:0:
208,304,113976,1,0,0:0:0:0:
240,304,114096,1,0,0:0:0:0:
272,304,114216,1,0,0:0:0:0:
304,304,114336,1,0,0:0:0:0:
336,304,114456,1,0,0:0:0:0:
368,304,114576,1,0,0:0:0:0:
400,304,114696,1,0,0:0:0:0:
432,304,114816,1,0,0:0:0:0:
464,304,114936,1,0,0:0:0:0:
496,304,115056,1,0,0:0:0:0:
480,224,115176,5,0,0:0:0:0:
416,224,115416,1,0,0:0:0:0:
352,224,115656,1,0,0:0:0:0:
288,224,115896,1,0,0:0:0:0:
224,224,116136,1,0,0:0:0:0:
160,224,116376,1,0,0:0:0:0:
96,224,116616,1,0,0:0:0:0:
32,224,116856,1,0,0:0:0:0:
16,144,117096,5,0,0:0:0:0:
48,144,117216,1,0,0:0:0:0:
80,144,117336,1,0,0:0:0:0:
112,144,117456,1,0,0:0:0:0:
144,144,117576,1,0,0:0:0:0:
176,144,117696,1,0,0:0:0:0:
208,144,117816,1,0,0:0:0:0:
240,144,117936,1,0,0:0:0:0:
272,144,118056,1,0,0:0:0:0:
304,144,118176,1,0,0:0:0:0:
336,144,118296,1,0,0:0:0:0:
368,144,118416,1,0,0:0:0:0:
400,144,118536,1,0,0:0:0:0:
432,144,118656,1,0,0:0:0:0:
464,144,118776,1,0,0:0:0:0:
496,144,118896,1,0,0:0:0:0:
