osu file format v14

[General]
AudioFilename: audioSingletap220BPM.mp3
AudioLeadIn: 0
PreviewTime: -1
Countdown: 1
SampleSet: Soft
StackLeniency: 0.2
Mode: 0
LetterboxInBreaks: 0
WidescreenStoryboard: 1

[Editor]
DistanceSpacing: 1.5
BeatDivisor: 4
GridSize: 16
TimelineZoom: 2.2

[Metadata]
Title:[Training] Singletaps
TitleUnicode:[Training] Singletaps
Artist:PlusPlus
ArtistUnicode:PlusPlus
Creator:PlusPlus
Version:Singletap 220 BPM
Source:
Tags:
BeatmapID:2159912
BeatmapSetID:1033070

[Difficulty]
HPDrainRate:3
CircleSize:4
OverallDifficulty:8
ApproachRate:9.2
SliderMultiplier:0.5
SliderTickRate:1

[Events]
//Background and Video events
0,0,"Night-sky-milky-way2.jpg",0,0
//Break Periods
//Storyboard Layer 0 (Background)
//Storyboard Layer 1 (Fail)
//Storyboard Layer 2 (Pass)
//Storyboard Layer 3 (Foreground)
//Storyboard Layer 4 (Overlay)
//Storyboard Sound Samples

[TimingPoints]
-27,272.7273,4,2,0,100,1,0

[Colours]
Combo1 : 255,255,255
Combo2 : 255,255,255
SliderBorder : 255,255,255

[HitObjects]
32,64,4336,5,0,0:0:0:0:
96,64,4609,1,0,0:0:0:0:
160,64,4881,1,0,0:0:0:0:
224,64,5154,1,0,0:0:0:0:
288,64,5427,1,0,0:0:0:0:
352,64,5700,1,0,0:0:0:0:
416,64,5972,1,0,0:0:0:0:
480,64,6245,1,0,0:0:0:0:
496,144,6518,5,0,0:0:0:0:
464,144,6654,1,0,0:0:0:0:
432,144,6790,1,0,0:0:0:0:
400,144,6927,1,0,0:0:0:0:
368,144,7063,1,0,0:0:0:0:
336,144,7200,1,0,0:0:0:0:
304,144,7336,1,0,0:0:0:0:
272,144,7472,1,0,0:0:0:0:
240,144,7609,1,0,0:0:0:0:
208,144,7745,1,0,0:0:0:0:
176,144,7881,1,0,0:0:0:0:
144,144,8018,1,0,0:0:0:0:
112,144,8154,1,0,0:0:0:0:
80,144,8290,1,0,0:0:0:0:
48,144,8427,1,0,0:0:0:0:
16,144,8563,1,0,0:0:0:0:
32,224,8700,5,0,0:0:0:0:
96,224,8972,1,0,0:0:0:0:
160,224,9245,1,0,0:0:0:0:
224,224,9518,1,0,0:0:0:0:
288,224,9790,1,0,0:0:0:0:
352,224,10063,1,0,0:0:0:0:
416,224,10336,1,0,0:0:0:0:
480,224,10609,1,0,0:0:0:0:
496,304,10881,5,0,0:0:0:0:
464,304,11018,1,0,0:0:0:0:
432,304,11154,1,0,0:0:0:0:
400,304,11290,1,0,0:0:0:0:
368,304,11427,1,0,0:0:0:0:
336,304,11563,1,0,0:0:0:0:
304,304,11700,1,0,0:0:0:0:
272,304,11836,1,0,0:0:0:0:
240,304,11972,1,0,0:0:0:0:
208,304,12109,1,0,0:0:0:0:
176,304,12245,1,0,0:0:0:0:
144,304,12381,1,0,0:0:0:0:
112,304,12518,1,0,0:0:0:0:
80,304,12654,1,0,0:0:0:0:
48,304,12790,1,0,0:0:0:0:
16,304,12927,1,0,0:0:0:0:
32,224,13063,5,0,0:0:0:0:
96,224,13336,1,0,0:0:0:0:
160,224,13609,1,0,0:0:0:0:
224,224,13881,1,0,0:0:0:0:
288,224,14154,1,0,0:0:0:0:
352,224,14427,1,0,0:0:0:0:
416,224,14700,1,0,0:0:0:0:
480,224,14972,1,0,0:0:0:0:
496,144,15245,5,0,0:0:0:0:
464,144,15381,1,0,0:0:0:0:
432,144,15518,1,0,0:0:0:0:
400,144,15654,1,0,0:0:0:0:
368,144,15790,1,0,0:0:0:0:
336,144,15927,1,0,0:0:0:0:
304,144,16063,1,0,0:0:0:0:
272,144,16200,1,0,0:0:0:0:
240,144,16336,1,0,0:0:0:0:
208,144,16472,1,0,0:0:0:0:
176,144,16609,1,0,0:0:0:0:
144,144,16745,1,0,0:0:0:0:
112,144,16881,1,0,0:0:0:0:
80,144,17018,1,0,0:0:0:0:
48,144,17154,1,0,0:0:0:0:
16,144,17290,1,0,0:0:0:0:
32,64,17427,5,0,0:0:0:0:
176,64,17700,1,0,0:0:0:0:
336,64,17972,1,0,0:0:0:0:
480,64,18245,1,0,0:0:0:0:
480,64,18518,5,0,0:0:0:0:
336,64,18790,1,0,0:0:0:0:
176,64,19063,1,0,0:0:0:0:
32,64,19336,1,0,0:0:0:0:
16,144,19609,5,0,0:0:0:0:
48,144,19745,1,0,0:0:0:0:
80,144,19881,1,0,0:0:0:0:
112,144,20018,1,0,0:0:0:0:
144,144,20154,1,0,0:0:0:0:
176,144,20290,1,0,0:0:0:0:
208,144,20427,1,0,0:0:0:0:
240,144,20563,1,0,0:0:0:0:
272,144,20700,1,0,0:0:0:0:
304,144,20836,1,0,0:0:0:0:
336,144,20972,1,0,0:0:0:0:
368,144,21109,1,0,0:0:0:0:
400,144,21245,1,0,0:0:0:0:
432,144,21381,1,0,0:0:0:0:
464,144,21518,1,0,0:0:0:0:
496,144,21654,1,0,0:0:0:0:
480,224,21790,5,0,0:0:0:0:
416,224,22063,1,0,0:0:0:0:
352,224,22336,1,0,0:0:0:0:
288,224,22609,1,0,0:0:0:0:
224,224,22881,1,0,0:0:0:0:
160,224,23154,1,0,0:0:0:0:
96,224,23427,1,0,0:0:0:0:
32,224,23700,1,0,0:0:0:0:
16,304,23972,5,0,0:0:0:0:
48,304,24109,1,0,0:0:0:0:
80,304,24245,1,0,0:0:0:0:
112,304,24381,1,0,0:0:0:0:
144,304,24518,1,0,0:0:0:0:
176,304,24654,1,0,0:0:0:0:
208,304,24790,1,0,0:0:0:0:
240,304,24927,1,0,0:0:0:0:
272,304,25063,1,0,0:0:0:0:
304,304,25200,1,0,0:0:0:0:
336,304,25336,1,0,0:0:0:0:
368,304,25472,1,0,0:0:0:0:
400,304,25609,1,0,0:0:0:0:
432,304,25745,1,0,0:0:0:0:
464,304,25881,1,0,0:0:0:0:
496,304,26018,1,0,0:0:0:0:
480,224,26154,5,0,0:0:0:0:
416,224,26427,1,0,0:0:0:0:
352,224,26700,1,0,0:0:0:0:
288,224,26972,1,0,0:0:0:0:
224,224,27245,1,0,0:0:0:0:
160,224,27518,1,0,0:0:0:0:
96,224,27790,1,0,0:0:0:0:
32,224,28063,1,0,0:0:0:0:
16,144,28336,5,0,0:0:0:0:
48,144,28472,1,0,0:0:0:0:
80,144,28609,1,0,0:0:0:0:
112,144,28745,1,0,0:0:0:0:
144,144,28881,1,0,0:0:0:0:
176,144,29018,1,0,0:0:0:0:
208,144,29154,1,0,0:0:0:0:
240,144,29290,1,0,0:0:0:0:
272,144,29427,1,0,0:0:0:0:
304,144,29563,1,0,0:0:0:0:
336,144,29700,1,0,0:0:0:0:
368,144,29836,1,0,0:0:0:0:
400,144,29972,1,0,0:0:0:0:
432,144,30109,1,0,0:0:0:0:
464,144,30245,1,0,0:0:0:0:
496,144,30381,1,0,0:0:0:0:
480,64,30518,5,0,0:0:0:0:
336,64,30790,1,0,0:0:0:0:
176,64,31063,1,0,0:0:0:0:
32,64,31336,1,0,0:0:0:0:
32,64,31609,5,0,0:0:0:0:
176,64,31881,1,0,0:0:0:0:
336,64,32154,1,0,0:0:0:0:
480,64,32427,1,0,0:0:0:0:
496,144,32700,5,0,0:0:0:0:
464,144,32836,1,0,0:0:0:0:
432,144,32972,1,0,0:0:0:0:
400,144,33109,1,0,0:0:0:0:
368,144,33245,1,0,0:0:0:0:
336,144,33381,1,0,0:0:0:0:
304,144,33518,1,0,0:0:0:0:
272,144,33654,1,0,0:0:0:0:
240,144,33790,1,0,0:0:0:0:
208,144,33927,1,0,0:0:0:0:
176,144,34063,1,0,0:0:0:0:
144,144,34200,1,0,0:0:0:0:
112,144,34336,1,0,0:0:0:0:
80,144,34472,1,0,0:0:0:0:
48,144,34609,1,0,0:0:0:0:
16,144,34745,1,0,0:0:0:0:
32,224,34881,5,0,0:0:0:0:
96,224,35154,1,0,0:0:0:0:
160,224,35427,1,0,0:0:0:0:
224,224,35700,1,0,0:0:0:0:
288,224,35972,1,0,0:0:0:0:
352,224,36245,1,0,0:0:0:0:
416,224,36518,1,0,0:0:0:0:
480,224,36790,1,0,0:0:0:0:
496,304,37063,5,0,0:0:0:0:
464,304,37200,1,0,0:0:0:0:
432,304,37336,1,0,0:0:0:0:
400,304,37472,1,0,0:0:0:0:
368,304,37609,1,0,0:0:0:0:
336,304,37745,1,0,0:0:0:0:
304,304,37881,1,0,0:0:0:0:
272,304,38018,1,0,0:0:0:0:
240,304,38154,1,0,0:0:0:0:
208,304,38290,1,0,0:0:0:0:
176,304,38427,1,0,0:0:0:0:
144,304,38563,1,0,0:0:0:0:
112,304,38700,1,0,0:0:0:0:
80,304,38836,1,0,0:0:0:0:
48,304,38972,1,0,0:0:0:0:
16,304,39109,1,0,0:0:0:0:
32,224,39245,5,0,0:0:0:0:
96,224,39518,1,0,0:0:0:0:
160,224,39790,1,0,0:0:0:0:
224,224,40063,1,0,0:0:0:0:
288,224,40336,1,0,0:0:0:0:
352,224,40609,1,0,0:0:0:0:
416,224,40881,1,0,0:0:0:0:
480,224,41154,1,0,0:0:0:0:
496,144,41427,5,0,0:0:0:0:
464,144,41563,1,0,0:0:0:0:
432,144,41700,1,0,0:0:0:0:
400,144,41836,1,0,0:0:0:0:
368,144,41972,1,0,0:0:0:0:
336,144,42109,1,0,0:0:0:0:
304,144,42245,1,0,0:0:0:0:
272,144,42381,1,0,0:0:0:0:
240,144,42518,1,0,0:0:0:0:
208,144,42654,1,0,0:0:0:0:
176,144,42790,1,0,0:0:0:0:
144,144,42927,1,0,0:0:0:0:
112,144,43063,1,0,0:0:0:0:
80,144,43200,1,0,0:0:0:0:
48,144,43336,1,0,0:0:0:0:
16,144,43472,1,0,0:0:0:0:
32,64,43609,5,0,0:0:0:0:
176,64,43881,1,0,0:0:0:0:
336,64,44154,1,0,0:0:0:0:
480,64,44427,1,0,0:0:0:0:
480,64,44700,5,0,0:0:0:0:
336,64,44972,1,0,0:0:0:0:
176,64,45245,1,0,0:0:0:0:
32,64,45518,1,0,0:0:0:0:
16,144,45790,5,0,0:0:0:0:
48,144,45927,1,0,0:0:0:0:
80,144,46063,1,0,0:0:0:0:
112,144,46200,1,0,0:0:0:0:
144,144,46336,1,0,0:0:0:0:
176,144,46472,1,0,0:0:0:0:
208,144,46609,1,0,0:0:0:0:
240,144,46745,1,0,0:0:0:0:
272,144,46881,1,0,0:0:0:0:
304,144,47018,1,0,0:0:0:0:
336,144,47154,1,0,0:0:0:0:
368,144,47290,1,0,0:0:0:0:
400,144,47427,1,0,0:0:0:0:
432,144,47563,1,0,0:0:0:0:
464,144,47700,1,0,0:0:0:0:
496,144,47836,1,0,0:0:0:0:
480,224,47972,5,0,0:0:0:0:
416,224,48245,1,0,0:0:0:0:
352,224,48518,1,0,0:0:0:0:
288,224,48790,1,0,0:0:0:0:
224,224,49063,1,0,0:0:0:0:
160,224,49336,1,0,0:0:0:0:
96,224,49609,1,0,0:0:0:0:
32,224,49881,1,0,0:0:0:0:
16,304,50154,5,0,0:0:0:0:
48,304,50290,1,0,0:0:0:0:
80,304,50427,1,0,0:0:0:0:
112,304,50563,1,0,0:0:0:0:
144,304,50700,1,0,0:0:0:0:
176,304,50836,1,0,0:0:0:0:
208,304,50972,1,0,0:0:0:0:
240,304,51109,1,0,0:0:0:0:
272,304,51245,1,0,0:0:0:0:
304,304,51381,1,0,0:0:0:0:
336,304,51518,1,0,0:0:0:0:
368,304,51654,1,0,0:0:0:0:
400,304,51790,1,0,0:0:0:0:
432,304,51927,1,0,0:0:0:0:
464,304,52063,1,0,0:0:0:0:
496,304,52200,1,0,0:0:0:0:
480,224,52336,5,0,0:0:0:0:
416,224,52609,1,0,0:0:0:0:
352,224,52881,1,0,0:0:0:0:
288,224,53154,1,0,0:0:0:0:
224,224,53427,1,0,0:0:0:0:
160,224,53700,1,0,0:0:0:0:
96,224,53972,1,0,0:0:0:0:
32,224,54245,1,0,0:0:0:0:
16,144,54518,5,0,0:0:0:0:
48,144,54654,1,0,0:0:0:0:
80,144,54790,1,0,0:0:0:0:
112,144,54927,1,0,0:0:0:0:
144,144,55063,1,0,0:0:0:0:
176,144,55200,1,0,0:0:0:0:
208,144,55336,1,0,0:0:0:0:
240,144,55472,1,0,0:0:0:0:
272,144,55609,1,0,0:0:0:0:
304,144,55745,1,0,0:0:0:0:
336,144,55881,1,0,0:0:0:0:
368,144,56018,1,0,0:0:0:0:
400,144,56154,1,0,0:0:0:0:
432,144,56290,1,0,0:0:0:0:
464,144,56427,1,0,0:0:0:0:
496,144,56563,1,0,0:0:0:0:
480,64,56700,5,0,0:0:0:0:
336,64,56972,1,0,0:0:0:0:
176,64,57245,1,0,0:0:0:0:
32,64,57518,1,0,0:0:0:0:
32,64,57790,5,0,0:0:0:0:
176,64,58063,1,0,0:0:0:0:
336,64,58336,1,0,0:0:0:0:
480,64,58609,1,0,0:0:0:0:
496,144,58881,5,0,0:0:0:0:
464,144,59018,1,0,0:0:0:0:
432,144,59154,1,0,0:0:0:0:
400,144,59290,1,0,0:0:0:0:
368,144,59427,1,0,0:0:0:0:
336,144,59563,1,0,0:0:0:0:
304,144,59700,1,0,0:0:0:0:
272,144,59836,1,0,0:0:0:0:
240,144,59972,1,0,0:0:0:0:
208,144,60109,1,0,0:0:0:0:
176,144,60245,1,0,0:0:0:0:
144,144,60381,1,0,0:0:0:0:
112,144,60518,1,0,0:0:0:0:
80,144,60654,1,0,0:0:0:0:
48,144,60790,1,0,0:0:0:0:
16,144,60927,1,0,0:0:0:0:
32,224,61063,5,0,0:0:0:0:
96,224,61336,1,0,0:0:0:0:
160,224,61609,1,0,0:0:0:0:
224,224,61881,1,0,0:0:0:0:
288,224,62154,1,0,0:0:0:0:
352,224,62427,1,0,0:0:0:0:
416,224,62700,1,0,0:0:0:0:
480,224,62972,1,0,0:0:0:0:
496,304,63245,5,0,0:0:0:0:
464,304,63381,1,0,0:0:0:0:
432,304,63518,1,0,0:0:0:0:
400,304,63654,1,0,0:0:0:0:
368,304,63790,1,0,0:0:0:0:
336,304,63927,1,0,0:0:0:0:
304,304,64063,1,0,0:0:0:0:
272,304,64200,1,0,0:0:0:0:
240,304,64336,1,0,0:0:0:0:
208,304,64472,1,0,0:0:0:0:
176,304,64609,1,0,0:0:0:0:
144,304,64745,1,0,0:0:0:0:
112,304,64881,1,0,0:0:0:0:
80,304,65018,1,0,0:0:0:0:
48,304,65154,1,0,0:0:0:0:
16,304,65290,1,0,0:0:0:0:
32,224,65427,5,0,0:0:0:0:
96,224,65700,1,0,0:0:0:0:
160,224,65972,1,0,0:0:0:0:
224,224,66245,1,0,0:0:0:0:
288,224,66518,1,0,0:0:0:0:
352,224,66790,1,0,0:0:0:0:
416,224,67063,1,0,0:0:0:0:
480,224,67336,1,0,0:0:0:0:
496,144,67609,5,0,0:0:0:0:
464,144,67745,1,0,0:0:0:0:
432,144,67881,1,0,0:0:0:0:
400,144,68018,1,0,0:0:0:0:
368,144,68154,1,0,0:0:0:0:
336,144,68290,1,0,0:0:0:0:
304,144,68427,1,0,0:0:0:0:
272,144,68563,1,0,0:0:0:0:
240,144,68700,1,0,0:0:0:0:
208,144,68836,1,0,0:0:0:0:
176,144,68972,1,0,0:0:0:0:
144,144,69109,1,0,0:0:0:0:
112,144,69245,1,0,0:0:0:0:
80,144,69381,1,0,0:0:0:0:
48,144,69518,1,0,0:0:0:0:
16,144,69654,1,0,0:0:0:0:
32,64,69790,5,0,0:0:0:0:
176,64,70063,1,0,0:0:0:0:
336,64,70336,1,0,0:0:0:0:
480,64,70609,1,0,0:0:0:0:
480,64,70881,5,0,0:0:0:0:
336,64,71154,1,0,0:0:0:0:
176,64,71427,1,0,0:0:0:0:
32,64,71700,1,0,0:0:0:0:
16,144,71972,5,0,0:0:0:0:
48,144,72109,1,0,0:0:0:0:
80,144,72245,1,0,0:0:0:0:
112,144,72381,1,0,0:0:0:0:
144,144,72518,1,0,0:0:0:0:
176,144,72654,1,0,0:0:0:0:
208,144,72790,1,0,0:0:0:0:
240,144,72927,1,0,0:0:0:0:
272,144,73063,1,0,0:0:0:0:
304,144,73200,1,0,0:0:0:0:
336,144,73336,1,0,0:0:0:0:
368,144,73472,1,0,0:0:0:0:
400,144,73609,1,0,0:0:0:0:
432,144,73745,1,0,0:0:0:0:
464,144,73881,1,0,0:0:0:0:
496,144,74018,1,0,0:0:0:0:
480,224,74154,5,0,0:0:0:0:
416,224,74427,1,0,0:0:0:0:
352,224,74700,1,0,0:0:0:0:
288,224,74972,1,0,0:0:0:0:
224,224,75245,1,0,0:0:0:0:
160,224,75518,1,0,0:0:0:0:
96,224,75790,1,0,0:0:0:0:
32,224,76063,1,0,0:0:0:0:
16,304,76336,5,0,0:0:0:0:
48,304,76472,1,0,0:0:0:0:
80,304,76609,1,0,0:0:0:0:
112,304,76745,1,0,0:0:0:0:
144,304,76881,1,0,0:0:0:0:
176,304,77018,1,0,0:0:0:0:
208,304,77154,1,0,0:0:0:0:
240,304,77290,1,0,0:0:0:0:
272,304,77427,1,0,0:0:0:0:
304,304,77563,1,0,0:0:0:0:
336,304,77700,1,0,0:0:0:0:
368,304,77836,1,0,0:0:0:0:
400,304,77972,1,0,0:0:0:0:
432,304,78109,1,0,0:0:0:0:
464,304,78245,1,0,0:0:0:0:
496,304,78381,1,0,0:0:0:0:
480,224,78518,5,0,0:0:0:0:
416,224,78790,1,0,0:0:0:0:
352,224,79063,1,0,0:0:0:0:
288,224,79336,1,0,0:0:0:0:
224,224,79609,1,0,0:0:0:0:
160,224,79881,1,0,0:0:0:0:
96,224,80154,1,0,0:0:0:0:
32,224,80427,1,0,0:0:0:0:
16,144,80700,5,0,0:0:0:0:
48,144,80836,1,0,0:0:0:0:
80,144,80972,1,0,0:0:0:0:
112,144,81109,1,0,0:0:0:0:
144,144,81245,1,0,0:0:0:0:
176,144,81381,1,0,0:0:0:0:
208,144,81518,1,0,0:0:0:0:
240,144,81654,1,0,0:0:0:0:
272,144,81790,1,0,0:0:0:0:
304,144,81927,1,0,0:0:0:0:
336,144,82063,1,0,0:0:0:0:
368,144,82200,1,0,0:0:0:0:
400,144,82336,1,0,0:0:0:0:
432,144,82472,1,0,0:0:0:0:
464,144,82609,1,0,0:0:0:0:
496,144,82745,1,0,0:0:0:0:
480,64,82881,5,0,0:0:0:0:
336,64,83154,1,0,0:0:0:0:
176,64,83427,1,0,0:0:0:0:
32,64,83700,1,0,0:0:0:0:
32,64,83972,5,0,0:0:0:0:
176,64,84245,1,0,0:0:0:0:
336,64,84518,1,0,0:0:0:0:
480,64,84790,1,0,0:0:0:0:
496,144,85063,5,0,0:0:0:0:
464,144,85200,1,0,0:0:0:0:
432,144,85336,1,0,0:0:0:0:
400,144,85472,1,0,0:0:0:0:
368,144,85609,1,0,0:0:0:0:
336,144,85745,1,0,0:0:0:0:
304,144,85881,1,0,0:0:0:0:
272,144,86018,1,0,0:0:0:0:
240,144,86154,1,0,0:0:0:0:
208,144,86290,1,0,0:0:0:0:
176,144,86427,1,0,0:0:0:0:
144,144,86563,1,0,0:0:0:0:
112,144,86700,1,0,0:0:0:0:
80,144,86836,1,0,0:0:0:0:
48,144,86972,1,0,0:0:0:0:
16,144,87109,1,0,0:0:0:0:
32,224,87245,5,0,0:0:0:0:
96,224,87518,1,0,0:0:0:0:
160,224,87790,1,0,0:0:0:0:
224,224,88063,1,0,0:0:0:0:
288,224,88336,1,0,0:0:0:0:
352,224,88609,1,0,0:0:0:0:
416,224,88881,1,0,0:0:0:0:
480,224,89154,1,0,0:0:0:0:
496,304,89427,5,0,0:0:0:0:
464,304,89563,1,0,0:0:0:0:
432,304,89700,1,0,0:0:0:0:
400,304,89836,1,0,0:0:0:0:
368,304,89972,1,0,0:0:0:0:
336,304,90109,1,0,0:0:0:0:
304,304,90245,1,0,0:0:0:0:
272,304,90381,1,0,0:0:0:0:
240,304,90518,1,0,0:0:0:0:
208,304,90654,1,0,0:0:0:0:
176,304,90790,1,0,0:0:0:0:
144,304,90927,1,0,0:0:0:0:
112,304,91063,1,0,0:0:0:0:
80,304,91200,1,0,0:0:0:0:
48,304,91336,1,0,0:0:0:0:
16,304,91472,1,0,0:0:0:0:
32,224,91609,5,0,0:0:0:0:
96,224,91881,1,0,0:0:0:0:
160,224,92154,1,0,0:0:0:0:
224,224,92427,1,0,0:0:0:0:
288,224,92700,1,0,0:0:0:0:
352,224,92972,1,0,0:0:0:0:
416,224,93245,1,0,0:0:0:0:
480,224,93518,1,0,0:0:0:0:
496,144,93790,5,0,0:0:0:0:
464,144,93927,1,0,0:0:0:0:
432,144,94063,1,0,0:0:0:0:
400,144,94200,1,0,0:0:0:0:
368,144,94336,1,0,0:0:0:0:
336,144,94472,1,0,0:0:0:0:
304,144,94609,1,0,0:0:0:0:
272,144,94745,1,0,0:0:0:0:
240,144,94881,1,0,0:0:0:0:
208,144,95018,1,0,0:0:0:0:
176,144,95154,1,0,0:0:0:0:
144,144,95290,1,0,0:0:0:0:
112,144,95427,1,0,0:0:0:0:
80,144,95563,1,0,0:0:0:0:
48,144,95700,1,0,0:0:0:0:
16,144,95836,1,0,0:0:0:0:
32,64,95972,5,0,0:0:0:0:
176,64,96245,1,0,0:0:0:0:
336,64,96518,1,0,0:0:0:0:
480,64,96790,1,0,0:0:0:0:
480,64,97063,5,0,0:0:0:0:
336,64,97336,1,0,0:0:0:0:
176,64,97609,1,0,0:0:0:0:
32,64,97881,1,0,0:0:0:0:
16,144,98154,5,0,0:0:0:0:
48,144,98290,1,0,0:0:0:0:
80,144,98427,1,0,0:0:0:0:
112,144,98563,1,0,0:0:0:0:
144,144,98700,1,0,0:0:0:0:
176,144,98836,1,0,0:0:0:0:
208,144,98972,1,0,0:0:0:0:
240,144,99109,1,0,0:0:0:0:
272,144,99245,1,0,0:0:0:0:
304,144,99381,1,0,0:0:0:0:
336,144,99518,1,0,0:0:0:0:
368,144,99654,1,0,0:0:0:0:
400,144,99790,1,0,0:0:0:0:
432,144,99927,1,0,0:0:0:0:
464,144,100063,1,0,0:0:0:0:
496,144,100200,1,0,0:0:0:0:
480,224,100336,5,0,0:0:0:0:
416,224,100609,1,0,0:0:0:0:
352,224,100881,1,0,0:0:0:0:
288,224,101154,1,0,0:0:0:0:
224,224,101427,1,0,0:0:0:0:
160,224,101700,1,0,0:0:0:0:
96,224,101972,1,0,0:0:0:0:
32,224,102245,1,0,0:0:0:0:
16,304,102518,5,0,0:0:0:0:
48,304,102654,1,0,0:0:0:0:
80,304,102790,1,0,0:0:0:0:
112,304,102927,1,0,0:0:0:0:
144,304,103063,1,0,0:0:0:0:
176,304,103200,1,0,0:0:0:0:
208,304,103336,1,0,0:0:0:0:
240,304,103472,1,0,0:0:0:0:
272,304,103609,1,0,0:0:0:0:
304,304,103745,1,0,0:0:0:0:
336,304,103881,1,0,0:0:0:0:
368,304,104018,1,0,0:0:0:0:
400,304,104154,1,0,0:0:0:0:
432,304,104290,1,0,0:0:0:0:
464,304,104427,1,0,0:0:0:0:
496,304,104563,1,0,0:0:0:0:
480,224,104700,5,0,0:0:0:0:
416,224,104972,1,0,0:0:0:0:
352,224,105245,1,0,0:0:0:0:
288,224,105518,1,0,0:0:0:0:
224,224,105790,1,0,0:0:0:0:
160,224,106063,1,0,0:0:0:0:
96,224,106336,1,0,0:0:0:0:
32,224,106609,1,0,0:0:0:0:
16,144,106881,5,0,0:0:0:0:
48,144,107018,1,0,0:0:0:0:
80,144,107154,1,0,0:0:0:0:
112,144,107291,1,0,0:0:0:0:
144,144,107427,1,0,0:0:0:0:
176,144,107564,1,0,0:0:0:0:
208,144,107700,1,0,0:0:0:0:
240,144,107836,1,0,0:0:0:0:
272,144,107973,1,0,0:0:0:0:
304,144,108109,1,0,0:0:0:0:
336,144,108245,1,0,0:0:0:0:
368,144,108382,1,0,0:0:0:0:
400,144,108518,1,0,0:0:0:0:
432,144,108654,1,0,0:0:0:0:
464,144,108791,1,0,0:0:0:0:
496,144,108927,1,0,0:0:0:0:
480,64,109064,5,0,0:0:0:0:
336,64,109336,1,0,0:0:0:0:
176,64,109609,1,0,0:0:0:0:
32,64,109882,1,0,0:0:0:0:
32,64,110154,5,0,0:0:0:0:
176,64,110427,1,0,0:0:0:0:
336,64,110700,1,0,0:0:0:0:
480,64,110973,1,0,0:0:0:0:
496,144,111245,5,0,0:0:0:0:
464,144,111382,1,0,0:0:0:0:
432,144,111518,1,0,0:0:0:0:
400,144,111654,1,0,0:0:0:0:
368,144,111791,1,0,0:0:0:0:
336,144,111927,1,0,0:0:0:0:
304,144,112064,1,0,0:0:0:0:
272,144,112200,1,0,0:0:0:0:
240,144,112336,1,0,0:0:0:0:
208,144,112473,1,0,0:0:0:0:
176,144,112609,1,0,0:0:0:0:
144,144,112745,1,0,0:0:0:0:
112,144,112882,1,0,0:0:0:0:
80,144,113018,1,0,0:0:0:0:
48,144,113154,1,0,0:0:0:0:
16,144,113291,1,0,0:0:0:0:
32,224,113427,5,0,0:0:0:0:
96,224,113700,1,0,0:0:0:0:
160,224,113973,1,0,0:0:0:0:
224,224,114245,1,0,0:0:0:0:
288,224,114518,1,0,0:0:0:0:
352,224,114791,1,0,0:0:0:0:
416,224,115064,1,0,0:0:0:0:
480,224,115336,1,0,0:0:0:0:
496,304,115609,5,0,0:0:0:0:
464,304,115745,1,0,0:0:0:0:
432,304,115882,1,0,0:0:0:0:
400,304,116018,1,0,0:0:0:0:
368,304,116154,1,0,0:0:0:0:
336,304,116291,1,0,0:0:0:0:
304,304,116427,1,0,0:0:0:0:
272,304,116564,1,0,0:0:0:0:
240,304,116700,1,0,0:0:0:0:
208,304,116836,1,0,0:0:0:0:
176,304,116973,1,0,0:0:0:0:
144,304,117109,1,0,0:0:0:0:
112,304,117245,1,0,0:0:0:0:
80,304,117382,1,0,0:0:0:0:
48,304,117518,1,0,0:0:0:0:
16,304,117654,1,0,0:0:0:0:
32,224,117791,5,0,0:0:0:0:
96,224,118064,1,0,0:0:0:0:
160,224,118336,1,0,0:0:0:0:
224,224,118609,1,0,0:0:0:0:
288,224,118882,1,0,0:0:0:0:
352,224,119154,1,0,0:0:0:0:
416,224,119427,1,0,0:0:0:0:
480,224,119700,1,0,0:0:0:0:
496,144,119973,5,0,0:0:0:0:
464,144,120109,1,0,0:0:0:0:
432,144,120245,1,0,0:0:0:0:
400,144,120382,1,0,0:0:0:0:
368,144,120518,1,0,0:0:0:0:
336,144,120654,1,0,0:0:0:0:
304,144,120791,1,0,0:0:0:0:
272,144,120927,1,0,0:0:0:0:
240,144,121064,1,0,0:0:0:0:
208,144,121200,1,0,0:0:0:0:
176,144,121336,1,0,0:0:0:0:
144,144,121473,1,0,0:0:0:0:
112,144,121609,1,0,0:0:0:0:
80,144,121745,1,0,0:0:0:0:
48,144,121882,1,0,0:0:0:0:
16,144,122018,1,0,0:0:0:0:
32,64,122154,5,0,0:0:0:0:
176,64,122427,1,0,0:0:0:0:
336,64,122700,1,0,0:0:0:0:
480,64,122973,1,0,0:0:0:0:
480,64,123245,5,0,0:0:0:0:
336,64,123518,1,0,0:0:0:0:
176,64,123791,1,0,0:0:0:0:
32,64,124064,1,0,0:0:0:0:
16,144,124336,5,0,0:0:0:0:
48,144,124473,1,0,0:0:0:0:
80,144,124609,1,0,0:0:0:0:
112,144,124745,1,0,0:0:0:0:
144,144,124882,1,0,0:0:0:0:
176,144,125018,1,0,0:0:0:0:
208,144,125154,1,0,0:0:0:0:
240,144,125291,1,0,0:0:0:0:
272,144,125427,1,0,0:0:0:0:
304,144,125564,1,0,0:0:0:0:
336,144,125700,1,0,0:0:0:0:
368,144,125836,1,0,0:0:0:0:
400,144,125973,1,0,0:0:0:0:
432,144,126109,1,0,0:0:0:0:
464,144,126245,1,0,0:0:0:0:
496,144,126382,1,0,0:0:0:0:
480,224,126518,5,0,0:0:0:0:
416,224,126791,1,0,0:0:0:0:
352,224,127064,1,0,0:0:0:0:
288,224,127336,1,0,0:0:0:0:
224,224,127609,1,0,0:0:0:0:
160,224,127882,1,0,0:0:0:0:
96,224,128154,1,0,0:0:0:0:
32,224,128427,1,0,0:0:0:0:
16,304,128700,5,0,0:0:0:0:
48,304,128836,1,0,0:0:0:0:
80,304,128973,1,0,0:0:0:0:
112,304,129109,1,0,0:0:0:0:
144,304,129245,1,0,0:0:0:0:
176,304,129382,1,0,0:0:0:0:
208,304,129518,1,0,0:0:0:0:
240,304,129654,1,0,0:0:0:0:
272,304,129791,1,0,0:0:0:0:
304,304,129927,1,0,0:0:0:0:
336,304,130064,1,0,0:0:0:0:
368,304,130200,1,0,0:0:0:0:
400,304,130336,1,0,0:0:0:0:
432,304,130473,1,0,0:0:0:0:
464,304,130609,1,0,0:0:0:0:
496,304,130745,1,0,0:0:0:0:
480,224,130882,5,0,0:0:0:0:
416,224,131154,1,0,0:0:0:0:
352,224,131427,1,0,0:0:0:0:
288,224,131700,1,0,0:0:0:0:
224,224,131973,1,0,0:0:0:0:
160,224,132245,1,0,0:0:0:0:
96,224,132518,1,0,0:0:0:0:
32,224,132791,1,0,0:0:0:0:
16,144,133064,5,0,0:0:0:0:
48,144,133200,1,0,0:0:0:0:
80,144,133336,1,0,0:0:0:0:
112,144,133473,1,0,0:0:0:0:
144,144,133609,1,0,0:0:0:0:
176,144,133745,1,0,0:0:0:0:
208,144,133882,1,0,0:0:0:0:
240,144,134018,1,0,0:0:0:0:
272,144,134154,1,0,0:0:0:0:
304,144,134291,1,0,0:0:0:0:
336,144,134427,1,0,0:0:0:0:
368,144,134564,1,0,0:0:0:0:
400,144,134700,1,0,0:0:0:0:
432,144,134836,1,0,0:0:0:0:
464,144,134973,1,0,0:0:0:0:
496,144,135109,1,0,0:0:0:0:
