osu file format v14

[General]
AudioFilename: audio.mp3
AudioLeadIn: 0
PreviewTime: 12666
Countdown: 0
SampleSet: Normal
StackLeniency: 0.7
Mode: 1
LetterboxInBreaks: 0
WidescreenStoryboard: 1

[Editor]
DistanceSpacing: 0.6
BeatDivisor: 4
GridSize: 16
TimelineZoom: 1.23

[Metadata]
Title:f(ake)
TitleUnicode:f(ake)
Artist:Plus-Tech Squeeze Box
ArtistUnicode:Plus-Tech Squeeze Box
Creator:meiqth
Version:m(uzukashii) w/ Sussy
Source:
Tags:english rock cartoom! (f)ake fake _pizzaninjax sussy see Mary "Cookie" Royal Tsugumi Takashi
BeatmapID:4384755
BeatmapSetID:2087450

[Difficulty]
HPDrainRate:7
CircleSize:2
OverallDifficulty:5
ApproachRate:10
SliderMultiplier:1.4
SliderTickRate:1

[Events]
//Background and Video events
0,0,"d387dde683f7cb282ddd7a7fca456905.jpg",0,-69
//Break Periods
2,100384,104297
//Storyboard Layer 0 (Background)
//Storyboard Layer 1 (Fail)
//Storyboard Layer 2 (Pass)
//Storyboard Layer 3 (Foreground)
//Storyboard Layer 4 (Overlay)
//Storyboard Sound Samples

[TimingPoints]
3294,272.727272727273,4,1,0,80,1,8
4384,272.727272727273,4,1,0,80,1,0
13111,-100,4,1,0,90,0,1
17065,-100,4,1,0,90,0,0
17474,-100,4,1,0,90,0,1
28384,-100,4,1,0,90,0,0
30555,-105.263157894737,4,1,0,70,0,0
37101,-100,4,1,0,70,0,0
38124,-117.647058823529,4,1,0,70,0,0
38952,-90.9090909090909,4,1,0,100,0,0
39127,-90.9090909090909,4,1,0,100,0,0
39293,-90.9090909090909,4,1,0,100,0,1
45293,-90.9090909090909,4,1,0,100,0,0
45565,-90.9090909090909,4,1,0,100,0,1
45838,-90.9090909090909,4,1,0,100,0,0
46365,-90.9090909090909,4,1,0,80,0,0
47601,-100,4,1,0,80,0,0
56747,-100,4,1,0,90,0,1
65464,-90.9090909090909,4,1,0,90,0,1
72020,-90.9090909090909,4,1,0,80,0,0
72088,-100,4,1,0,80,0,0
74192,-105.263157894737,4,1,0,70,0,0
81838,-100,4,1,0,70,0,0
109111,-100,4,1,0,90,0,1
115656,-100,4,1,0,90,0,0
117565,-100,4,1,0,90,0,0
117838,-111.111111111111,4,1,0,70,0,0
124374,-83.3333333333333,4,1,0,70,0,0
125465,-111.111111111111,4,1,0,70,0,0
126224,-90.9090909090909,4,1,0,100,0,0
126399,-87.719298245614,4,1,0,100,0,0
126565,-83.3333333333333,4,1,0,100,0,1
132702,-83.3333333333333,4,1,0,100,0,0
133656,-71.4285714285714,4,1,0,100,0,1
133929,-83.3333333333333,4,1,0,100,0,0
134202,-71.4285714285714,4,1,0,100,0,1
134679,-111.111111111111,4,1,0,100,0,0
135663,-66.6666666666667,4,1,0,33,0,0

[HitObjects]
256,192,3362,8,0,3703,0:0:0:0:
256,192,3839,5,8,1:0:0:0:
256,192,3975,1,0,1:0:0:0:
256,192,4112,1,8,1:0:0:0:
256,192,4248,1,8,1:0:0:0:
256,192,4384,1,4,1:0:0:0:
256,192,8338,1,8,1:0:0:0:
256,192,8474,1,0,1:0:0:0:
256,192,8611,1,0,1:0:0:0:
256,192,8747,1,12,1:0:0:0:
256,192,9974,1,0,1:0:0:0:
256,192,10111,1,0,1:0:0:0:
256,192,10247,1,12,1:0:0:0:
256,192,10929,1,0,1:0:0:0:
256,192,11202,1,0,1:0:0:0:
256,192,11338,1,8,1:0:0:0:
256,192,11611,1,0,1:0:0:0:
256,192,11747,1,8,1:0:0:0:
256,192,11884,1,8,1:0:0:0:
256,192,12020,1,0,1:0:0:0:
256,192,12293,1,8,1:0:0:0:
256,192,12429,1,0,1:0:0:0:
256,192,12838,1,8,1:0:0:0:
256,192,13111,1,4,1:0:0:0:
256,192,13384,1,8,1:0:0:0:
256,192,13520,1,0,1:0:0:0:
256,192,13793,1,0,1:0:0:0:
256,192,13929,1,8,1:0:0:0:
256,192,13997,1,8,0:0:0:0:
256,192,14065,1,8,1:0:0:0:
256,192,14202,1,0,1:0:0:0:
256,192,14474,1,8,1:0:0:0:
256,192,14611,1,0,1:0:0:0:
256,192,14884,1,0,1:0:0:0:
256,192,15020,1,8,1:0:0:0:
256,192,15156,1,0,1:0:0:0:
256,192,15293,1,8,1:0:0:0:
256,192,15565,1,0,1:0:0:0:
256,192,15838,1,8,1:0:0:0:
256,192,15974,1,8,1:0:0:0:
256,192,16111,1,0,1:0:0:0:
256,192,16247,1,8,1:0:0:0:
256,192,16315,1,8,1:0:0:0:
256,192,16384,1,8,1:0:0:0:
256,192,16520,1,0,1:0:0:0:
256,192,16793,1,0,1:0:0:0:
256,192,17065,1,12,1:0:0:0:
256,192,17474,1,4,1:0:0:0:
256,192,17747,1,0,1:0:0:0:
256,192,17884,1,8,0:0:0:0:
256,192,18156,1,8,1:0:0:0:
256,192,18293,1,0,1:0:0:0:
256,192,18361,1,0,1:0:0:0:
256,192,18429,1,0,1:0:0:0:
256,192,18565,1,8,1:0:0:0:
256,192,18838,1,8,1:0:0:0:
256,192,18974,1,0,1:0:0:0:
256,192,19247,1,0,1:0:0:0:
256,192,19384,1,8,1:0:0:0:
256,192,19520,1,8,1:0:0:0:
256,192,19656,1,0,1:0:0:0:
256,192,19929,1,8,1:0:0:0:
256,192,20202,1,8,1:0:0:0:
256,192,20338,1,0,1:0:0:0:
256,192,20406,1,0,0:0:0:0:
256,192,20474,1,0,1:0:0:0:
256,192,20611,1,8,1:0:0:0:
256,192,20884,1,8,0:0:0:0:
256,192,21156,1,8,1:0:0:0:
256,192,21429,1,0,1:0:0:0:
256,192,21838,1,12,1:0:0:0:
256,192,22111,1,4,1:0:0:0:
256,192,22247,1,8,1:0:0:0:
256,192,22384,1,8,1:0:0:0:
256,192,22793,1,0,1:0:0:0:
256,192,22929,1,8,1:0:0:0:
256,192,23065,1,8,1:0:0:0:
256,192,23202,1,8,1:0:0:0:
256,192,23474,1,0,0:0:0:0:
256,192,23747,1,8,1:0:0:0:
256,192,23884,1,8,1:0:0:0:
256,192,24020,1,0,0:0:0:0:
256,192,24293,1,8,0:0:0:0:
256,192,24429,1,8,0:0:0:0:
256,192,24565,1,0,1:0:0:0:
256,192,24702,1,0,1:0:0:0:
256,192,24838,1,8,1:0:0:0:
256,192,25111,1,8,0:0:0:0:
256,192,25247,1,8,1:0:0:0:
256,192,25520,1,0,1:0:0:0:
256,192,25793,1,8,1:0:0:0:
256,192,26202,1,12,1:0:0:0:
256,192,26474,1,0,0:0:0:0:
256,192,26611,1,8,1:0:0:0:
256,192,26747,1,0,1:0:0:0:
256,192,27156,1,0,1:0:0:0:
256,192,27293,1,0,1:0:0:0:
256,192,27429,1,8,1:0:0:0:
256,192,27565,1,8,1:0:0:0:
256,192,27838,1,0,1:0:0:0:
256,192,27974,1,8,1:0:0:0:
256,192,28247,1,8,1:0:0:0:
256,192,28384,1,0,1:0:0:0:
256,192,28656,1,8,1:0:0:0:
256,192,28929,1,8,1:0:0:0:
256,192,29065,1,8,1:0:0:0:
256,192,29202,1,0,1:0:0:0:
256,192,29338,1,0,1:0:0:0:
256,192,29474,1,12,1:0:0:0:
256,192,29747,1,0,1:0:0:0:
256,192,29884,1,8,0:0:0:0:
256,192,29952,1,8,1:0:0:0:
256,192,30020,1,8,1:0:0:0:
256,192,30156,1,0,0:0:0:0:
256,192,30565,1,0,0:0:0:0:
256,192,30838,1,0,0:0:0:0:
256,192,30974,1,8,0:0:0:0:
256,192,31247,1,8,0:0:0:0:
256,192,31520,1,0,0:0:0:0:
256,192,31929,1,0,0:0:0:0:
256,192,32065,1,8,0:0:0:0:
256,192,32338,1,8,0:0:0:0:
256,192,32474,1,0,0:0:0:0:
256,192,32611,1,0,0:0:0:0:
256,192,32747,1,8,0:0:0:0:
256,192,33020,1,0,0:0:0:0:
256,192,33156,1,0,0:0:0:0:
256,192,33429,1,8,0:0:0:0:
256,192,33565,1,8,0:0:0:0:
256,192,33838,1,0,0:0:0:0:
256,192,34111,1,0,0:0:0:0:
256,192,34247,1,8,0:0:0:0:
256,192,34656,1,0,0:0:0:0:
256,192,34929,1,8,0:0:0:0:
256,192,35202,1,8,0:0:0:0:
256,192,35338,1,0,0:0:0:0:
256,192,35611,1,0,0:0:0:0:
256,192,35884,1,8,0:0:0:0:
256,192,36293,1,0,0:0:0:0:
256,192,36429,1,0,0:0:0:0:
256,192,36702,1,8,0:0:0:0:
256,192,36838,1,0,0:0:0:0:
256,192,36974,1,0,0:0:0:0:
256,192,37111,1,12,0:0:0:0:
256,192,38202,12,0,38747,0:0:0:0:
256,192,39020,5,8,1:0:0:0:
256,192,39293,1,4,1:0:0:0:
256,192,39565,1,8,1:0:0:0:
256,192,39702,1,4,1:0:0:0:
256,192,39974,1,8,1:0:0:0:
256,192,40111,1,4,1:0:0:0:
256,192,40384,1,8,1:0:0:0:
256,192,40520,1,4,1:0:0:0:
256,192,40793,1,8,1:0:0:0:
256,192,40929,1,0,1:0:0:0:
256,192,41065,1,0,1:0:0:0:
256,192,41202,1,8,1:0:0:0:
256,192,41474,1,4,1:0:0:0:
256,192,41747,1,8,1:0:0:0:
256,192,41884,1,4,1:0:0:0:
256,192,42156,1,8,1:0:0:0:
256,192,42293,1,4,1:0:0:0:
256,192,42565,1,8,1:0:0:0:
256,192,42702,1,4,1:0:0:0:
256,192,42838,1,8,1:0:0:0:
256,192,42974,1,0,1:0:0:0:
256,192,43111,1,8,1:0:0:0:
256,192,43384,1,8,1:0:0:0:
256,192,43656,1,12,1:0:0:0:
256,192,43929,1,0,1:0:0:0:
256,192,44065,1,12,1:0:0:0:
256,192,44338,1,0,1:0:0:0:
256,192,44474,1,12,1:0:0:0:
256,192,44747,1,0,1:0:0:0:
256,192,44884,1,12,1:0:0:0:
256,192,45156,1,0,1:0:0:0:
256,192,45293,1,0,0:0:0:0:
256,192,45565,1,8,0:0:0:0:
256,192,45838,1,4,0:0:0:0:
256,192,47747,1,8,1:0:0:0:
256,192,47884,1,8,1:0:0:0:
256,192,48020,1,4,1:0:0:0:
256,192,48293,1,0,1:0:0:0:
256,192,48429,1,8,1:0:0:0:
256,192,48702,1,8,1:0:0:0:
256,192,48838,1,0,1:0:0:0:
256,192,48974,1,0,0:0:0:0:
256,192,49111,1,8,1:0:0:0:
256,192,49384,1,8,1:0:0:0:
256,192,49520,1,0,1:0:0:0:
256,192,49793,1,0,1:0:0:0:
256,192,49929,1,8,1:0:0:0:
256,192,50202,1,0,1:0:0:0:
256,192,50338,1,8,0:0:0:0:
256,192,50474,1,8,1:0:0:0:
256,192,50611,1,0,1:0:0:0:
256,192,50884,1,8,1:0:0:0:
256,192,51020,1,8,1:0:0:0:
256,192,51156,1,8,0:0:0:0:
256,192,51293,1,0,0:0:0:0:
256,192,51565,1,8,0:0:0:0:
256,192,51702,1,0,0:0:0:0:
256,192,51974,1,0,1:0:0:0:
256,192,52111,1,8,1:0:0:0:
256,192,52179,1,8,1:0:0:0:
256,192,52247,1,8,1:0:0:0:
256,192,52384,1,4,1:0:0:0:
256,192,52793,1,0,1:0:0:0:
256,192,53065,1,0,1:0:0:0:
256,192,53202,1,8,1:0:0:0:
256,192,53338,1,8,0:0:0:0:
256,192,53474,1,0,1:0:0:0:
256,192,53747,1,8,1:0:0:0:
256,192,53884,1,0,1:0:0:0:
256,192,54156,1,8,0:0:0:0:
256,192,54293,1,8,0:0:0:0:
256,192,54565,1,0,0:0:0:0:
256,192,54702,1,0,1:0:0:0:
256,192,54838,1,8,1:0:0:0:
256,192,54974,1,8,1:0:0:0:
256,192,55247,1,8,1:0:0:0:
256,192,55384,1,0,1:0:0:0:
256,192,55656,1,8,1:0:0:0:
256,192,55793,1,0,1:0:0:0:
256,192,55929,1,0,1:0:0:0:
256,192,56065,1,8,1:0:0:0:
256,192,56474,1,8,1:0:0:0:
256,192,56747,1,4,1:0:0:0:
256,192,57020,1,0,1:0:0:0:
256,192,57156,1,8,1:0:0:0:
256,192,57429,1,8,1:0:0:0:
256,192,57565,1,0,1:0:0:0:
256,192,57634,1,0,0:0:0:0:
256,192,57702,1,0,1:0:0:0:
256,192,57838,1,8,1:0:0:0:
256,192,58111,1,0,1:0:0:0:
256,192,58247,1,0,1:0:0:0:
256,192,58520,1,8,1:0:0:0:
256,192,58656,1,8,1:0:0:0:
256,192,58793,1,0,1:0:0:0:
256,192,58929,1,8,1:0:0:0:
256,192,59202,1,0,1:0:0:0:
256,192,59474,1,8,1:0:0:0:
256,192,59611,1,0,1:0:0:0:
256,192,59747,1,0,1:0:0:0:
256,192,59884,1,8,1:0:0:0:
256,192,59952,1,8,1:0:0:0:
256,192,60020,1,8,1:0:0:0:
256,192,60156,1,0,1:0:0:0:
256,192,60429,1,0,1:0:0:0:
256,192,60702,1,8,1:0:0:0:
256,192,61111,1,4,1:0:0:0:
256,192,61384,1,8,1:0:0:0:
256,192,61520,1,0,0:0:0:0:
256,192,61793,1,0,1:0:0:0:
256,192,61929,1,8,1:0:0:0:
256,192,61997,1,8,1:0:0:0:
256,192,62065,1,8,1:0:0:0:
256,192,62202,1,0,1:0:0:0:
256,192,62474,1,8,1:0:0:0:
256,192,62611,1,8,1:0:0:0:
256,192,62884,1,0,1:0:0:0:
256,192,63020,1,8,1:0:0:0:
256,192,63156,1,8,1:0:0:0:
256,192,63293,1,0,1:0:0:0:
256,192,63361,1,0,0:0:0:0:
256,192,63429,1,0,0:0:0:0:
256,192,63565,1,8,1:0:0:0:
256,192,63838,1,8,1:0:0:0:
256,192,63974,1,0,1:0:0:0:
256,192,64111,1,0,1:0:0:0:
256,192,64247,1,8,1:0:0:0:
256,192,64384,1,4,0:0:0:0:
256,192,64520,1,8,0:0:0:0:
256,192,64793,1,8,1:0:0:0:
256,192,65065,1,0,1:0:0:0:
256,192,65474,1,4,0:0:0:0:
256,192,65611,1,8,1:0:0:0:
256,192,65747,1,0,1:0:0:0:
256,192,65884,1,8,1:0:0:0:
256,192,66020,1,0,1:0:0:0:
256,192,66088,1,0,1:0:0:0:
256,192,66156,1,0,1:0:0:0:
256,192,66429,1,8,1:0:0:0:
256,192,66565,1,0,1:0:0:0:
256,192,66634,1,0,0:0:0:0:
256,192,66702,1,0,0:0:0:0:
256,192,66838,1,8,0:0:0:0:
256,192,67111,1,8,1:0:0:0:
256,192,67384,1,0,1:0:0:0:
256,192,67520,1,0,0:0:0:0:
256,192,67656,1,12,1:0:0:0:
256,192,67793,1,0,1:0:0:0:
256,192,67929,1,8,1:0:0:0:
256,192,68065,1,0,1:0:0:0:
256,192,68202,1,8,0:0:0:0:
256,192,68270,1,8,0:0:0:0:
256,192,68338,1,8,0:0:0:0:
256,192,68474,1,0,0:0:0:0:
256,192,68747,1,8,1:0:0:0:
256,192,68884,1,0,1:0:0:0:
256,192,68952,1,0,1:0:0:0:
256,192,69020,1,0,1:0:0:0:
256,192,69156,1,8,0:0:0:0:
256,192,69429,1,8,1:0:0:0:
256,192,69838,1,12,0:0:0:0:
256,192,69974,1,0,1:0:0:0:
256,192,70111,1,8,1:0:0:0:
256,192,70247,1,0,1:0:0:0:
256,192,70384,1,8,1:0:0:0:
256,192,70452,1,8,1:0:0:0:
256,192,70520,1,8,1:0:0:0:
256,192,70793,1,0,1:0:0:0:
256,192,70929,1,8,1:0:0:0:
256,192,70997,1,8,0:0:0:0:
256,192,71065,1,8,0:0:0:0:
256,192,71202,1,0,0:0:0:0:
256,192,71474,1,8,1:0:0:0:
256,192,71611,1,8,1:0:0:0:
256,192,71747,1,0,1:0:0:0:
256,192,72020,1,12,0:0:0:0:
256,192,73111,1,0,1:0:0:0:
256,192,73247,1,8,1:0:0:0:
256,192,73384,1,8,1:0:0:0:
256,192,73520,1,0,1:0:0:0:
256,192,73656,1,8,1:0:0:0:
256,192,73793,1,8,1:0:0:0:
256,192,73929,1,0,1:0:0:0:
256,192,74202,1,8,0:0:0:0:
256,192,74475,1,0,0:0:0:0:
256,192,74611,1,8,0:0:0:0:
256,192,74884,1,8,0:0:0:0:
256,192,75157,1,0,0:0:0:0:
256,192,75566,1,0,0:0:0:0:
256,192,75702,1,8,0:0:0:0:
256,192,75975,1,8,0:0:0:0:
256,192,76111,1,0,0:0:0:0:
256,192,76248,1,0,0:0:0:0:
256,192,76384,1,8,0:0:0:0:
256,192,76657,1,0,0:0:0:0:
256,192,76793,1,0,0:0:0:0:
256,192,77066,1,8,0:0:0:0:
256,192,77202,1,8,0:0:0:0:
256,192,77475,1,0,0:0:0:0:
256,192,77748,1,0,0:0:0:0:
256,192,77884,1,8,0:0:0:0:
256,192,78293,1,0,0:0:0:0:
256,192,78566,1,8,0:0:0:0:
256,192,78839,1,8,0:0:0:0:
256,192,78975,1,0,0:0:0:0:
256,192,79248,1,0,0:0:0:0:
256,192,79521,1,8,0:0:0:0:
256,192,79930,1,0,0:0:0:0:
256,192,80066,1,0,0:0:0:0:
256,192,80339,1,8,0:0:0:0:
256,192,80475,1,0,0:0:0:0:
256,192,80611,1,0,0:0:0:0:
256,192,80748,1,12,0:0:0:0:
256,192,81974,5,8,0:0:0:0:
256,192,82111,1,8,0:0:0:0:
256,192,82247,1,0,0:0:0:0:
256,192,82384,1,8,0:0:0:0:
256,192,82520,1,0,0:0:0:0:
256,192,82656,1,0,0:0:0:0:
256,192,82793,1,0,0:0:0:0:
256,192,82929,1,8,0:0:0:0:
256,192,83202,1,0,1:0:0:0:
256,192,83474,1,8,1:0:0:0:
256,192,83611,1,0,1:0:0:0:
256,192,83884,1,8,1:0:0:0:
256,192,84156,1,0,1:0:0:0:
256,192,84293,1,8,1:0:0:0:
256,192,84429,1,0,1:0:0:0:
256,192,84702,1,8,1:0:0:0:
256,192,84974,1,0,0:0:0:0:
256,192,85111,1,8,0:0:0:0:
256,192,85384,1,8,1:0:0:0:
256,192,85520,1,0,1:0:0:0:
256,192,85656,1,8,1:0:0:0:
256,192,85929,1,0,1:0:0:0:
256,192,86065,1,8,1:0:0:0:
256,192,86338,1,8,0:0:0:0:
256,192,86474,1,0,1:0:0:0:
256,192,86611,1,0,1:0:0:0:
256,192,86747,1,8,1:0:0:0:
256,192,87020,1,8,1:0:0:0:
256,192,87293,1,8,0:0:0:0:
256,192,87565,1,0,1:0:0:0:
256,192,87702,1,0,1:0:0:0:
256,192,87974,1,8,1:0:0:0:
256,192,88111,1,0,0:0:0:0:
256,192,88247,1,8,1:0:0:0:
256,192,88520,1,0,1:0:0:0:
256,192,88656,1,8,1:0:0:0:
256,192,88929,1,0,1:0:0:0:
256,192,89202,1,8,0:0:0:0:
256,192,89338,1,8,0:0:0:0:
256,192,89611,1,0,0:0:0:0:
256,192,89747,1,8,1:0:0:0:
256,192,89884,1,0,1:0:0:0:
256,192,90156,1,8,1:0:0:0:
256,192,90429,1,8,1:0:0:0:
256,192,90702,1,8,0:0:0:0:
256,192,90838,1,0,1:0:0:0:
256,192,90974,1,8,1:0:0:0:
256,192,91247,1,8,1:0:0:0:
256,192,91520,1,8,0:0:0:0:
256,192,91656,1,0,0:0:0:0:
256,192,91929,1,8,0:0:0:0:
256,192,92202,1,8,0:0:0:0:
256,192,92474,1,0,0:0:0:0:
256,192,92611,1,0,0:0:0:0:
256,192,92747,1,8,0:0:0:0:
256,192,92884,1,0,0:0:0:0:
256,192,93156,1,0,0:0:0:0:
256,192,93293,1,8,0:0:0:0:
256,192,93429,1,0,0:0:0:0:
256,192,93702,1,8,0:0:0:0:
256,192,94111,1,8,0:0:0:0:
256,192,94247,1,0,0:0:0:0:
256,192,94384,1,8,0:0:0:0:
256,192,94656,1,0,0:0:0:0:
256,192,94724,1,0,0:0:0:0:
256,192,94793,1,0,0:0:0:0:
256,192,94929,1,8,0:0:0:0:
256,192,95065,1,8,0:0:0:0:
256,192,95338,1,8,0:0:0:0:
256,192,95611,1,8,0:0:0:0:
256,192,96020,1,8,0:0:0:0:
256,192,96156,1,8,0:0:0:0:
256,192,96293,1,0,0:0:0:0:
256,192,96429,1,8,0:0:0:0:
256,192,96565,1,0,0:0:0:0:
256,192,96702,1,8,0:0:0:0:
256,192,96838,1,0,0:0:0:0:
256,192,96974,1,8,0:0:0:0:
256,192,97111,1,8,0:0:0:0:
256,192,97247,1,8,0:0:0:0:
256,192,97384,1,0,0:0:0:0:
256,192,97520,1,8,0:0:0:0:
256,192,97793,1,8,0:0:0:0:
256,192,97929,1,0,0:0:0:0:
256,192,98065,1,8,0:0:0:0:
256,192,98474,1,0,0:0:0:0:
256,192,98747,1,8,0:0:0:0:
256,192,99020,1,8,0:0:0:0:
256,192,99293,1,8,0:0:0:0:
256,192,99429,1,0,0:0:0:0:
256,192,99702,1,0,1:0:0:0:
256,192,99974,1,8,1:0:0:0:
256,192,104747,5,8,1:0:0:0:
256,192,104884,1,0,0:0:0:0:
256,192,105020,1,8,1:0:0:0:
256,192,105293,1,0,1:0:0:0:
256,192,105429,1,8,1:0:0:0:
256,192,105702,1,8,0:0:0:0:
256,192,105838,1,0,0:0:0:0:
256,192,105974,1,8,1:0:0:0:
256,192,106111,1,8,1:0:0:0:
256,192,106247,1,0,1:0:0:0:
256,192,106384,1,8,1:0:0:0:
256,192,106656,1,8,1:0:0:0:
256,192,106793,1,8,1:0:0:0:
256,192,106929,1,0,1:0:0:0:
256,192,107065,1,0,1:0:0:0:
256,192,107202,1,8,1:0:0:0:
256,192,107270,1,8,1:0:0:0:
256,192,107338,1,8,1:0:0:0:
256,192,107474,1,0,1:0:0:0:
256,192,107747,1,12,1:0:0:0:
256,192,108156,1,8,1:0:0:0:
256,192,108293,1,0,1:0:0:0:
256,192,108429,1,8,1:0:0:0:
256,192,108838,1,8,1:0:0:0:
256,192,109111,1,4,1:0:0:0:
256,192,109384,1,12,1:0:0:0:
256,192,109520,1,0,0:0:0:0:
256,192,109656,1,8,1:0:0:0:
256,192,109929,1,0,1:0:0:0:
256,192,110065,1,0,1:0:0:0:
256,192,110202,1,8,1:0:0:0:
256,192,110270,1,8,0:0:0:0:
256,192,110338,1,8,1:0:0:0:
256,192,110474,1,0,1:0:0:0:
256,192,110747,1,8,0:0:0:0:
256,192,111020,1,0,1:0:0:0:
256,192,111156,1,8,0:0:0:0:
256,192,111293,1,0,0:0:0:0:
256,192,111565,1,8,0:0:0:0:
256,192,111702,1,8,0:0:0:0:
256,192,111838,1,0,1:0:0:0:
256,192,111906,1,0,1:0:0:0:
256,192,111974,1,0,1:0:0:0:
256,192,112111,1,8,1:0:0:0:
256,192,112384,1,0,1:0:0:0:
256,192,112520,1,8,1:0:0:0:
256,192,112793,1,8,1:0:0:0:
256,192,113065,1,0,1:0:0:0:
256,192,113474,1,12,1:0:0:0:
256,192,113747,1,0,0:0:0:0:
256,192,113884,1,0,1:0:0:0:
256,192,114020,1,8,1:0:0:0:
256,192,114293,1,8,1:0:0:0:
256,192,114429,1,0,1:0:0:0:
256,192,114565,1,8,1:0:0:0:
256,192,114634,1,8,0:0:0:0:
256,192,114702,1,8,0:0:0:0:
256,192,114838,1,0,1:0:0:0:
256,192,115111,1,8,0:0:0:0:
256,192,115247,1,0,1:0:0:0:
256,192,115520,1,0,1:0:0:0:
256,192,115656,1,8,1:0:0:0:
256,192,115929,1,8,1:0:0:0:
256,192,116202,1,8,1:0:0:0:
256,192,116338,1,8,1:0:0:0:
256,192,116474,1,0,1:0:0:0:
256,192,116611,1,0,1:0:0:0:
256,192,116747,1,12,1:0:0:0:
256,192,117020,1,0,1:0:0:0:
256,192,117156,1,8,0:0:0:0:
256,192,117224,1,8,1:0:0:0:
256,192,117293,1,8,1:0:0:0:
256,192,117429,1,0,1:0:0:0:
256,192,117838,1,8,0:0:0:0:
256,192,118111,1,0,0:0:0:0:
256,192,118247,1,8,0:0:0:0:
256,192,118520,1,8,0:0:0:0:
256,192,118793,1,0,0:0:0:0:
256,192,119202,1,0,0:0:0:0:
256,192,119338,1,8,0:0:0:0:
256,192,119611,1,8,0:0:0:0:
256,192,119747,1,0,0:0:0:0:
256,192,119884,1,0,0:0:0:0:
256,192,120020,1,8,0:0:0:0:
256,192,120293,1,0,0:0:0:0:
256,192,120429,1,0,0:0:0:0:
256,192,120702,1,8,0:0:0:0:
256,192,120838,1,8,0:0:0:0:
256,192,121111,1,0,0:0:0:0:
256,192,121384,1,0,0:0:0:0:
256,192,121520,1,8,0:0:0:0:
256,192,121929,1,0,0:0:0:0:
256,192,122202,1,8,0:0:0:0:
256,192,122475,1,8,0:0:0:0:
256,192,122611,1,0,0:0:0:0:
256,192,122884,1,0,0:0:0:0:
256,192,123157,1,8,0:0:0:0:
256,192,123566,1,0,0:0:0:0:
256,192,123702,1,0,0:0:0:0:
256,192,123975,1,8,0:0:0:0:
256,192,124111,1,0,0:0:0:0:
256,192,124247,1,0,0:0:0:0:
256,192,124384,1,12,0:0:0:0:
256,192,126293,5,8,1:0:0:0:
256,192,126565,1,4,1:0:0:0:
256,192,126838,1,8,1:0:0:0:
256,192,126974,1,4,1:0:0:0:
256,192,127247,1,8,1:0:0:0:
256,192,127384,1,4,1:0:0:0:
256,192,127656,1,8,1:0:0:0:
256,192,127793,1,4,1:0:0:0:
256,192,128065,1,8,1:0:0:0:
256,192,128202,1,0,1:0:0:0:
256,192,128338,1,0,1:0:0:0:
256,192,128474,1,8,1:0:0:0:
256,192,128747,1,4,1:0:0:0:
256,192,129020,1,8,1:0:0:0:
256,192,129156,1,4,1:0:0:0:
256,192,129429,1,8,1:0:0:0:
256,192,129565,1,4,1:0:0:0:
256,192,129838,1,8,1:0:0:0:
256,192,129974,1,4,1:0:0:0:
256,192,130111,1,8,1:0:0:0:
256,192,130247,1,0,1:0:0:0:
256,192,130384,1,8,1:0:0:0:
256,192,130656,1,8,1:0:0:0:
256,192,130929,1,12,1:0:0:0:
256,192,131202,1,0,1:0:0:0:
256,192,131338,1,12,1:0:0:0:
256,192,131611,1,0,1:0:0:0:
256,192,131747,1,12,1:0:0:0:
256,192,132020,1,0,1:0:0:0:
256,192,132156,1,12,1:0:0:0:
256,192,132429,1,0,1:0:0:0:
256,192,132702,1,8,1:0:0:0:
256,192,132838,1,8,1:0:0:0:
256,192,133111,1,8,1:0:0:0:
256,192,133247,1,8,1:0:0:0:
256,192,133384,1,0,1:0:0:0:
256,192,133520,1,0,1:0:0:0:
256,192,133656,1,12,1:0:0:0:
256,192,133929,1,8,1:0:0:0:
256,192,133997,1,8,1:0:0:0:
256,192,134065,1,8,1:0:0:0:
256,192,134202,1,4,1:0:0:0:
256,192,135702,8,0,135838,1:0:0:0:
