osu file format v14

[General]
AudioFilename: audio.mp3
AudioLeadIn: 0
PreviewTime: 12666
Countdown: 0
SampleSet: Normal
StackLeniency: 0.7
Mode: 1
LetterboxInBreaks: 0
WidescreenStoryboard: 1

[Editor]
DistanceSpacing: 1
BeatDivisor: 2
GridSize: 16
TimelineZoom: 1.03

[Metadata]
Title:f(ake)
TitleUnicode:f(ake)
Artist:Plus-Tech Squeeze Box
ArtistUnicode:Plus-Tech Squeeze Box
Creator:meiqth
Version:k(antan) w/ pizzaninja
Source:
Tags:english rock cartoom! (f)ake fake _pizzaninjax sussy see Mary "Cookie" Royal Tsugumi Takashi
BeatmapID:4384865
BeatmapSetID:2087450

[Difficulty]
HPDrainRate:9
CircleSize:2
OverallDifficulty:3.5
ApproachRate:10
SliderMultiplier:1.25
SliderTickRate:1

[Events]
//Background and Video events
0,0,"d387dde683f7cb282ddd7a7fca456905.jpg",0,-69
//Break Periods
2,100384,104297
//Storyboard Layer 0 (Background)
//Storyboard Layer 1 (Fail)
//Storyboard Layer 2 (Pass)
//Storyboard Layer 3 (Foreground)
//Storyboard Layer 4 (Overlay)
//Storyboard Sound Samples

[TimingPoints]
3294,272.727272727273,4,1,0,80,1,8
4384,272.727272727273,4,1,0,80,1,0
13111,-100,4,1,0,90,0,1
17065,-100,4,1,0,90,0,0
17474,-100,4,1,0,90,0,1
28384,-100,4,1,0,90,0,0
30555,-100,4,1,0,70,0,0
38952,-100,4,1,0,100,0,0
39293,-100,4,1,0,100,0,1
45838,-100,4,1,0,100,0,0
46365,-100,4,1,0,80,0,0
56747,-100,4,1,0,90,0,1
65464,-100,4,1,0,90,0,1
72020,-100,4,1,0,80,0,0
74192,-100,4,1,0,70,0,0
109111,-100,4,1,0,90,0,1
115656,-100,4,1,0,90,0,0
117565,-100,4,1,0,90,0,0
117838,-100,4,1,0,70,0,0
126224,-100,4,1,0,100,0,0
126565,-100,4,1,0,100,0,1
133111,-100,4,1,0,100,0,0
134202,-100,4,1,0,100,0,1
134679,-100,4,1,0,100,0,0

[HitObjects]
256,192,3839,5,8,1:0:0:0:
256,192,4112,1,8,1:0:0:0:
256,192,4384,1,4,1:0:0:0:
256,192,8338,1,0,1:0:0:0:
256,192,8747,1,12,1:0:0:0:
256,192,10247,1,12,1:0:0:0:
256,192,10929,1,0,1:0:0:0:
256,192,11747,1,0,1:0:0:0:
256,192,12020,1,8,1:0:0:0:
256,192,12565,1,0,0:0:0:0:
256,192,13111,1,12,1:0:0:0:
256,192,13520,1,0,1:0:0:0:
256,192,13929,1,0,1:0:0:0:
256,192,14202,1,8,1:0:0:0:
256,192,14611,1,8,1:0:0:0:
256,192,15020,1,0,1:0:0:0:
256,192,15293,1,8,1:0:0:0:
256,192,15565,1,0,1:0:0:0:
256,192,15838,1,8,1:0:0:0:
256,192,16247,1,0,1:0:0:0:
256,192,17065,1,12,1:0:0:0:
256,192,17474,1,4,1:0:0:0:
256,192,17884,1,8,0:0:0:0:
256,192,18293,1,8,1:0:0:0:
256,192,18565,1,0,1:0:0:0:
256,192,18974,1,0,1:0:0:0:
256,192,19384,1,8,1:0:0:0:
256,192,19656,1,0,1:0:0:0:
256,192,19929,1,8,1:0:0:0:
256,192,20202,1,0,1:0:0:0:
256,192,20611,1,8,1:0:0:0:
256,192,21429,1,0,1:0:0:0:
256,192,21838,1,12,1:0:0:0:
256,192,22384,1,0,1:0:0:0:
256,192,22929,1,8,1:0:0:0:
256,192,23202,1,8,1:0:0:0:
256,192,23747,1,8,1:0:0:0:
256,192,24020,1,0,0:0:0:0:
256,192,24565,1,0,1:0:0:0:
256,192,24838,1,8,1:0:0:0:
256,192,25247,1,0,1:0:0:0:
256,192,25520,1,0,0:0:0:0:
256,192,25793,1,0,0:0:0:0:
256,192,26202,1,12,1:0:0:0:
256,192,26747,1,0,1:0:0:0:
256,192,27293,1,0,1:0:0:0:
256,192,27565,1,8,1:0:0:0:
256,192,27974,1,8,1:0:0:0:
256,192,28384,1,0,1:0:0:0:
256,192,28929,1,8,1:0:0:0:
256,192,29474,1,4,1:0:0:0:
265,200,30565,1,8,1:0:0:0:
257,194,30974,1,8,1:0:0:0:
257,194,31656,1,0,1:0:0:0:
267,161,32065,1,0,1:0:0:0:
278,152,32747,1,8,1:0:0:0:
279,163,33156,1,0,1:0:0:0:
265,168,33838,1,0,1:0:0:0:
257,194,34247,1,8,1:0:0:0:
263,185,34656,1,8,1:0:0:0:
257,194,34929,1,0,1:0:0:0:
257,194,35338,1,0,1:0:0:0:
272,188,36020,1,8,1:0:0:0:
261,187,36429,1,8,1:0:0:0:
249,157,37111,1,4,1:0:0:0:
256,192,39020,5,8,1:0:0:0:
256,192,39293,1,4,1:0:0:0:
256,192,39702,1,4,0:0:0:0:
256,192,40111,1,4,1:0:0:0:
256,192,40929,1,8,1:0:0:0:
256,192,41474,1,4,1:0:0:0:
256,192,41884,1,4,0:0:0:0:
256,192,42293,1,4,1:0:0:0:
256,192,43111,1,0,1:0:0:0:
256,192,43656,1,12,1:0:0:0:
256,192,44065,1,12,0:0:0:0:
256,192,44474,1,12,1:0:0:0:
256,192,45293,1,0,0:0:0:0:
256,192,45838,1,12,0:0:0:0:
256,192,48020,1,4,1:0:0:0:
256,192,48429,1,8,1:0:0:0:
256,192,48838,1,8,1:0:0:0:
256,192,49111,1,0,1:0:0:0:
256,192,49929,1,0,1:0:0:0:
256,192,50202,1,8,1:0:0:0:
256,192,50611,1,8,1:0:0:0:
256,192,51020,1,8,1:0:0:0:
256,192,51293,1,0,0:0:0:0:
256,192,51974,1,0,1:0:0:0:
256,192,52384,1,12,1:0:0:0:
256,192,52793,1,8,1:0:0:0:
256,192,53202,1,8,1:0:0:0:
256,192,53474,1,0,1:0:0:0:
256,192,54293,1,8,0:0:0:0:
256,192,54565,1,0,0:0:0:0:
256,192,54974,1,8,1:0:0:0:
256,192,55384,1,0,1:0:0:0:
256,192,55656,1,8,1:0:0:0:
256,192,56747,1,12,1:0:0:0:
256,192,57156,1,0,1:0:0:0:
256,192,57565,1,8,1:0:0:0:
256,192,57838,1,0,1:0:0:0:
256,192,58247,1,0,1:0:0:0:
256,192,58656,1,0,1:0:0:0:
256,192,58929,1,8,1:0:0:0:
256,192,59202,1,8,1:0:0:0:
256,192,59474,1,0,1:0:0:0:
256,192,59884,1,8,1:0:0:0:
256,192,60702,1,8,1:0:0:0:
256,192,61111,1,4,1:0:0:0:
256,192,61520,1,0,0:0:0:0:
256,192,61929,1,8,1:0:0:0:
256,192,62202,1,0,1:0:0:0:
256,192,62611,1,8,1:0:0:0:
256,192,63020,1,8,1:0:0:0:
256,192,63293,1,0,1:0:0:0:
256,192,63565,1,0,1:0:0:0:
256,192,63838,1,8,1:0:0:0:
256,192,64384,1,4,1:0:0:0:
256,192,65474,1,12,1:0:0:0:
256,192,65747,1,0,0:0:0:0:
256,192,66020,1,8,0:0:0:0:
256,192,66565,1,0,1:0:0:0:
256,192,66838,1,0,1:0:0:0:
256,192,67384,1,8,1:0:0:0:
256,192,67656,1,8,0:0:0:0:
256,192,68202,1,0,1:0:0:0:
256,192,68474,1,0,1:0:0:0:
256,192,68884,1,8,1:0:0:0:
256,192,69156,1,8,0:0:0:0:
256,192,69429,1,8,0:0:0:0:
256,192,69838,1,4,1:0:0:0:
256,192,70111,1,8,0:0:0:0:
256,192,70384,1,0,1:0:0:0:
256,192,70929,1,8,1:0:0:0:
256,192,71202,1,8,1:0:0:0:
256,192,71611,1,0,0:0:0:0:
256,192,72020,1,12,0:0:0:0:
256,192,73111,5,0,1:0:0:0:
256,192,73656,1,8,1:0:0:0:
256,192,73929,1,0,1:0:0:0:
265,200,74202,1,8,1:0:0:0:
257,194,74611,1,8,1:0:0:0:
257,194,75293,1,0,1:0:0:0:
267,161,75702,1,0,1:0:0:0:
278,152,76384,1,8,1:0:0:0:
279,163,76793,1,0,1:0:0:0:
265,168,77474,1,0,1:0:0:0:
257,194,77884,1,8,1:0:0:0:
263,185,78293,1,8,1:0:0:0:
257,194,78565,1,0,1:0:0:0:
257,194,78974,1,0,1:0:0:0:
272,188,79656,1,8,1:0:0:0:
261,187,80065,1,8,1:0:0:0:
249,157,80747,1,4,1:0:0:0:
256,192,82929,1,0,0:0:0:0:
256,192,83202,1,0,0:0:0:0:
256,192,83474,1,8,1:0:0:0:
256,192,84020,1,8,1:0:0:0:
256,192,84565,1,0,0:0:0:0:
256,192,85111,1,8,0:0:0:0:
256,192,85656,1,8,1:0:0:0:
256,192,86202,1,0,1:0:0:0:
256,192,86747,1,0,1:0:0:0:
256,192,87293,1,8,0:0:0:0:
256,192,87565,1,0,0:0:0:0:
256,192,87838,1,8,1:0:0:0:
256,192,88384,1,0,1:0:0:0:
256,192,88929,1,8,1:0:0:0:
256,192,89474,1,0,0:0:0:0:
256,192,90020,1,8,1:0:0:0:
256,192,90565,1,8,0:0:0:0:
256,192,91656,1,0,0:0:0:0:
256,192,91929,1,0,0:0:0:0:
256,192,92202,1,8,0:0:0:0:
256,192,92747,1,0,0:0:0:0:
256,192,93020,1,8,0:0:0:0:
256,192,93293,1,0,0:0:0:0:
256,192,93838,1,8,0:0:0:0:
256,192,94384,1,8,0:0:0:0:
256,192,94656,1,8,0:0:0:0:
256,192,94929,1,0,0:0:0:0:
256,192,95474,1,8,0:0:0:0:
256,192,96020,1,8,0:0:0:0:
256,192,96293,1,0,0:0:0:0:
256,192,96565,1,8,0:0:0:0:
256,192,97111,1,8,0:0:0:0:
256,192,97656,1,8,0:0:0:0:
256,192,98202,1,0,0:0:0:0:
256,192,98474,1,0,0:0:0:0:
256,192,98747,1,8,0:0:0:0:
256,192,99293,1,0,0:0:0:0:
256,192,99838,1,8,1:0:0:0:
256,192,104747,5,8,1:0:0:0:
256,192,105293,1,0,1:0:0:0:
256,192,105838,1,8,1:0:0:0:
256,192,106111,1,8,1:0:0:0:
256,192,106384,1,8,1:0:0:0:
256,192,106929,1,8,1:0:0:0:
256,192,107474,1,0,1:0:0:0:
256,192,107747,1,12,1:0:0:0:
256,192,109111,1,12,1:0:0:0:
256,192,109656,1,8,0:0:0:0:
256,192,110202,1,8,1:0:0:0:
256,192,110474,1,0,1:0:0:0:
256,192,111020,1,0,1:0:0:0:
256,192,111293,1,8,0:0:0:0:
256,192,111838,1,0,1:0:0:0:
256,192,112111,1,8,1:0:0:0:
256,192,112520,1,8,1:0:0:0:
256,192,112793,1,0,0:0:0:0:
256,192,113065,1,8,0:0:0:0:
256,192,113474,1,4,1:0:0:0:
256,192,114020,1,0,1:0:0:0:
256,192,114565,1,8,1:0:0:0:
256,192,114838,1,8,1:0:0:0:
256,192,115247,1,8,1:0:0:0:
256,192,115656,1,0,0:0:0:0:
256,192,116202,1,8,0:0:0:0:
256,192,116747,1,4,0:0:0:0:
265,200,117838,1,8,1:0:0:0:
257,194,118247,1,8,1:0:0:0:
257,194,118929,1,0,1:0:0:0:
267,161,119338,1,0,1:0:0:0:
278,152,120020,1,8,1:0:0:0:
279,163,120429,1,0,1:0:0:0:
265,168,121111,1,0,1:0:0:0:
257,194,121520,1,8,1:0:0:0:
263,185,121929,1,8,1:0:0:0:
257,194,122202,1,0,1:0:0:0:
257,194,122611,1,0,1:0:0:0:
272,188,123293,1,8,1:0:0:0:
261,187,123702,1,8,1:0:0:0:
249,157,124384,1,4,1:0:0:0:
256,192,126293,5,8,1:0:0:0:
256,192,126565,1,4,1:0:0:0:
256,192,126974,1,4,0:0:0:0:
256,192,127384,1,4,1:0:0:0:
256,192,128202,1,8,1:0:0:0:
256,192,128747,1,4,1:0:0:0:
256,192,129156,1,4,0:0:0:0:
256,192,129565,1,4,1:0:0:0:
256,192,130384,1,0,1:0:0:0:
256,192,130929,1,12,1:0:0:0:
256,192,131338,1,12,0:0:0:0:
256,192,131747,1,12,1:0:0:0:
256,192,132565,1,0,0:0:0:0:
256,192,132838,1,8,0:0:0:0:
256,192,133111,1,4,0:0:0:0:
256,192,133656,1,8,0:0:0:0:
256,192,134202,1,4,0:0:0:0:
