osu file format v14

[General]
AudioFilename: audio.mp3
AudioLeadIn: 0
PreviewTime: 165
Countdown: 0
SampleSet: None
StackLeniency: 0.4
Mode: 0
LetterboxInBreaks: 0
WidescreenStoryboard: 1

[Editor]
DistanceSpacing: 1.2
BeatDivisor: 4
GridSize: 32
TimelineZoom: 2.1

[Metadata]
Title:Pucca Funny Love (TV Size)
TitleUnicode:Pucca Funny Love (TV Size)
Artist:Plus-Tech Squeeze Box
ArtistUnicode:Plus-Tech Squeeze Box
Creator:Elcheer
Version:Hard
Source:Pucca
Tags:opening op electronic japanese
BeatmapID:2265287
BeatmapSetID:1039255

[Difficulty]
HPDrainRate:4.5
CircleSize:3.3
OverallDifficulty:6
ApproachRate:7.5
SliderMultiplier:1.5
SliderTickRate:1

[Events]
//Background and Video events
Video,0,"pucca.mp4"
0,0,"pucca.png",0,0
//Break Periods
//Storyboard Layer 0 (Background)
//Storyboard Layer 1 (Fail)
//Storyboard Layer 2 (Pass)
//Storyboard Layer 3 (Foreground)
//Storyboard Layer 4 (Overlay)
//Storyboard Sound Samples

[TimingPoints]
240,300,6,2,1,80,1,0
15240,300,4,2,1,60,1,0
15540,-125,4,2,1,60,0,0
24540,-100,4,2,1,60,0,0
24840,300,6,2,1,80,1,1
24915,-100,6,2,1,80,0,0

[Colours]
Combo1 : 180,180,180
Combo2 : 255,85,85

[HitObjects]
22,372,240,6,0,L|184:359,1,150,4|8,3:2|0:2,0:0:0:0:
260,349,690,1,0,0:2:0:0:
208,275,840,2,0,P|197:219|212:176,1,75,0|0,3:2|3:2,0:0:0:0:
249,126,1140,1,8,0:2:0:0:
340,203,1290,2,0,B|387:227|387:227|493:201,1,150,0|0,3:2|3:2,0:0:0:0:
484,113,1740,2,0,L|404:134,1,75,0|8,0:0|0:2,0:0:0:0:
340,203,2040,6,0,B|293:227|293:227|187:201,1,150,4|8,3:2|0:2,0:0:0:0:
143,131,2490,1,0,0:2:0:0:
76,191,2640,2,0,P|69:237|80:289,1,75,0|0,3:2|3:2,0:0:0:0:
109,349,2940,1,8,0:2:0:0:
209,324,3090,2,0,B|251:308|292:323|280:334|318:353|367:327,1,150,0|0,3:2|3:2,0:0:0:0:
423,276,3540,2,0,L|429:225,3,37.5,8|8|8|8,0:2|0:2|0:2|0:2,0:0:0:0:
432,194,3840,6,0,B|446:88|446:88|389:113,1,150,4|8,3:2|0:2,0:0:0:0:
326,179,4290,1,0,0:2:0:0:
269,111,4440,2,0,P|221:98|187:103,1,75,0|0,3:2|3:2,0:0:0:0:
116,143,4740,1,8,0:2:0:0:
186,198,4890,1,0,3:2:0:0:
108,242,5040,1,0,0:2:0:0:
181,294,5190,2,0,P|221:309|259:304,1,75,0|2,3:2|0:3,0:0:0:0:
321,247,5490,1,8,0:2:0:0:
415,169,5640,6,0,P|469:184|508:274,1,150,4|8,3:2|0:2,0:0:0:0:
490,351,6090,1,0,0:2:0:0:
402,328,6240,2,0,P|354:327|316:344,1,75,0|0,3:2|3:2,0:0:0:0:
245,369,6540,1,8,0:2:0:0:
181,294,6690,2,0,P|157:225|192:161,1,150,0|2,3:2|3:3,0:0:0:0:
277,114,7140,1,8,0:2:0:0:
334,183,7290,1,8,0:2:0:0:
357,64,7440,6,0,P|296:22|221:39,1,150,4|8,3:2|0:2,0:0:0:0:
156,93,7890,1,0,0:2:0:0:
72,59,8040,2,0,L|58:139,1,75,0|0,3:2|3:2,0:0:0:0:
49,222,8340,1,8,0:2:0:0:
167,182,8490,2,0,L|187:333,1,150,0|0,3:2|3:2,0:0:0:0:
276,319,8940,2,0,L|262:231,1,75,0|8,0:2|0:2,0:0:0:0:
249,156,9240,6,0,P|315:170|352:255,1,150,4|8,3:2|0:2,0:0:0:0:
354,328,9690,1,0,0:2:0:0:
275,283,9840,2,0,P|237:286|205:304,1,75,0|0,3:2|3:2,0:0:0:0:
147,374,10140,1,8,0:2:0:0:
78,316,10290,2,0,P|58:261|70:167,1,150,0|0,3:2|3:2,0:0:0:0:
132,108,10740,2,0,P|150:108|168:114,3,37.5,8|8|8|8,0:2|0:2|0:2|0:2,0:0:0:0:
196,149,11040,6,0,P|260:182|328:154,1,150,4|8,3:2|0:2,0:0:0:0:
356,69,11490,1,0,0:2:0:0:
435,112,11640,2,0,P|461:141|471:176,1,75,0|0,3:2|3:2,0:0:0:0:
414,245,11940,5,8,0:2:0:0:
355,312,12090,2,0,L|260:292,1,75,0|0,3:2|0:2,0:0:0:0:
238,218,12390,2,0,P|201:256|194:288,1,75,0|0,3:0|0:0,0:0:0:0:
222,362,12690,1,8,0:0:0:0:
281,296,12840,5,4,3:2:0:0:
322,215,12990,2,0,P|318:177|281:140,1,75,0|8,0:2|0:2,0:0:0:0:
228,89,13290,2,0,P|260:121|365:102,1,150,0|0,0:2|3:2,0:0:0:0:
419,44,13740,6,0,B|449:101|449:101|427:196,1,150,0|0,3:2|0:2,0:0:0:0:
397,268,14190,2,0,P|338:302|251:279,1,150,2|8,3:3|0:2,0:0:0:0:
218,206,14640,2,0,P|231:184|247:175,3,37.5,0|0|0|0,1:2|1:2|1:2|1:2,0:0:0:0:
282,161,14940,2,0,L|342:151,3,37.5,0|0|0|0,1:2|1:2|1:2|1:2,0:0:0:0:
354,126,15240,5,4,3:2:0:0:
446,237,15540,6,0,L|422:367,1,120,2|0,3:2|3:2,0:0:0:0:
334,353,15990,1,0,0:2:0:0:
356,265,16140,1,2,3:2:0:0:
378,177,16290,2,0,P|305:181|266:233,1,120,0|0,0:2|0:2,0:0:0:0:
243,335,16740,6,0,P|198:352|104:337,1,120,2|0,3:2|3:2,0:0:0:0:
56,290,17190,1,0,0:2:0:0:
113,221,17340,1,2,3:2:0:0:
46,160,17490,2,0,P|34:104|90:48,1,120,0|0,0:2|0:2,0:0:0:0:
154,84,17940,6,0,P|239:111|285:88,1,120,2|0,3:2|3:2,0:0:0:0:
353,119,18390,2,0,L|344:191,1,60,0|2,0:2|3:2,0:0:0:0:
287,247,18690,6,0,P|354:232|408:281,1,120,0|0,0:2|0:2,0:0:0:0:
335,325,19140,1,2,3:2:0:0:
212,302,19290,2,0,B|182:290|145:302|162:310|120:323|74:301,1,120,0|0,0:2|0:0,0:0:0:0:
25,251,19740,2,0,P|15:208|26:169,1,60,2|0,0:2|0:2,0:0:0:0:
63,115,20040,1,0,3:2:0:0:
214,178,20340,6,0,B|256:200|256:200|346:186,1,120,2|0,3:2|3:2,0:0:0:0:
387,121,20790,1,0,0:2:0:0:
337,45,20940,1,2,3:2:0:0:
431,46,21090,2,0,P|482:66|507:145,1,120,0|0,0:2|0:2,0:0:0:0:
480,208,21540,6,0,B|441:237|441:237|360:225,1,120,2|0,3:2|3:2,0:0:0:0:
304,165,21990,1,0,0:2:0:0:
293,254,22140,1,2,3:2:0:0:
223,203,22290,2,0,B|202:193|158:202|176:214|133:220|84:197,1,120,0|0,0:2|0:2,0:0:0:0:
25,162,22740,6,0,P|80:214|73:272,1,120,2|0,3:2|3:2,0:0:0:0:
33,331,23190,1,0,0:2:0:0:
109,378,23340,1,2,3:2:0:0:
174,315,23490,6,0,P|212:298|245:300,1,60,0|0,0:2|3:2,0:0:0:0:
307,342,23790,2,0,P|345:359|377:357,1,60,0|2,0:2|3:2,0:0:0:0:
431,301,24090,2,0,P|460:249|423:179,1,120,0|0,0:2|0:2,0:0:0:0:
363,151,24540,2,0,P|337:153|310:170,3,37.5,0|0|0|0,3:2|3:2|3:2|3:2,0:0:0:0:
306,198,24840,6,0,P|251:244|146:232,1,150,4|8,3:2|0:2,0:0:0:0:
92,210,25290,1,0,0:2:0:0:
54,128,25440,2,0,L|66:50,1,75,0|0,3:2|0:2,0:0:0:0:
146,14,25740,1,8,0:2:0:0:
239,82,25890,2,0,P|291:102|384:80,2,150,0|0|8,3:2|3:2|0:2,0:0:0:0:
146,14,26640,6,0,B|129:55|129:55|146:166,1,150,4|8,3:2|0:2,0:0:0:0:
166,246,27090,1,0,0:2:0:0:
244,202,27240,2,0,P|282:197|321:208,1,75,0|0,3:2|0:2,0:0:0:0:
372,276,27540,1,8,0:2:0:0:
455,195,27690,2,0,P|484:150|445:45,1,150,0|0,3:2|3:2,0:0:0:0:
380,24,28140,2,0,L|339:31,3,37.5,8|8|8|8,0:2|0:2|0:2|0:2,0:0:0:0:
300,43,28440,6,0,B|277:81|277:81|301:184,1,150,4|8,3:2|0:2,0:0:0:0:
322,272,28890,1,0,0:2:0:0:
245,319,29040,2,0,L|162:303,1,75,0|0,3:2|0:2,0:0:0:0:
83,284,29340,1,8,0:2:0:0:
36,206,29490,6,0,P|29:165|51:114,1,75,0|0,3:2|0:2,0:0:0:0:
101,69,29790,2,0,P|143:54|181:62,1,75,0|0,3:0|0:0,0:0:0:0:
242,114,30090,1,8,0:0:0:0:
230,203,30240,5,4,3:2:0:0:
309,160,30390,2,0,P|345:153|382:158,1,75,0|8,0:2|0:2,0:0:0:0:
455,211,30690,2,0,P|478:248|450:348,1,150,0|0,0:2|0:2,0:0:0:0:
394,276,31140,6,0,B|292:253|292:253|255:281,1,150,0|8,3:2|0:2,0:0:0:0:
202,353,31590,2,0,P|126:381|55:340,1,150,0|8,3:2|0:2,0:0:0:0:
133,292,32040,1,0,3:2:0:0:
