osu file format v14

[General]
AudioFilename: audio.mp3
AudioLeadIn: 0
PreviewTime: 165
Countdown: 0
SampleSet: None
StackLeniency: 0.4
Mode: 0
LetterboxInBreaks: 0
WidescreenStoryboard: 0

[Editor]
DistanceSpacing: 1.4
BeatDivisor: 4
GridSize: 32
TimelineZoom: 2.1

[Metadata]
Title:Pucca Funny Love (TV Size)
TitleUnicode:Pucca Funny Love (TV Size)
Artist:Plus-Tech Squeeze Box
ArtistUnicode:Plus-Tech Squeeze Box
Creator:Elcheer
Version:Another
Source:Pucca
Tags:opening op electronic japanese
BeatmapID:2265286
BeatmapSetID:1039255

[Difficulty]
HPDrainRate:5.5
CircleSize:4
OverallDifficulty:8
ApproachRate:9
SliderMultiplier:1.6
SliderTickRate:1

[Events]
//Background and Video events
Video,0,"pucca.mp4"
0,0,"pucca.png",0,0
//Break Periods
//Storyboard Layer 0 (Background)
//Storyboard Layer 1 (Fail)
//Storyboard Layer 2 (Pass)
//Storyboard Layer 3 (Foreground)
//Storyboard Layer 4 (Overlay)
//Storyboard Sound Samples

[TimingPoints]
240,300,6,2,1,80,1,0
15240,300,4,2,1,60,1,0
15240,-125,4,2,1,60,0,0
24840,300,6,2,1,80,1,1
24915,-100,6,2,1,80,0,0

[Colours]
Combo1 : 180,180,180
Combo2 : 255,85,85

[HitObjects]
32,345,240,6,0,L|119:357,1,80,4|0,3:2|0:2,0:0:0:0:
255,258,540,2,0,L|168:270,1,80,8|0,0:2|0:2,0:0:0:0:
90,213,840,1,0,3:2:0:0:
145,362,990,1,0,3:2:0:0:
211,187,1140,1,8,0:2:0:0:
306,349,1290,2,0,B|365:364|398:352|383:343|428:331|470:348,1,160,0|0,3:2|3:2,0:0:0:0:
350,271,1740,1,0,0:0:0:0:
424,187,1890,1,8,0:2:0:0:
211,187,2040,6,0,P|205:226|211:265,1,80,4|0,3:2|0:2,0:0:0:0:
423,155,2340,2,0,P|428:115|422:76,1,80,8|0,0:2|0:2,0:0:0:0:
286,224,2640,1,0,3:2:0:0:
203,34,2790,1,0,3:2:0:0:
365,145,2940,1,8,0:2:0:0:
167,157,3090,2,0,P|146:84|218:33,1,160,0|0,3:2|3:2,0:0:0:0:
379,34,3540,1,8,0:2:0:0:
375,61,3615,1,8,0:2:0:0:
372,89,3690,1,8,0:2:0:0:
368,117,3765,1,8,0:2:0:0:
365,145,3840,6,0,L|355:224,1,80,4|0,3:2|0:2,0:0:0:0:
264,342,4140,2,0,L|254:262,1,80,8|0,0:2|0:2,0:0:0:0:
241,141,4440,1,0,3:2:0:0:
140,296,4590,1,0,3:2:0:0:
355,224,4740,5,8,0:2:0:0:
126,174,4890,1,0,3:2:0:0:
332,69,5040,1,0,0:2:0:0:
246,229,5191,2,0,P|234:267|233:307,1,80,0|2,3:2|0:3,0:0:0:0:
153,66,5490,1,8,0:2:0:0:
73,246,5640,6,0,P|62:302|64:352,1,80,4|0,3:2|0:2,0:0:0:0:
246,229,5940,2,0,P|243:189|234:150,1,80,8|0,0:2|0:2,0:0:0:0:
153,66,6240,1,0,3:2:0:0:
339,145,6390,1,0,3:2:0:0:
148,199,6540,1,8,0:2:0:0:
378,221,6690,2,0,P|427:162|410:87,1,160,0|2,3:2|3:3,0:0:0:0:
246,229,7140,1,8,0:2:0:0:
454,307,7290,1,8,0:2:0:0:
339,145,7440,6,0,P|319:100|325:57,1,80,4|0,3:2|0:2,0:0:0:0:
494,7,7740,2,0,P|514:52|508:95,1,80,8|0,0:2|0:2,0:0:0:0:
428,211,8040,1,0,3:2:0:0:
396,17,8190,1,0,3:2:0:0:
268,197,8340,1,8,0:2:0:0:
459,136,8490,2,0,P|500:167|476:278,1,160,0|0,3:2|3:2,0:0:0:0:
412,353,8940,1,0,0:2:0:0:
338,141,9090,1,8,0:2:0:0:
183,277,9240,6,0,P|169:326|174:370,1,80,4|0,3:2|0:2,0:0:0:0:
350,218,9540,2,0,P|350:178|337:140,1,80,8|0,0:2|0:2,0:0:0:0:
247,61,9840,1,0,3:2:0:0:
274,273,9990,1,0,3:2:0:0:
428,117,10140,1,8,0:2:0:0:
182,175,10290,2,0,B|131:188|101:177|112:170|67:157|23:174,1,160,0|0,3:2|3:2,0:0:0:0:
213,251,10740,1,8,0:2:0:0:
237,238,10815,1,8,0:2:0:0:
256,217,10890,1,8,0:2:0:0:
265,191,10965,1,8,0:2:0:0:
265,163,11040,6,0,P|263:101|251:73,1,80,4|0,3:2|0:2,0:0:0:0:
64,12,11340,2,0,P|53:50|55:90,1,80,8|0,0:2|0:2,0:0:0:0:
115,218,11640,1,0,3:2:0:0:
209,19,11790,1,0,3:2:0:0:
24,173,11940,5,8,0:2:0:0:
276,79,12090,2,0,P|324:80|364:98,1,80,0|0,3:2|0:2,0:0:0:0:
235,158,12390,2,0,P|195:122|186:81,1,80,0|0,3:0|0:0,0:0:0:0:
209,19,12690,1,8,0:0:0:0:
344,169,12840,5,4,3:2:0:0:
157,268,12990,2,0,P|98:283|67:280,1,80,0|8,0:2|0:2,0:0:0:0:
0,121,13290,2,0,P|65:119|107:212,1,160,0|0,0:2|3:2,0:0:0:0:
14,361,13740,6,0,B|60:344|97:360|87:373|136:377|173:363,1,160,0|0,3:2|0:2,0:0:0:0:
346,263,14190,2,0,B|311:276|262:272|272:259|235:243|189:260,1,160,2|8,3:3|0:2,0:0:0:0:
225,113,14640,5,0,1:2:0:0:
252,116,14715,1,0,1:2:0:0:
277,130,14790,1,0,1:2:0:0:
295,151,14865,1,0,1:2:0:0:
305,176,14940,5,0,1:2:0:0:
268,161,15015,1,0,1:2:0:0:
247,128,15090,1,0,1:2:0:0:
251,89,15165,1,0,1:2:0:0:
278,60,15240,2,0,P|321:56|352:60,1,64,4|0,3:2|0:2,0:0:0:0:
220,227,15540,6,0,P|155:255|87:253,1,128,2|0,3:2|3:2,0:0:0:0:
7,204,15990,1,0,0:2:0:0:
168,109,16140,1,2,3:2:0:0:
7,53,16290,2,0,P|-8:117|4:189,1,128,0|0,0:2|0:2,0:0:0:0:
221,156,16740,6,0,B|86:122,1,128,2|0,3:2|3:2,0:0:0:0:
155,223,17190,1,0,0:2:0:0:
201,69,17340,1,2,3:2:0:0:
309,191,17490,2,0,B|330:220|330:220|313:316,1,128,0|0,0:2|0:2,0:0:0:0:
198,362,17940,6,0,L|210:299,1,64,2|0,3:2|0:2,0:0:0:0:
229,198,18240,1,0,3:2:0:0:
313,310,18390,1,0,0:2:0:0:
138,199,18540,1,2,3:2:0:0:
267,117,18690,6,0,P|304:148|307:238,1,128,0|0,0:2|0:2,0:0:0:0:
209,299,19140,1,2,3:2:0:0:
169,126,19290,2,0,B|137:115|101:121|115:128|77:142|34:125,1,128,0|0,0:2|0:0,0:0:0:0:
208,55,19740,2,0,P|246:91|249:130,1,64,2|0,0:2|0:2,0:0:0:0:
167,216,20040,5,0,3:2:0:0:
453,318,20340,6,0,P|439:273|361:293,1,128,2|0,3:2|3:2,0:0:0:0:
309,361,20790,1,0,0:2:0:0:
270,202,20940,1,2,3:2:0:0:
130,300,21090,2,0,P|163:311|261:298,1,128,0|0,0:2|0:2,0:0:0:0:
107,221,21540,6,0,P|64:248|58:343,1,128,2|0,3:2|3:2,0:0:0:0:
104,384,21990,1,0,0:2:0:0:
194,220,22140,1,2,3:2:0:0:
314,369,22290,2,0,P|281:380|183:367,1,128,0|0,0:2|0:2,0:0:0:0:
259,152,22740,6,0,B|291:185|291:185|282:274,1,128,2|0,3:2|3:2,0:0:0:0:
194,220,23190,1,0,0:2:0:0:
319,90,23340,1,2,3:2:0:0:
167,25,23490,6,0,P|151:76|154:110,1,64,0|0,0:2|3:2,0:0:0:0:
308,0,23790,2,0,P|324:51|321:85,1,64,0|2,0:2|3:2,0:0:0:0:
220,159,24090,2,0,B|262:150|299:159|282:170|322:183|356:166,1,128,0|0,0:2|0:2,0:0:0:0:
469,85,24540,5,0,3:2:0:0:
466,116,24615,1,0,3:2:0:0:
463,148,24690,1,0,3:2:0:0:
460,180,24765,1,0,3:2:0:0:
457,212,24840,6,0,L|448:295,1,80,4|0,3:2|0:2,0:0:0:0:
276,208,25140,2,0,L|284:287,1,80,8|0,0:2|0:2,0:0:0:0:
299,383,25440,1,0,3:2:0:0:
372,195,25590,1,0,0:2:0:0:
204,292,25740,1,8,0:2:0:0:
343,106,25890,2,0,P|420:113|460:180,1,160,0|0,3:2|3:2,0:0:0:0:
276,208,26340,1,0,0:0:0:0:
315,26,26490,1,8,0:2:0:0:
276,208,26640,6,0,P|230:213|186:203,1,80,4|0,3:2|0:2,0:0:0:0:
115,91,26940,2,0,P|161:86|205:96,1,80,8|0,0:2|0:2,0:0:0:0:
112,221,27240,1,0,3:2:0:0:
275,115,27390,1,0,0:2:0:0:
62,160,27540,1,8,0:2:0:0:
276,208,27690,2,0,P|297:269|246:353,1,160,0|0,3:2|3:2,0:0:0:0:
76,377,28140,1,8,0:2:0:0:
74,349,28215,1,8,0:2:0:0:
72,321,28290,1,8,0:2:0:0:
70,293,28365,1,8,0:2:0:0:
68,265,28440,6,0,L|64:184,1,80,4|0,3:2|0:2,0:0:0:0:
279,128,28740,2,0,L|275:207,1,80,8|0,0:2|0:2,0:0:0:0:
170,103,29040,1,0,3:2:0:0:
357,54,29190,1,0,0:2:0:0:
193,220,29340,5,8,0:2:0:0:
383,263,29490,2,0,P|394:196|391:165,1,80,0|0,3:2|0:2,0:0:0:0:
301,293,29790,2,0,P|337:336|372:351,1,80,0|0,3:0|0:0,0:0:0:0:
448,361,30090,1,8,0:0:0:0:
503,236,30240,5,4,3:2:0:0:
359,103,30390,2,0,P|315:155|303:183,1,80,0|8,0:2|0:2,0:0:0:0:
445,116,30690,2,0,P|439:67|350:11,1,160,0|0,0:2|0:2,0:0:0:0:
217,142,31140,6,0,B|188:178|188:178|209:306,1,160,0|8,3:2|0:2,0:0:0:0:
428,202,31590,2,0,B|383:186|340:200|357:209|326:223|263:201,1,160,0|8,3:2|0:2,0:0:0:0:
117,136,32040,1,0,3:2:0:0:
