osu file format v14

[General]
AudioFilename: audio.mp3
AudioLeadIn: 0
PreviewTime: 5931
Countdown: 0
SampleSet: None
StackLeniency: 0.4
Mode: 0
LetterboxInBreaks: 0
WidescreenStoryboard: 1

[Editor]
Bookmarks: 1469,7393,19086,24933,30779,38087,43934,49780,55627
DistanceSpacing: 1.1
BeatDivisor: 4
GridSize: 4
TimelineZoom: 1

[Metadata]
Title:CartooomTV
TitleUnicode:CartooomTV
Artist:Plus-Tech Squeeze Box
ArtistUnicode:Plus-Tech Squeeze Box
Creator:dsco
Version:Normal
Source:
Tags:cartoon pop picopop pico japan cartoom
BeatmapID:1460438
BeatmapSetID:690005

[Difficulty]
HPDrainRate:3
CircleSize:3
OverallDifficulty:3
ApproachRate:4
SliderMultiplier:1
SliderTickRate:1

[Events]
//Background and Video events
0,0,"1490034834128.jpg",0,0
//Break Periods
//Storyboard Layer 0 (Background)
//Storyboard Layer 1 (Fail)
//Storyboard Layer 2 (Pass)
//Storyboard Layer 3 (Foreground)
//Storyboard Sound Samples

[TimingPoints]
7393.42857142857,365.408038976858,4,2,0,60,1,0

[Colours]
Combo1 : 236,200,91
Combo2 : 241,150,191
Combo3 : 237,153,124
Combo4 : 244,202,228

[HitObjects]
388,215,7393,6,0,P|384:264|402:311,1,100,4|0,3:2|3:0,0:0:0:0:
490,245,8124,2,0,P|493:195|475:148,1,100,0|0,3:0|3:0,0:0:0:0:
393,76,8855,6,0,L|259:66,1,100,2|8,3:0|3:0,0:0:0:0:
246,98,9403,2,0,L|135:92,1,100,2|2,0:0|0:0,0:0:0:0:
94,72,9951,1,2,0:2:0:0:
115,179,10316,6,0,L|176:184,2,50,4|2|0,3:2|0:0|3:0,0:0:0:0:
49,267,11047,2,0,L|-12:272,2,50,0|2|0,3:0|0:0|3:0,0:0:0:0:
151,343,11778,5,0,3:0:0:0:
188,302,11961,2,0,P|244:286|306:300,1,100,2|2,0:0|0:0,0:0:0:0:
331,319,12509,2,0,P|380:323|427:308,1,100,2|0,3:0|3:0,0:0:0:0:
490,218,13239,6,0,L|499:85,1,100,4|0,3:2|3:0,0:0:0:0:
399,65,13970,2,0,L|392:164,1,100,0|0,3:0|3:0,0:0:0:0:
309,237,14701,6,0,P|255:248|179:216,1,100,2|8,3:0|3:0,0:0:0:0:
182,191,15249,2,0,P|133:180|85:192,1,100,2|2,0:0|0:0,0:0:0:0:
37,163,15797,1,2,0:0:0:0:
84,63,16163,6,0,L|194:56,1,100,2|2,3:0|3:0,0:0:0:0:
266,129,16894,2,0,L|376:122,1,100,2|2,3:0|3:2,0:0:0:0:
415,98,17442,1,2,0:0:0:0:
465,121,17624,6,0,P|483:175|460:276,2,150,8|8|0,0:3|0:3|0:0,0:0:0:0:
415,98,18903,1,2,0:0:0:0:
364,75,19086,6,0,L|255:71,1,100,2|2,0:0|0:0,0:0:0:0:
214,46,19634,2,0,P|201:94|210:142,1,100,2|2,0:0|0:0,0:0:0:0:
285,222,20365,1,2,0:0:0:0:
321,262,20548,6,0,P|331:318|317:360,1,100,2|2,0:0|0:0,0:0:0:0:
263,365,21096,2,0,L|158:357,1,100,2|2,0:0|3:0,0:0:0:0:
119,325,21644,1,2,0:0:0:0:
35,182,22009,1,2,3:0:0:0:
77,147,22192,6,0,P|125:138|178:149,1,100,2|2,0:0|0:0,0:0:0:0:
220,178,22740,2,0,P|268:187|317:178,1,100,2|2,0:0|0:0,0:0:0:0:
424,150,23471,6,0,B|439:99|439:99|428:-5,2,150,2|0|0,0:0|0:0|0:0,0:0:0:0:
402,200,24750,1,0,0:0:0:0:
381,251,24933,6,0,L|373:359,1,100,4|0,3:2|3:0,0:0:0:0:
264,366,25663,2,0,L|256:266,1,100,0|0,3:0|3:0,0:0:0:0:
185,181,26394,6,0,P|173:130|183:76,1,100,2|8,3:0|3:0,0:0:0:0:
222,47,26942,2,0,L|327:56,1,100,10|0,0:3|0:0,0:0:0:0:
368,26,27490,1,2,0:0:0:0:
413,127,27856,6,0,L|472:123,2,50,8|8|8,0:3|0:3|0:3,0:0:0:0:
347,215,28587,2,0,L|246:208,2,100,8|0|2,0:3|3:0|0:0,0:0:0:0:
400,311,29683,5,2,0:0:0:0:
493,253,30048,2,0,L|497:182,1,50,8|2,0:3|0:0,0:0:0:0:
445,179,30414,2,0,L|449:108,1,50,8|8,0:3|0:3,0:0:0:0:
483,87,30779,1,4,0:0:0:0:
483,87,32241,5,4,0:0:0:0:
381,129,32606,2,0,P|373:79|390:28,2,100,0|0|0,0:0|0:0|0:0,0:0:0:0:
459,205,33702,5,0,0:0:0:0:
397,296,34068,2,0,L|499:305,2,100,0|0|0,0:0|0:0|0:0,0:0:0:0:
311,365,35164,5,2,3:0:0:0:
269,329,35347,2,0,L|169:320,1,100,2|2,0:0|0:0,0:0:0:0:
111,226,36077,2,0,L|210:234,1,100,2|2,0:0|0:0,0:0:0:0:
259,208,36626,5,2,3:0:0:0:
300,244,36808,2,0,P|352:258|406:244,1,100,2|2,0:0|0:0,0:0:0:0:
470,167,37539,2,0,P|484:115|470:61,1,100,2|0,0:0|3:0,0:0:0:0:
423,49,38087,6,0,L|428:-19,2,50,2|2|2,0:0|0:0|0:0,0:0:0:0:
330,108,38818,2,0,L|333:157,2,50,2|2|2,0:0|0:0|0:0,0:0:0:0:
282,80,39366,1,2,0:0:0:0:
256,192,39549,12,2,40767,3:0:0:0:
217,136,42472,6,0,L|154:132,1,50,0|0,3:0|3:0,0:0:0:0:
119,161,42838,2,0,P|104:116|112:53,2,100,2|2|2,0:0|3:0|0:0,0:0:0:0:
180,252,43934,5,2,3:0:0:0:
228,226,44116,2,0,L|329:230,1,100,2|2,0:0|0:0,0:0:0:0:
368,267,44665,2,0,P|430:278|475:263,1,100,2|2,3:0|3:0,0:0:0:0:
505,166,45395,5,2,3:0:0:0:
464,128,45578,2,0,B|433:120|433:120|322:126,1,100,2|2,0:0|0:0,0:0:0:0:
313,105,46126,2,0,L|254:107,2,50,2|2|2,3:0|0:0|3:0,0:0:0:0:
344,210,46857,5,2,3:0:0:0:
374,255,47040,2,0,P|389:307|373:361,1,100,2|2,0:0|0:0,0:0:0:0:
327,371,47588,2,0,L|202:365,1,100,2|2,3:0|0:0,0:0:0:0:
117,360,48319,6,0,L|110:304,1,50,8|2,0:3|3:0,0:0:0:0:
143,266,48684,2,0,L|136:216,1,50,8|2,0:3|3:0,0:0:0:0:
173,175,49049,1,8,0:3:0:0:
167,120,49232,1,2,0:0:0:0:
158,65,49415,2,0,L|149:-8,1,50,2|8,3:0|0:3,0:0:0:0:
256,192,49689,12,0,55535,0:0:0:0:
