osu file format v14

[General]
AudioFilename: audio.mp3
AudioLeadIn: 0
PreviewTime: 5931
Countdown: 0
SampleSet: Soft
StackLeniency: 0.4
Mode: 0
LetterboxInBreaks: 0
WidescreenStoryboard: 1

[Editor]
Bookmarks: 1469,7393,19086,24933,30779,38087,43934,49780,55627
DistanceSpacing: 1.5
BeatDivisor: 4
GridSize: 4
TimelineZoom: 1

[Metadata]
Title:CartooomTV
TitleUnicode:CartooomTV
Artist:Plus-Tech Squeeze Box
ArtistUnicode:Plus-Tech Squeeze Box
Creator:dsco
Version:Insane
Source:
Tags:cartoon pop picopop pico japan cartoom
BeatmapID:1460436
BeatmapSetID:690005

[Difficulty]
HPDrainRate:5
CircleSize:5
OverallDifficulty:7.5
ApproachRate:8.5
SliderMultiplier:1.75
SliderTickRate:2

[Events]
//Background and Video events
0,0,"1490034834128.jpg",0,0
//Break Periods
//Storyboard Layer 0 (Background)
//Storyboard Layer 1 (Fail)
//Storyboard Layer 2 (Pass)
//Storyboard Layer 3 (Foreground)
//Storyboard Sound Samples

[TimingPoints]
7393.42857142857,365.408038976858,4,2,0,60,1,0
32241,-125,4,2,0,60,0,0
42107,-100,4,2,0,60,0,0

[Colours]
Combo1 : 236,200,91
Combo2 : 241,150,191
Combo3 : 237,153,124
Combo4 : 244,202,228

[HitObjects]
226,215,7393,5,4,3:2:0:0:
336,235,7576,1,2,0:0:0:0:
356,124,7758,1,0,3:0:0:0:
246,104,7941,1,2,0:0:0:0:
246,104,8032,1,0,0:0:0:0:
246,104,8124,2,0,P|233:57|245:15,1,87.5,0|2,3:0|0:0,0:0:0:0:
434,81,8489,2,0,P|446:127|434:169,1,87.5,0|2,3:0|0:0,0:0:0:0:
226,215,8855,6,0,L|139:198,2,87.5,2|0|8,3:0|0:0|3:0,0:0:0:0:
52,181,9403,2,0,P|34:130|86:18,1,175,2|2,0:0|0:0,0:0:0:0:
148,115,9951,1,0,3:0:0:0:
148,115,10042,1,8,0:3:0:0:
148,115,10133,1,8,0:3:0:0:
238,45,10316,5,4,3:2:0:0:
308,135,10499,1,2,0:0:0:0:
216,203,10682,1,0,3:0:0:0:
148,115,10864,1,2,0:0:0:0:
148,115,10956,1,0,0:0:0:0:
148,115,11047,2,0,P|102:103|52:111,1,87.5,0|2,3:0|0:0,0:0:0:0:
42,265,11412,2,0,P|87:276|137:268,1,87.5,0|2,3:0|0:0,0:0:0:0:
216,203,11778,5,0,3:0:0:0:
284,292,11961,2,0,L|274:396,1,87.5,2|0,0:0|0:0,0:0:0:0:
373,224,12326,1,2,0:0:0:0:
373,224,12417,1,8,0:3:0:0:
373,224,12509,2,0,L|364:136,1,87.5,2|2,3:0|0:0,0:0:0:0:
216,203,12874,2,0,L|150:196,3,43.75,0|0|2|0,3:0|0:0|0:0|0:0,0:0:0:0:
146,196,13239,5,4,3:2:0:0:
16,160,13422,1,2,0:0:0:0:
63,243,13605,1,0,3:0:0:0:
99,113,13788,1,2,0:0:0:0:
99,113,13879,1,0,0:0:0:0:
99,113,13970,2,0,L|90:13,1,87.5,0|2,3:0|0:0,0:0:0:0:
234,0,14336,2,0,L|226:87,1,87.5,0|2,3:0|0:0,0:0:0:0:
355,153,14701,6,0,P|403:162|460:140,2,87.5,2|0|8,3:0|0:0|3:0,0:0:0:0:
270,223,15249,2,0,P|194:203|79:231,1,175,2|2,0:0|0:0,0:0:0:0:
8,187,15797,1,2,3:0:0:0:
8,187,15889,1,0,0:0:0:0:
8,187,15980,1,2,0:0:0:0:
26,286,16163,6,0,L|15:385,1,87.5,2|0,3:0|0:0,0:0:0:0:
100,219,16528,2,0,L|90:132,1,87.5,2|0,3:0|0:0,0:0:0:0:
87,110,16802,1,0,0:0:0:0:
84,88,16894,2,0,P|126:65|185:60,1,87.5,2|0,3:0|0:0,0:0:0:0:
233,129,17259,1,2,3:2:0:0:
303,0,17442,1,2,0:0:0:0:
336,200,17624,6,0,L|349:293,1,87.5,8|0,0:3|0:0,0:0:0:0:
435,317,17990,1,2,0:0:0:0:
261,255,18172,2,0,P|215:246|140:259,1,87.5,8|0,0:3|0:0,0:0:0:0:
91,293,18538,1,0,0:0:0:0:
101,206,18721,1,0,0:0:0:0:
101,206,18812,1,0,0:0:0:0:
101,206,18903,5,2,0:0:0:0:
21,241,19086,2,0,L|11:328,2,87.5,2|0|2,0:0|0:0|0:0,0:0:0:0:
101,206,19634,2,0,P|120:154|107:99,1,87.5,2|0,0:0|0:0,0:0:0:0:
97,0,20000,2,0,P|132:42|186:58,1,87.5,2|0,0:0|0:0,0:0:0:0:
277,99,20365,1,2,0:0:0:0:
277,99,20548,6,0,P|222:108|181:147,2,87.5,2|0|2,0:0|0:0|0:0,0:0:0:0:
348,158,21096,1,2,0:0:0:0:
336,29,21278,1,0,3:0:0:0:
406,87,21461,1,2,3:0:0:0:
277,99,21644,1,2,0:0:0:0:
280,102,22009,5,2,3:0:0:0:
280,101,22192,2,0,L|170:112,1,87.5,2|0,0:0|0:0,0:0:0:0:
106,186,22557,1,2,0:0:0:0:
106,186,22649,1,0,0:0:0:0:
106,186,22740,2,0,L|215:197,1,87.5,2|0,0:0|0:0,0:0:0:0:
280,271,23105,1,2,0:0:0:0:
192,279,23287,1,2,0:0:0:0:
339,331,23471,6,0,P|361:294|355:233,1,87.5,2|0,0:0|0:0,0:0:0:0:
304,190,23836,1,2,3:0:0:0:
304,190,23928,1,2,0:0:0:0:
304,190,24019,2,0,L|295:76,1,87.5,8|0,0:3|0:0,0:0:0:0:
220,18,24384,1,0,0:0:0:0:
220,18,24476,1,0,0:0:0:0:
220,18,24567,2,0,L|216:61,3,43.75,0|0|0|0,0:0|0:0|0:0|0:0,0:0:0:0:
214,88,24933,5,4,3:2:0:0:
82,125,25115,1,2,0:0:0:0:
166,173,25298,1,0,3:0:0:0:
130,40,25481,1,2,0:0:0:0:
130,40,25572,1,0,0:0:0:0:
130,40,25663,2,0,L|33:31,1,87.5,0|2,3:0|0:0,0:0:0:0:
6,233,26029,2,0,L|103:224,1,87.5,0|2,3:0|0:0,0:0:0:0:
185,279,26394,5,2,3:0:0:0:
185,279,26485,2,0,L|282:270,1,87.5,8|0,0:3|0:0,0:0:0:0:
294,267,26760,1,8,3:0:0:0:
373,331,26942,2,0,P|393:288|336:174,1,175,10|0,0:3|0:0,0:0:0:0:
256,125,27490,2,0,L|210:129,3,43.75,0|0|2|0,3:0|0:0|0:0|0:0,0:0:0:0:
186,132,27856,5,8,0:3:0:0:
81,51,28038,1,8,0:3:0:0:
0,156,28221,1,8,0:3:0:0:
105,237,28404,1,8,0:3:0:0:
186,132,28587,1,8,0:3:0:0:
186,132,28678,2,0,L|287:121,1,87.5,0|2,3:0|0:0,0:0:0:0:
300,118,28952,2,0,P|310:77|295:31,1,87.5,0|2,3:0|0:0,0:0:0:0:
81,51,29317,5,2,0:0:0:0:
94,145,29500,1,0,0:0:0:0:
94,145,29591,1,0,0:0:0:0:
94,145,29683,1,2,0:0:0:0:
105,237,29866,1,0,0:0:0:0:
179,181,30048,2,0,L|248:171,3,43.75,8|0|2|2,0:3|0:0|0:0|0:0,0:0:0:0:
243,192,30414,2,0,L|312:201,3,43.75,8|8|8|0,0:3|0:3|0:3|0:0,0:0:0:0:
310,187,30779,5,4,0:0:0:0:
256,192,30870,12,0,32058,0:0:0:0:
310,187,32241,5,4,0:0:0:0:
370,244,32423,2,0,L|375:317,2,70,0|0|0,0:0|0:0|0:0,0:0:0:0:
444,204,32971,2,0,L|448:134,1,70,0|0,0:0|0:0,0:0:0:0:
373,96,33337,2,0,L|368:26,1,70,0|0,0:0|0:0,0:0:0:0:
288,0,33702,5,0,0:0:0:0:
211,34,33885,2,0,P|180:39|132:29,2,70,0|0|0,0:0|0:0|0:0,0:0:0:0:
278,83,34433,2,0,L|282:152,1,70,0|0,0:0|0:0,0:0:0:0:
289,237,34799,1,0,0:0:0:0:
200,204,34981,1,0,0:0:0:0:
200,204,35073,1,0,0:3:0:0:
200,204,35164,5,2,3:0:0:0:
141,291,35347,2,0,L|41:282,1,70,2|0,0:0|0:0,0:0:0:0:
9,199,35712,2,0,L|109:190,1,70,2|0,0:0|0:0,0:0:0:0:
141,107,36077,2,0,L|41:98,1,70,2|0,0:0|0:0,0:0:0:0:
9,14,36443,1,2,0:0:0:0:
9,14,36534,1,0,0:0:0:0:
9,14,36626,5,2,3:0:0:0:
71,100,36808,2,0,P|81:147|76:183,1,70,2|0,0:0|0:0,0:0:0:0:
174,215,37174,2,0,P|173:180|182:146,1,70,2|0,0:0|0:0,0:0:0:0:
272,91,37539,2,0,P|282:138|277:174,1,70,2|0,0:0|0:0,0:0:0:0:
375,206,37904,1,0,3:0:0:0:
375,206,37996,1,0,3:0:0:0:
375,206,38087,5,2,0:0:0:0:
476,179,38270,1,2,0:0:0:0:
426,299,38453,1,2,0:0:0:0:
325,272,38636,1,2,0:0:0:0:
258,379,38818,1,2,0:0:0:0:
359,352,39001,1,2,0:0:0:0:
375,206,39183,1,2,0:0:0:0:
274,179,39366,1,2,0:0:0:0:
196,272,39549,6,0,P|153:284|95:270,2,93.3333333333333,2|2|2,3:0|3:0|3:0,0:0:0:0:
274,179,40280,2,0,P|317:167|375:181,2,93.3333333333333,2|2|2,3:0|3:0|3:0,0:0:0:0:
274,179,42107,6,0,L|269:245,3,43.75,2|2|2|2,0:0|0:0|0:0|0:0,0:0:0:0:
247,236,42472,1,0,3:0:0:0:
248,257,42563,1,0,0:0:0:0:
249,279,42655,1,0,3:0:0:0:
172,322,42838,1,2,0:0:0:0:
253,356,43020,1,0,3:0:0:0:
330,313,43203,2,0,P|408:291|503:317,1,175,2|2,3:0|0:0,0:0:0:0:
497,313,43934,5,2,3:0:0:0:
387,242,44116,2,0,P|374:181|383:125,1,87.5,2|2,0:0|0:0,0:0:0:0:
427,83,44482,2,0,L|482:78,2,43.75,2|2|2,0:0|0:0|3:0,0:0:0:0:
375,156,44847,2,0,L|320:151,2,43.75,2|0|2,0:0|0:0|3:0,0:0:0:0:
473,173,45213,1,2,0:0:0:0:
473,173,45304,1,0,0:0:0:0:
473,173,45395,5,2,3:0:0:0:
306,257,45578,2,0,L|184:242,1,87.5,2|2,0:0|0:0,0:0:0:0:
137,299,45943,1,2,0:0:0:0:
89,154,46126,2,0,L|36:149,2,43.75,2|0|2,3:0|0:0|0:0,0:0:0:0:
164,88,46492,1,2,3:0:0:0:
164,88,46583,1,0,0:0:0:0:
164,88,46674,1,8,0:3:0:0:
164,88,46766,1,2,0:0:0:0:
164,88,46857,5,2,3:0:0:0:
292,146,47040,2,0,P|339:153|383:140,1,87.5,2|0,0:0|0:0,0:0:0:0:
450,95,47405,2,0,L|453:45,2,43.75,2|2|2,0:0|0:0|3:0,0:0:0:0:
454,181,47771,2,0,L|457:231,2,43.75,8|0|2,0:3|0:0|0:0,0:0:0:0:
377,142,48136,1,2,0:0:0:0:
377,142,48227,1,0,0:0:0:0:
377,142,48319,5,8,0:3:0:0:
289,272,48501,2,0,L|242:268,2,43.75,2|0|8,3:0|0:0|0:3,0:0:0:0:
321,351,48867,1,2,3:0:0:0:
266,193,49049,1,8,0:3:0:0:
266,193,49141,1,2,0:0:0:0:
266,193,49232,1,2,0:0:0:0:
266,193,49324,1,8,0:3:0:0:
266,193,49415,2,0,L|313:189,3,43.75,2|2|8|2,3:0|0:0|0:3|3:0,0:0:0:0:
256,192,49780,12,0,55535,0:0:0:0:
