osu file format v14

[General]
AudioFilename: audio.mp3
AudioLeadIn: 0
PreviewTime: 219355
Countdown: 0
SampleSet: Soft
StackLeniency: 0.7
Mode: 3
LetterboxInBreaks: 0
SpecialStyle: 0
WidescreenStoryboard: 0

[Editor]
Bookmarks: 1875,9375,15468,16875,20625,50625,60000,65625,68789,75000,76406,80625,88125,94599,95625,106875,118125,125156,140625,148125,155625,174375,204375,219375,226445,229375,234375,236445,241875,249375,264375
DistanceSpacing: 0.5
BeatDivisor: 12
GridSize: 4
TimelineZoom: 2.1

[Metadata]
Title:Vanilla Flavored Soda
TitleUnicode:Vanilla Flavored Soda
Artist:Plum
ArtistUnicode:Plum
Creator:hewnea
Version:Peaceful Soda
Source:
Tags:electronic instrumental Melodic Artist Harmonic Puzzle 9th Full Album fa featured artist
BeatmapID:3889477
BeatmapSetID:1888573

[Difficulty]
HPDrainRate:8
CircleSize:4
OverallDifficulty:8
ApproachRate:5
SliderMultiplier:1.4
SliderTickRate:1

[Events]
//Background and Video events
0,0,"world-6658881.jpg",0,0
//Break Periods
2,110805,116866
//Storyboard Layer 0 (Background)
//Storyboard Layer 1 (Fail)
//Storyboard Layer 2 (Pass)
//Storyboard Layer 3 (Foreground)
//Storyboard Layer 4 (Overlay)
//Storyboard Sound Samples

[TimingPoints]
1816,468.75,4,2,1,10,1,0
80566,-100,4,2,1,10,0,1
95097,-100,4,2,1,10,0,0
95566,-100,4,2,1,10,0,1
110566,-100,4,2,1,10,0,0
204316,-100,4,2,1,10,0,1
218847,-100,4,2,1,10,0,0
219316,-100,4,2,1,10,0,1
234316,-100,4,2,1,10,0,0

[HitObjects]
192,192,1816,5,0,0:0:0:0:
320,192,1816,1,0,0:0:0:0:
64,192,1816,1,0,0:0:0:0:
320,192,2050,1,0,0:0:0:0:
192,192,2050,1,0,0:0:0:0:
64,192,2050,1,0,0:0:0:0:
64,192,2284,1,0,0:0:0:0:
448,192,2284,128,0,2636:0:0:0:0:
192,192,2519,1,0,0:0:0:0:
320,192,2636,1,0,0:0:0:0:
64,192,2753,1,0,0:0:0:0:
448,192,2753,1,0,0:0:0:0:
192,192,2753,1,0,0:0:0:0:
192,192,2987,1,0,0:0:0:0:
64,192,2987,1,0,0:0:0:0:
448,192,2987,1,0,0:0:0:0:
320,192,3222,1,0,0:0:0:0:
448,192,3222,1,0,0:0:0:0:
192,192,3339,1,0,0:0:0:0:
64,192,3456,1,0,0:0:0:0:
192,192,3573,1,0,0:0:0:0:
320,192,3691,1,0,0:0:0:0:
64,192,3691,1,0,0:0:0:0:
448,192,3691,1,0,0:0:0:0:
448,192,3925,1,0,0:0:0:0:
320,192,3925,1,0,0:0:0:0:
64,192,3925,1,0,0:0:0:0:
64,192,4159,1,0,0:0:0:0:
192,192,4159,1,0,0:0:0:0:
448,192,4276,1,0,0:0:0:0:
320,192,4394,1,0,0:0:0:0:
192,192,4511,1,0,0:0:0:0:
448,192,4628,1,0,0:0:0:0:
320,192,4628,1,0,0:0:0:0:
64,192,4628,1,0,0:0:0:0:
320,192,4862,1,0,0:0:0:0:
64,192,4862,1,0,0:0:0:0:
448,192,4862,1,0,0:0:0:0:
64,192,5097,1,0,0:0:0:0:
192,192,5097,1,0,0:0:0:0:
320,192,5214,1,0,0:0:0:0:
448,192,5331,1,0,0:0:0:0:
448,192,5566,1,0,0:0:0:0:
64,192,5566,1,0,0:0:0:0:
192,192,5566,1,0,0:0:0:0:
192,192,5800,1,0,0:0:0:0:
64,192,5800,1,0,0:0:0:0:
448,192,5800,1,0,0:0:0:0:
320,192,6034,1,0,0:0:0:0:
64,192,6034,128,0,6386:0:0:0:0:
448,192,6269,1,0,0:0:0:0:
192,192,6386,1,0,0:0:0:0:
448,192,6503,1,0,0:0:0:0:
320,192,6503,1,0,0:0:0:0:
64,192,6503,1,0,0:0:0:0:
448,192,6737,1,0,0:0:0:0:
320,192,6737,1,0,0:0:0:0:
64,192,6737,1,0,0:0:0:0:
320,192,6972,1,0,0:0:0:0:
192,192,6972,1,0,0:0:0:0:
448,192,7089,1,0,0:0:0:0:
64,192,7206,1,0,0:0:0:0:
320,192,7323,1,0,0:0:0:0:
192,192,7441,1,0,0:0:0:0:
64,192,7441,1,0,0:0:0:0:
448,192,7441,1,0,0:0:0:0:
448,192,7675,1,0,0:0:0:0:
192,192,7675,1,0,0:0:0:0:
64,192,7675,1,0,0:0:0:0:
320,192,7909,1,0,0:0:0:0:
192,192,7909,1,0,0:0:0:0:
448,192,8026,1,0,0:0:0:0:
320,192,8144,1,0,0:0:0:0:
192,192,8261,1,0,0:0:0:0:
448,192,8378,1,0,0:0:0:0:
64,192,8378,1,0,0:0:0:0:
320,192,8495,1,0,0:0:0:0:
192,192,8612,1,0,0:0:0:0:
64,192,8612,1,0,0:0:0:0:
320,192,8730,1,0,0:0:0:0:
448,192,8730,128,0,8964:0:0:0:0:
192,192,8964,1,0,0:0:0:0:
64,192,8964,1,0,0:0:0:0:
320,192,9081,1,0,0:0:0:0:
448,192,9081,1,0,0:0:0:0:
192,192,9316,1,0,0:0:0:0:
448,192,9316,1,0,0:0:0:0:
64,192,9316,128,0,9550:0:0:0:0:
448,192,9550,1,0,0:0:0:0:
192,192,9550,1,0,0:0:0:0:
320,192,9784,1,0,0:0:0:0:
192,192,9784,128,0,9901:0:0:0:0:
448,192,10019,128,0,10136:0:0:0:0:
320,192,10136,128,0,10253:0:0:0:0:
192,192,10253,128,0,10487:0:0:0:0:
448,192,10253,1,0,0:0:0:0:
64,192,10253,1,0,0:0:0:0:
448,192,10487,1,0,0:0:0:0:
64,192,10487,1,0,0:0:0:0:
192,192,10722,1,0,0:0:0:0:
320,192,10722,128,0,10839:0:0:0:0:
448,192,10839,128,0,10956:0:0:0:0:
64,192,10956,128,0,11073:0:0:0:0:
192,192,11073,128,0,11191:0:0:0:0:
64,192,11191,1,0,0:0:0:0:
448,192,11191,1,0,0:0:0:0:
320,192,11191,128,0,11425:0:0:0:0:
448,192,11425,1,0,0:0:0:0:
64,192,11425,1,0,0:0:0:0:
320,192,11659,1,0,0:0:0:0:
192,192,11659,128,0,11776:0:0:0:0:
448,192,11776,128,0,11894:0:0:0:0:
64,192,11894,128,0,12011:0:0:0:0:
320,192,12011,128,0,12128:0:0:0:0:
448,192,12128,1,0,0:0:0:0:
64,192,12128,1,0,0:0:0:0:
192,192,12128,128,0,12362:0:0:0:0:
64,192,12362,1,0,0:0:0:0:
448,192,12362,1,0,0:0:0:0:
192,192,12597,1,0,0:0:0:0:
320,192,12597,128,0,12714:0:0:0:0:
448,192,12714,128,0,12831:0:0:0:0:
64,192,12831,128,0,12948:0:0:0:0:
448,192,13066,1,0,0:0:0:0:
192,192,13066,1,0,0:0:0:0:
320,192,13066,128,0,13300:0:0:0:0:
192,192,13300,1,0,0:0:0:0:
448,192,13300,1,0,0:0:0:0:
320,192,13534,1,0,0:0:0:0:
64,192,13534,128,0,13651:0:0:0:0:
192,192,13769,128,0,13886:0:0:0:0:
320,192,13886,128,0,14003:0:0:0:0:
448,192,14003,1,0,0:0:0:0:
64,192,14003,1,0,0:0:0:0:
192,192,14003,128,0,14237:0:0:0:0:
448,192,14237,1,0,0:0:0:0:
64,192,14237,1,0,0:0:0:0:
320,192,14472,128,0,14589:0:0:0:0:
192,192,14472,1,0,0:0:0:0:
64,192,14589,128,0,14706:0:0:0:0:
448,192,14706,128,0,14823:0:0:0:0:
192,192,14823,128,0,14941:0:0:0:0:
64,192,14941,1,0,0:0:0:0:
448,192,14941,128,0,15175:0:0:0:0:
320,192,14941,1,0,0:0:0:0:
320,192,15175,1,0,0:0:0:0:
64,192,15175,1,0,0:0:0:0:
192,192,15409,1,0,0:0:0:0:
320,192,15409,1,0,0:0:0:0:
64,192,15526,1,0,0:0:0:0:
448,192,15644,1,0,0:0:0:0:
448,192,15761,1,0,0:0:0:0:
192,192,15878,1,0,0:0:0:0:
64,192,15878,1,0,0:0:0:0:
448,192,15995,1,0,0:0:0:0:
320,192,16112,1,0,0:0:0:0:
192,192,16112,1,0,0:0:0:0:
192,192,16230,1,0,0:0:0:0:
64,192,16347,1,0,0:0:0:0:
448,192,16347,1,0,0:0:0:0:
192,192,16464,1,0,0:0:0:0:
320,192,16464,1,0,0:0:0:0:
64,192,16581,1,0,0:0:0:0:
448,192,16581,1,0,0:0:0:0:
192,192,16698,1,0,0:0:0:0:
320,192,16698,1,0,0:0:0:0:
448,192,16816,1,0,0:0:0:0:
320,192,16933,1,0,0:0:0:0:
192,192,17050,1,0,0:0:0:0:
448,192,17167,128,0,17401:0:0:0:0:
320,192,17401,1,0,0:0:0:0:
192,192,17519,1,0,0:0:0:0:
320,192,17753,1,0,0:0:0:0:
192,192,17870,1,0,0:0:0:0:
64,192,17987,1,0,0:0:0:0:
320,192,18105,128,0,18339:0:0:0:0:
192,192,18339,1,0,0:0:0:0:
64,192,18456,1,0,0:0:0:0:
448,192,18691,1,0,0:0:0:0:
320,192,18808,1,0,0:0:0:0:
192,192,18925,1,0,0:0:0:0:
448,192,19042,128,0,19276:0:0:0:0:
320,192,19276,1,0,0:0:0:0:
192,192,19394,1,0,0:0:0:0:
320,192,19628,1,0,0:0:0:0:
192,192,19745,1,0,0:0:0:0:
64,192,19862,1,0,0:0:0:0:
448,192,19980,128,0,20214:0:0:0:0:
320,192,20214,1,0,0:0:0:0:
192,192,20331,1,0,0:0:0:0:
64,192,20566,1,0,0:0:0:0:
448,192,20566,1,0,0:0:0:0:
320,192,20566,128,0,20800:0:0:0:0:
64,192,20800,1,0,0:0:0:0:
192,192,20800,1,0,0:0:0:0:
192,192,21034,1,0,0:0:0:0:
448,192,21034,1,0,0:0:0:0:
320,192,21034,128,0,21269:0:0:0:0:
448,192,21269,1,0,0:0:0:0:
64,192,21269,1,0,0:0:0:0:
64,192,21386,128,0,21737:0:0:0:0:
192,192,21386,1,0,0:0:0:0:
320,192,21503,1,0,0:0:0:0:
192,192,21737,128,0,21855:0:0:0:0:
448,192,21737,128,0,21855:0:0:0:0:
448,192,21972,1,0,0:0:0:0:
320,192,21972,128,0,22089:0:0:0:0:
192,192,21972,128,0,22089:0:0:0:0:
64,192,22206,128,0,22323:0:0:0:0:
320,192,22206,128,0,22323:0:0:0:0:
320,192,22441,1,0,0:0:0:0:
192,192,22441,128,0,22675:0:0:0:0:
448,192,22675,1,0,0:0:0:0:
64,192,22675,1,0,0:0:0:0:
64,192,22909,1,0,0:0:0:0:
320,192,22909,1,0,0:0:0:0:
192,192,22909,128,0,23144:0:0:0:0:
320,192,23144,1,0,0:0:0:0:
448,192,23144,1,0,0:0:0:0:
64,192,23261,1,0,0:0:0:0:
448,192,23261,128,0,23612:0:0:0:0:
192,192,23378,1,0,0:0:0:0:
64,192,23612,128,0,23730:0:0:0:0:
320,192,23612,128,0,23730:0:0:0:0:
192,192,23847,128,0,23964:0:0:0:0:
320,192,23847,128,0,23964:0:0:0:0:
448,192,23847,1,0,0:0:0:0:
192,192,24081,128,0,24198:0:0:0:0:
448,192,24081,128,0,24198:0:0:0:0:
64,192,24316,128,0,24433:0:0:0:0:
320,192,24316,128,0,24433:0:0:0:0:
448,192,24316,128,0,24433:0:0:0:0:
64,192,24550,128,0,24667:0:0:0:0:
320,192,24550,128,0,24667:0:0:0:0:
448,192,24550,128,0,24667:0:0:0:0:
64,192,24784,128,0,24901:0:0:0:0:
320,192,24784,128,0,24901:0:0:0:0:
448,192,24784,128,0,24901:0:0:0:0:
192,192,25019,1,0,0:0:0:0:
320,192,25136,1,0,0:0:0:0:
64,192,25253,128,0,25370:0:0:0:0:
448,192,25253,128,0,25370:0:0:0:0:
192,192,25487,128,0,25605:0:0:0:0:
448,192,25487,128,0,25605:0:0:0:0:
448,192,25722,1,0,0:0:0:0:
320,192,25722,128,0,25839:0:0:0:0:
192,192,25722,128,0,25839:0:0:0:0:
64,192,25956,128,0,26073:0:0:0:0:
320,192,25956,128,0,26073:0:0:0:0:
192,192,26191,1,0,0:0:0:0:
64,192,26191,128,0,26425:0:0:0:0:
320,192,26425,1,0,0:0:0:0:
448,192,26425,1,0,0:0:0:0:
64,192,26659,1,0,0:0:0:0:
448,192,26659,1,0,0:0:0:0:
192,192,26659,1,0,0:0:0:0:
320,192,26776,1,0,0:0:0:0:
192,192,26894,1,0,0:0:0:0:
448,192,27128,128,0,27362:0:0:0:0:
64,192,27128,1,0,0:0:0:0:
320,192,27362,1,0,0:0:0:0:
64,192,27362,128,0,27831:0:0:0:0:
448,192,27597,1,0,0:0:0:0:
192,192,27597,1,0,0:0:0:0:
320,192,27714,1,0,0:0:0:0:
192,192,27831,1,0,0:0:0:0:
64,192,28066,1,0,0:0:0:0:
448,192,28066,128,0,28300:0:0:0:0:
320,192,28300,1,0,0:0:0:0:
192,192,28300,1,0,0:0:0:0:
64,192,28534,1,0,0:0:0:0:
448,192,28534,1,0,0:0:0:0:
320,192,28534,128,0,28769:0:0:0:0:
448,192,28769,1,0,0:0:0:0:
64,192,28769,1,0,0:0:0:0:
64,192,28886,128,0,29237:0:0:0:0:
192,192,28886,1,0,0:0:0:0:
320,192,29003,1,0,0:0:0:0:
192,192,29237,128,0,29355:0:0:0:0:
448,192,29237,128,0,29355:0:0:0:0:
448,192,29472,1,0,0:0:0:0:
192,192,29472,128,0,29589:0:0:0:0:
320,192,29472,128,0,29589:0:0:0:0:
64,192,29706,128,0,29823:0:0:0:0:
320,192,29706,128,0,29823:0:0:0:0:
192,192,29941,1,0,0:0:0:0:
64,192,29941,128,0,30175:0:0:0:0:
320,192,30175,1,0,0:0:0:0:
448,192,30175,1,0,0:0:0:0:
64,192,30409,1,0,0:0:0:0:
320,192,30409,1,0,0:0:0:0:
192,192,30409,128,0,30644:0:0:0:0:
64,192,30644,1,0,0:0:0:0:
448,192,30644,1,0,0:0:0:0:
448,192,30761,128,0,31112:0:0:0:0:
320,192,30761,1,0,0:0:0:0:
192,192,30878,1,0,0:0:0:0:
320,192,31112,128,0,31230:0:0:0:0:
64,192,31112,128,0,31230:0:0:0:0:
64,192,31347,1,0,0:0:0:0:
192,192,31347,128,0,31464:0:0:0:0:
320,192,31347,128,0,31464:0:0:0:0:
448,192,31581,128,0,31698:0:0:0:0:
192,192,31581,128,0,31698:0:0:0:0:
64,192,31816,128,0,31933:0:0:0:0:
320,192,31816,128,0,31933:0:0:0:0:
448,192,31816,128,0,31933:0:0:0:0:
64,192,32050,128,0,32167:0:0:0:0:
320,192,32050,128,0,32167:0:0:0:0:
448,192,32050,128,0,32167:0:0:0:0:
64,192,32284,128,0,32401:0:0:0:0:
320,192,32284,128,0,32401:0:0:0:0:
448,192,32284,128,0,32401:0:0:0:0:
192,192,32519,1,0,0:0:0:0:
320,192,32636,1,0,0:0:0:0:
64,192,32753,128,0,32987:0:0:0:0:
448,192,32753,128,0,32987:0:0:0:0:
320,192,32987,128,0,33222:0:0:0:0:
192,192,33222,128,0,33456:0:0:0:0:
64,192,33222,1,0,0:0:0:0:
448,192,33222,1,0,0:0:0:0:
448,192,33456,1,0,0:0:0:0:
320,192,33573,1,0,0:0:0:0:
64,192,33691,128,0,33925:0:0:0:0:
192,192,33691,1,0,0:0:0:0:
448,192,33925,128,0,34159:0:0:0:0:
320,192,33925,1,0,0:0:0:0:
192,192,34159,1,0,0:0:0:0:
64,192,34159,1,0,0:0:0:0:
320,192,34159,1,0,0:0:0:0:
448,192,34276,1,0,0:0:0:0:
192,192,34394,1,0,0:0:0:0:
320,192,34628,1,0,0:0:0:0:
64,192,34628,128,0,34862:0:0:0:0:
192,192,34862,1,0,0:0:0:0:
448,192,34862,128,0,35097:0:0:0:0:
320,192,35097,1,0,0:0:0:0:
64,192,35097,1,0,0:0:0:0:
192,192,35214,1,0,0:0:0:0:
320,192,35331,1,0,0:0:0:0:
192,192,35448,1,0,0:0:0:0:
64,192,35566,1,0,0:0:0:0:
320,192,35566,128,0,35800:0:0:0:0:
448,192,35566,1,0,0:0:0:0:
192,192,35800,1,0,0:0:0:0:
64,192,35800,1,0,0:0:0:0:
448,192,36034,1,0,0:0:0:0:
192,192,36034,1,0,0:0:0:0:
320,192,36034,128,0,36269:0:0:0:0:
448,192,36269,1,0,0:0:0:0:
64,192,36269,1,0,0:0:0:0:
192,192,36386,128,0,36737:0:0:0:0:
64,192,36386,1,0,0:0:0:0:
320,192,36503,1,0,0:0:0:0:
320,192,36737,128,0,36855:0:0:0:0:
448,192,36737,128,0,36855:0:0:0:0:
64,192,36972,1,0,0:0:0:0:
192,192,36972,128,0,37089:0:0:0:0:
320,192,36972,128,0,37089:0:0:0:0:
64,192,37206,128,0,37323:0:0:0:0:
192,192,37206,128,0,37323:0:0:0:0:
448,192,37441,128,0,37675:0:0:0:0:
64,192,37441,1,0,0:0:0:0:
192,192,37675,1,0,0:0:0:0:
320,192,37675,1,0,0:0:0:0:
192,192,37909,128,0,38144:0:0:0:0:
448,192,37909,1,0,0:0:0:0:
64,192,37909,1,0,0:0:0:0:
448,192,38144,1,0,0:0:0:0:
64,192,38144,1,0,0:0:0:0:
320,192,38261,128,0,38612:0:0:0:0:
448,192,38261,1,0,0:0:0:0:
192,192,38378,1,0,0:0:0:0:
192,192,38612,128,0,38730:0:0:0:0:
64,192,38612,128,0,38730:0:0:0:0:
192,192,38847,128,0,38964:0:0:0:0:
320,192,38847,128,0,38964:0:0:0:0:
64,192,38847,1,0,0:0:0:0:
320,192,39081,128,0,39198:0:0:0:0:
448,192,39081,128,0,39198:0:0:0:0:
64,192,39316,128,0,39433:0:0:0:0:
192,192,39316,128,0,39433:0:0:0:0:
320,192,39316,128,0,39433:0:0:0:0:
64,192,39550,128,0,39667:0:0:0:0:
192,192,39550,128,0,39667:0:0:0:0:
320,192,39550,128,0,39667:0:0:0:0:
64,192,39784,128,0,39901:0:0:0:0:
192,192,39784,128,0,39901:0:0:0:0:
320,192,39784,128,0,39901:0:0:0:0:
192,192,40019,1,0,0:0:0:0:
320,192,40136,1,0,0:0:0:0:
448,192,40253,128,0,40370:0:0:0:0:
64,192,40253,128,0,40370:0:0:0:0:
448,192,40487,128,0,40605:0:0:0:0:
320,192,40487,128,0,40605:0:0:0:0:
320,192,40722,128,0,40839:0:0:0:0:
192,192,40722,128,0,40839:0:0:0:0:
448,192,40722,1,0,0:0:0:0:
64,192,40956,128,0,41073:0:0:0:0:
192,192,40956,128,0,41073:0:0:0:0:
64,192,41191,128,0,41425:0:0:0:0:
448,192,41191,1,0,0:0:0:0:
320,192,41425,1,0,0:0:0:0:
192,192,41425,1,0,0:0:0:0:
192,192,41659,1,0,0:0:0:0:
64,192,41659,1,0,0:0:0:0:
448,192,41659,1,0,0:0:0:0:
320,192,41776,1,0,0:0:0:0:
192,192,41894,1,0,0:0:0:0:
448,192,42128,128,0,42362:0:0:0:0:
64,192,42128,1,0,0:0:0:0:
192,192,42362,1,0,0:0:0:0:
64,192,42362,128,0,42831:0:0:0:0:
448,192,42597,1,0,0:0:0:0:
192,192,42597,1,0,0:0:0:0:
320,192,42714,1,0,0:0:0:0:
448,192,42831,1,0,0:0:0:0:
320,192,43066,128,0,43300:0:0:0:0:
192,192,43066,1,0,0:0:0:0:
448,192,43300,1,0,0:0:0:0:
64,192,43300,1,0,0:0:0:0:
448,192,43534,1,0,0:0:0:0:
320,192,43534,1,0,0:0:0:0:
192,192,43534,128,0,43769:0:0:0:0:
64,192,43769,1,0,0:0:0:0:
320,192,43769,1,0,0:0:0:0:
320,192,43886,128,0,44237:0:0:0:0:
448,192,43886,1,0,0:0:0:0:
192,192,44003,1,0,0:0:0:0:
64,192,44237,128,0,44355:0:0:0:0:
192,192,44237,128,0,44355:0:0:0:0:
192,192,44472,128,0,44589:0:0:0:0:
320,192,44472,128,0,44589:0:0:0:0:
64,192,44472,1,0,0:0:0:0:
320,192,44706,128,0,44823:0:0:0:0:
448,192,44706,128,0,44823:0:0:0:0:
448,192,44941,128,0,45175:0:0:0:0:
64,192,44941,1,0,0:0:0:0:
320,192,45175,1,0,0:0:0:0:
192,192,45175,1,0,0:0:0:0:
448,192,45409,1,0,0:0:0:0:
64,192,45409,1,0,0:0:0:0:
320,192,45409,128,0,45644:0:0:0:0:
448,192,45644,1,0,0:0:0:0:
64,192,45644,1,0,0:0:0:0:
64,192,45761,1,0,0:0:0:0:
192,192,45761,128,0,46112:0:0:0:0:
320,192,45878,1,0,0:0:0:0:
320,192,46112,128,0,46230:0:0:0:0:
448,192,46112,128,0,46230:0:0:0:0:
192,192,46347,128,0,46464:0:0:0:0:
320,192,46347,128,0,46464:0:0:0:0:
448,192,46347,1,0,0:0:0:0:
64,192,46581,128,0,46698:0:0:0:0:
192,192,46581,128,0,46698:0:0:0:0:
448,192,46816,128,0,46933:0:0:0:0:
192,192,46816,128,0,46933:0:0:0:0:
320,192,46816,128,0,46933:0:0:0:0:
192,192,47050,128,0,47167:0:0:0:0:
320,192,47050,128,0,47167:0:0:0:0:
448,192,47050,128,0,47167:0:0:0:0:
192,192,47284,128,0,47401:0:0:0:0:
320,192,47284,128,0,47401:0:0:0:0:
448,192,47284,128,0,47401:0:0:0:0:
192,192,47519,1,0,0:0:0:0:
320,192,47636,1,0,0:0:0:0:
64,192,47753,128,0,47987:0:0:0:0:
448,192,47753,128,0,47987:0:0:0:0:
192,192,47987,128,0,48222:0:0:0:0:
320,192,48222,128,0,48456:0:0:0:0:
448,192,48222,1,0,0:0:0:0:
64,192,48222,1,0,0:0:0:0:
192,192,48456,1,0,0:0:0:0:
448,192,48573,1,0,0:0:0:0:
64,192,48691,128,0,48925:0:0:0:0:
320,192,48691,1,0,0:0:0:0:
192,192,48925,1,0,0:0:0:0:
448,192,48925,128,0,49159:0:0:0:0:
192,192,49159,1,0,0:0:0:0:
64,192,49159,1,0,0:0:0:0:
320,192,49159,1,0,0:0:0:0:
448,192,49276,1,0,0:0:0:0:
192,192,49394,1,0,0:0:0:0:
64,192,49628,128,0,49862:0:0:0:0:
320,192,49628,1,0,0:0:0:0:
448,192,49862,128,0,50097:0:0:0:0:
192,192,49862,1,0,0:0:0:0:
64,192,50097,1,0,0:0:0:0:
320,192,50097,1,0,0:0:0:0:
192,192,50214,1,0,0:0:0:0:
320,192,50331,1,0,0:0:0:0:
448,192,50448,1,0,0:0:0:0:
64,192,50566,1,0,0:0:0:0:
320,192,50566,1,0,0:0:0:0:
192,192,50566,128,0,50917:0:0:0:0:
64,192,50800,1,0,0:0:0:0:
448,192,50800,1,0,0:0:0:0:
64,192,50917,128,0,51151:0:0:0:0:
320,192,51034,1,0,0:0:0:0:
192,192,51151,1,0,0:0:0:0:
448,192,51151,1,0,0:0:0:0:
64,192,51386,1,0,0:0:0:0:
320,192,51386,128,0,51737:0:0:0:0:
448,192,51386,128,0,51737:0:0:0:0:
192,192,51503,1,0,0:0:0:0:
192,192,51737,1,0,0:0:0:0:
64,192,51737,1,0,0:0:0:0:
64,192,51972,1,0,0:0:0:0:
448,192,51972,1,0,0:0:0:0:
320,192,52089,1,0,0:0:0:0:
192,192,52206,1,0,0:0:0:0:
64,192,52323,1,0,0:0:0:0:
192,192,52441,1,0,0:0:0:0:
320,192,52441,128,0,52792:0:0:0:0:
448,192,52675,1,0,0:0:0:0:
64,192,52675,1,0,0:0:0:0:
448,192,52792,128,0,53026:0:0:0:0:
192,192,52909,1,0,0:0:0:0:
64,192,53026,1,0,0:0:0:0:
320,192,53026,1,0,0:0:0:0:
448,192,53261,1,0,0:0:0:0:
64,192,53261,128,0,53612:0:0:0:0:
192,192,53261,128,0,53612:0:0:0:0:
320,192,53378,1,0,0:0:0:0:
320,192,53612,1,0,0:0:0:0:
448,192,53612,1,0,0:0:0:0:
192,192,53847,1,0,0:0:0:0:
64,192,53847,1,0,0:0:0:0:
448,192,53847,1,0,0:0:0:0:
192,192,54081,1,0,0:0:0:0:
320,192,54081,1,0,0:0:0:0:
192,192,54316,1,0,0:0:0:0:
64,192,54316,1,0,0:0:0:0:
448,192,54550,1,0,0:0:0:0:
320,192,54550,1,0,0:0:0:0:
320,192,54667,128,0,54784:0:0:0:0:
448,192,54784,128,0,55019:0:0:0:0:
64,192,54784,128,0,55019:0:0:0:0:
192,192,55019,1,0,0:0:0:0:
320,192,55019,1,0,0:0:0:0:
192,192,55136,128,0,55253:0:0:0:0:
64,192,55253,1,0,0:0:0:0:
448,192,55253,1,0,0:0:0:0:
320,192,55370,1,0,0:0:0:0:
192,192,55487,1,0,0:0:0:0:
320,192,55605,1,0,0:0:0:0:
64,192,55722,1,0,0:0:0:0:
448,192,55722,1,0,0:0:0:0:
192,192,55839,1,0,0:0:0:0:
320,192,55956,1,0,0:0:0:0:
64,192,56073,1,0,0:0:0:0:
448,192,56191,1,0,0:0:0:0:
320,192,56191,128,0,56425:0:0:0:0:
192,192,56425,1,0,0:0:0:0:
64,192,56425,1,0,0:0:0:0:
448,192,56425,1,0,0:0:0:0:
192,192,56542,1,0,0:0:0:0:
64,192,56542,1,0,0:0:0:0:
448,192,56542,1,0,0:0:0:0:
64,192,56776,1,0,0:0:0:0:
320,192,56776,1,0,0:0:0:0:
448,192,56776,1,0,0:0:0:0:
448,192,56894,1,0,0:0:0:0:
320,192,56894,1,0,0:0:0:0:
64,192,56894,1,0,0:0:0:0:
448,192,57128,1,0,0:0:0:0:
320,192,57128,1,0,0:0:0:0:
192,192,57128,1,0,0:0:0:0:
448,192,57245,1,0,0:0:0:0:
320,192,57245,1,0,0:0:0:0:
192,192,57245,1,0,0:0:0:0:
64,192,57480,1,0,0:0:0:0:
192,192,57480,1,0,0:0:0:0:
320,192,57480,1,0,0:0:0:0:
192,192,57597,1,0,0:0:0:0:
64,192,57597,1,0,0:0:0:0:
320,192,57597,1,0,0:0:0:0:
448,192,57714,1,0,0:0:0:0:
320,192,57831,1,0,0:0:0:0:
192,192,57948,1,0,0:0:0:0:
64,192,58066,1,0,0:0:0:0:
448,192,58066,1,0,0:0:0:0:
320,192,58183,1,0,0:0:0:0:
192,192,58300,1,0,0:0:0:0:
320,192,58417,1,0,0:0:0:0:
64,192,58534,128,0,58769:0:0:0:0:
448,192,58534,1,0,0:0:0:0:
192,192,58534,1,0,0:0:0:0:
320,192,58769,1,0,0:0:0:0:
192,192,58886,1,0,0:0:0:0:
320,192,59003,1,0,0:0:0:0:
448,192,59003,1,0,0:0:0:0:
192,192,59120,1,0,0:0:0:0:
448,192,59237,128,0,59472:0:0:0:0:
64,192,59237,1,0,0:0:0:0:
192,192,59472,1,0,0:0:0:0:
320,192,59472,1,0,0:0:0:0:
64,192,59472,128,0,59706:0:0:0:0:
192,192,59706,1,0,0:0:0:0:
320,192,59823,1,0,0:0:0:0:
64,192,59941,128,0,59999:0:0:0:0:
448,192,59941,128,0,60136:0:0:0:0:
192,192,59941,128,0,59999:0:0:0:0:
64,192,60087,128,0,60292:0:0:0:0:
192,192,60087,128,0,60136:0:0:0:0:
320,192,60087,128,0,60136:0:0:0:0:
192,192,60233,128,0,60292:0:0:0:0:
448,192,60233,128,0,60292:0:0:0:0:
320,192,60233,128,0,60292:0:0:0:0:
64,192,60409,128,0,60605:0:0:0:0:
320,192,60409,128,0,60468:0:0:0:0:
448,192,60409,128,0,60468:0:0:0:0:
192,192,60556,128,0,60605:0:0:0:0:
320,192,60556,128,0,60605:0:0:0:0:
448,192,60556,128,0,60761:0:0:0:0:
64,192,60702,128,0,60761:0:0:0:0:
192,192,60702,128,0,60761:0:0:0:0:
320,192,60702,128,0,60761:0:0:0:0:
64,192,60878,1,0,0:0:0:0:
448,192,60878,1,0,0:0:0:0:
320,192,60995,1,0,0:0:0:0:
192,192,61112,1,0,0:0:0:0:
320,192,61230,1,0,0:0:0:0:
192,192,61347,1,0,0:0:0:0:
64,192,61347,128,0,61581:0:0:0:0:
448,192,61347,1,0,0:0:0:0:
320,192,61581,1,0,0:0:0:0:
448,192,61698,1,0,0:0:0:0:
64,192,61816,1,0,0:0:0:0:
320,192,61816,128,0,62050:0:0:0:0:
192,192,62050,1,0,0:0:0:0:
448,192,62167,1,0,0:0:0:0:
320,192,62284,1,0,0:0:0:0:
64,192,62284,1,0,0:0:0:0:
192,192,62401,1,0,0:0:0:0:
320,192,62519,1,0,0:0:0:0:
192,192,62636,1,0,0:0:0:0:
64,192,62753,128,0,62987:0:0:0:0:
448,192,62753,1,0,0:0:0:0:
448,192,62987,1,0,0:0:0:0:
320,192,62987,1,0,0:0:0:0:
192,192,63105,1,0,0:0:0:0:
64,192,63222,1,0,0:0:0:0:
448,192,63222,1,0,0:0:0:0:
320,192,63339,1,0,0:0:0:0:
192,192,63456,1,0,0:0:0:0:
448,192,63573,1,0,0:0:0:0:
64,192,63691,1,0,0:0:0:0:
192,192,63691,1,0,0:0:0:0:
320,192,63808,1,0,0:0:0:0:
448,192,63925,128,0,64159:0:0:0:0:
192,192,64159,1,0,0:0:0:0:
64,192,64159,1,0,0:0:0:0:
320,192,64159,1,0,0:0:0:0:
64,192,64394,1,0,0:0:0:0:
192,192,64511,1,0,0:0:0:0:
448,192,64628,1,0,0:0:0:0:
320,192,64628,128,0,64862:0:0:0:0:
64,192,64862,1,0,0:0:0:0:
192,192,64862,1,0,0:0:0:0:
448,192,65097,1,0,0:0:0:0:
64,192,65097,1,0,0:0:0:0:
192,192,65214,1,0,0:0:0:0:
320,192,65331,1,0,0:0:0:0:
192,192,65448,1,0,0:0:0:0:
64,192,65566,1,0,0:0:0:0:
320,192,65566,1,0,0:0:0:0:
448,192,65566,1,0,0:0:0:0:
192,192,65683,1,0,0:0:0:0:
320,192,65800,128,0,66034:0:0:0:0:
64,192,66034,1,0,0:0:0:0:
192,192,66034,1,0,0:0:0:0:
448,192,66034,128,0,66269:0:0:0:0:
192,192,66269,1,0,0:0:0:0:
64,192,66269,128,0,66386:0:0:0:0:
448,192,66503,1,0,0:0:0:0:
320,192,66503,1,0,0:0:0:0:
64,192,66620,1,0,0:0:0:0:
448,192,66737,1,0,0:0:0:0:
320,192,66855,1,0,0:0:0:0:
192,192,66972,1,0,0:0:0:0:
64,192,66972,1,0,0:0:0:0:
448,192,67089,1,0,0:0:0:0:
64,192,67206,1,0,0:0:0:0:
320,192,67323,1,0,0:0:0:0:
448,192,67441,1,0,0:0:0:0:
192,192,67441,128,0,67675:0:0:0:0:
448,192,67675,1,0,0:0:0:0:
320,192,67675,1,0,0:0:0:0:
64,192,67675,1,0,0:0:0:0:
320,192,67792,1,0,0:0:0:0:
448,192,67792,1,0,0:0:0:0:
64,192,67792,1,0,0:0:0:0:
192,192,68026,1,0,0:0:0:0:
64,192,68026,1,0,0:0:0:0:
448,192,68026,1,0,0:0:0:0:
192,192,68144,1,0,0:0:0:0:
64,192,68144,1,0,0:0:0:0:
448,192,68144,1,0,0:0:0:0:
192,192,68378,1,0,0:0:0:0:
448,192,68378,1,0,0:0:0:0:
320,192,68378,1,0,0:0:0:0:
448,192,68495,1,0,0:0:0:0:
320,192,68495,1,0,0:0:0:0:
192,192,68495,1,0,0:0:0:0:
64,192,68730,128,0,68964:0:0:0:0:
320,192,68730,1,0,0:0:0:0:
448,192,68847,1,0,0:0:0:0:
192,192,68964,1,0,0:0:0:0:
448,192,69081,1,0,0:0:0:0:
320,192,69198,1,0,0:0:0:0:
64,192,69316,128,0,69550:0:0:0:0:
192,192,69316,1,0,0:0:0:0:
448,192,69316,1,0,0:0:0:0:
320,192,69550,1,0,0:0:0:0:
192,192,69667,1,0,0:0:0:0:
448,192,69784,1,0,0:0:0:0:
64,192,69784,1,0,0:0:0:0:
320,192,69901,1,0,0:0:0:0:
192,192,70019,1,0,0:0:0:0:
448,192,70136,1,0,0:0:0:0:
64,192,70253,1,0,0:0:0:0:
192,192,70253,1,0,0:0:0:0:
320,192,70370,1,0,0:0:0:0:
448,192,70487,1,0,0:0:0:0:
192,192,70605,1,0,0:0:0:0:
64,192,70722,1,0,0:0:0:0:
448,192,70722,1,0,0:0:0:0:
320,192,70839,1,0,0:0:0:0:
192,192,70956,1,0,0:0:0:0:
64,192,71073,1,0,0:0:0:0:
320,192,71191,1,0,0:0:0:0:
448,192,71191,128,0,71425:0:0:0:0:
64,192,71425,1,0,0:0:0:0:
192,192,71425,1,0,0:0:0:0:
320,192,71425,1,0,0:0:0:0:
64,192,71542,1,0,0:0:0:0:
192,192,71542,1,0,0:0:0:0:
320,192,71542,1,0,0:0:0:0:
320,192,71776,1,0,0:0:0:0:
448,192,71776,1,0,0:0:0:0:
64,192,71776,1,0,0:0:0:0:
320,192,71894,1,0,0:0:0:0:
448,192,71894,1,0,0:0:0:0:
64,192,71894,1,0,0:0:0:0:
192,192,72128,1,0,0:0:0:0:
448,192,72128,1,0,0:0:0:0:
64,192,72128,1,0,0:0:0:0:
192,192,72245,1,0,0:0:0:0:
448,192,72245,1,0,0:0:0:0:
64,192,72245,1,0,0:0:0:0:
320,192,72480,1,0,0:0:0:0:
192,192,72480,1,0,0:0:0:0:
64,192,72480,1,0,0:0:0:0:
320,192,72597,1,0,0:0:0:0:
64,192,72597,1,0,0:0:0:0:
192,192,72597,1,0,0:0:0:0:
448,192,72714,1,0,0:0:0:0:
64,192,72831,1,0,0:0:0:0:
192,192,72948,1,0,0:0:0:0:
320,192,73066,5,0,0:0:0:0:
448,192,73066,1,0,0:0:0:0:
64,192,73183,1,0,0:0:0:0:
448,192,73300,1,0,0:0:0:0:
320,192,73417,1,0,0:0:0:0:
448,192,73534,128,0,73769:0:0:0:0:
192,192,73534,128,0,73769:0:0:0:0:
64,192,73534,1,0,0:0:0:0:
320,192,73769,5,0,0:0:0:0:
448,192,73886,1,0,0:0:0:0:
192,192,74003,1,0,0:0:0:0:
320,192,74003,1,0,0:0:0:0:
64,192,74120,1,0,0:0:0:0:
448,192,74237,128,0,74472:0:0:0:0:
64,192,74472,1,0,0:0:0:0:
320,192,74472,1,0,0:0:0:0:
192,192,74472,128,0,74706:0:0:0:0:
448,192,74706,1,0,0:0:0:0:
320,192,74823,1,0,0:0:0:0:
192,192,74941,128,0,74999:0:0:0:0:
64,192,74941,128,0,75136:0:0:0:0:
448,192,74941,128,0,74999:0:0:0:0:
192,192,75087,128,0,75136:0:0:0:0:
320,192,75087,128,0,75136:0:0:0:0:
448,192,75087,128,0,75292:0:0:0:0:
64,192,75233,128,0,75292:0:0:0:0:
320,192,75233,128,0,75292:0:0:0:0:
192,192,75233,128,0,75292:0:0:0:0:
448,192,75409,128,0,75605:0:0:0:0:
64,192,75409,128,0,75468:0:0:0:0:
320,192,75409,128,0,75468:0:0:0:0:
192,192,75556,128,0,75605:0:0:0:0:
64,192,75556,128,0,75761:0:0:0:0:
320,192,75556,128,0,75605:0:0:0:0:
320,192,75702,128,0,75761:0:0:0:0:
448,192,75702,128,0,75761:0:0:0:0:
192,192,75702,128,0,75761:0:0:0:0:
192,192,75878,1,0,0:0:0:0:
64,192,75878,1,0,0:0:0:0:
448,192,75878,1,0,0:0:0:0:
320,192,75995,1,0,0:0:0:0:
192,192,76112,1,0,0:0:0:0:
320,192,76230,1,0,0:0:0:0:
64,192,76347,1,0,0:0:0:0:
448,192,76347,1,0,0:0:0:0:
192,192,76464,1,0,0:0:0:0:
448,192,76581,1,0,0:0:0:0:
320,192,76698,1,0,0:0:0:0:
192,192,76816,1,0,0:0:0:0:
64,192,76816,128,0,77050:0:0:0:0:
448,192,76816,1,0,0:0:0:0:
448,192,77050,1,0,0:0:0:0:
320,192,77167,128,0,77401:0:0:0:0:
192,192,77284,1,0,0:0:0:0:
448,192,77401,1,0,0:0:0:0:
64,192,77401,1,0,0:0:0:0:
192,192,77519,1,0,0:0:0:0:
448,192,77636,128,0,77870:0:0:0:0:
320,192,77636,1,0,0:0:0:0:
64,192,77753,1,0,0:0:0:0:
320,192,77870,1,0,0:0:0:0:
192,192,77870,1,0,0:0:0:0:
448,192,77987,1,0,0:0:0:0:
64,192,78105,1,0,0:0:0:0:
192,192,78105,1,0,0:0:0:0:
448,192,78222,1,0,0:0:0:0:
320,192,78222,1,0,0:0:0:0:
64,192,78339,1,0,0:0:0:0:
320,192,78456,1,0,0:0:0:0:
192,192,78573,1,0,0:0:0:0:
64,192,78691,1,0,0:0:0:0:
448,192,78691,1,0,0:0:0:0:
320,192,78808,1,0,0:0:0:0:
192,192,78925,1,0,0:0:0:0:
320,192,79042,1,0,0:0:0:0:
192,192,79159,1,0,0:0:0:0:
64,192,79159,1,0,0:0:0:0:
320,192,79276,1,0,0:0:0:0:
448,192,79276,1,0,0:0:0:0:
64,192,79394,1,0,0:0:0:0:
192,192,79394,1,0,0:0:0:0:
448,192,79511,1,0,0:0:0:0:
320,192,79511,1,0,0:0:0:0:
64,192,79628,128,0,79980:0:0:0:0:
192,192,79628,128,0,79745:0:0:0:0:
448,192,79745,128,0,79862:0:0:0:0:
320,192,79862,128,0,79980:0:0:0:0:
192,192,79980,128,0,80097:0:0:0:0:
448,192,80097,128,0,80448:0:0:0:0:
64,192,80097,128,0,80214:0:0:0:0:
320,192,80214,128,0,80331:0:0:0:0:
192,192,80331,128,0,80448:0:0:0:0:
64,192,80448,128,0,80566:0:0:0:0:
320,192,80566,1,0,0:0:0:0:
192,192,80566,1,0,0:0:0:0:
448,192,80566,128,0,80917:0:0:0:0:
64,192,80800,1,0,0:0:0:0:
192,192,80800,1,0,0:0:0:0:
64,192,80917,1,0,0:0:0:0:
320,192,81034,1,0,0:0:0:0:
448,192,81034,1,0,0:0:0:0:
192,192,81151,128,0,81386:0:0:0:0:
320,192,81386,128,0,81737:0:0:0:0:
64,192,81503,1,0,0:0:0:0:
448,192,81503,1,0,0:0:0:0:
192,192,81737,1,0,0:0:0:0:
448,192,81737,128,0,81972:0:0:0:0:
64,192,81972,1,0,0:0:0:0:
192,192,81972,128,0,82206:0:0:0:0:
320,192,82206,1,0,0:0:0:0:
448,192,82441,128,0,82675:0:0:0:0:
192,192,82441,1,0,0:0:0:0:
64,192,82441,1,0,0:0:0:0:
320,192,82675,1,0,0:0:0:0:
64,192,82675,1,0,0:0:0:0:
192,192,82792,1,0,0:0:0:0:
320,192,82792,128,0,83144:0:0:0:0:
64,192,82909,1,0,0:0:0:0:
448,192,82909,1,0,0:0:0:0:
64,192,83144,1,0,0:0:0:0:
192,192,83144,1,0,0:0:0:0:
192,192,83378,128,0,83847:0:0:0:0:
448,192,83378,1,0,0:0:0:0:
320,192,83378,128,0,83495:0:0:0:0:
320,192,83612,1,0,0:0:0:0:
64,192,83847,1,0,0:0:0:0:
448,192,83847,1,0,0:0:0:0:
320,192,83964,1,0,0:0:0:0:
64,192,84081,128,0,84198:0:0:0:0:
192,192,84081,128,0,84198:0:0:0:0:
64,192,84316,128,0,84784:0:0:0:0:
192,192,84316,1,0,0:0:0:0:
448,192,84316,128,0,84433:0:0:0:0:
320,192,84550,1,0,0:0:0:0:
448,192,84550,1,0,0:0:0:0:
192,192,84784,1,0,0:0:0:0:
448,192,84784,1,0,0:0:0:0:
64,192,84901,1,0,0:0:0:0:
320,192,85019,128,0,85136:0:0:0:0:
448,192,85019,128,0,85136:0:0:0:0:
448,192,85253,128,0,85487:0:0:0:0:
320,192,85253,1,0,0:0:0:0:
64,192,85253,128,0,85370:0:0:0:0:
64,192,85487,1,0,0:0:0:0:
320,192,85605,1,0,0:0:0:0:
192,192,85605,1,0,0:0:0:0:
448,192,85722,1,0,0:0:0:0:
64,192,85722,1,0,0:0:0:0:
320,192,85956,1,0,0:0:0:0:
192,192,85956,1,0,0:0:0:0:
64,192,86191,1,0,0:0:0:0:
448,192,86191,1,0,0:0:0:0:
192,192,86220,1,0,0:0:0:0:
448,192,86425,1,0,0:0:0:0:
320,192,86425,1,0,0:0:0:0:
192,192,86454,1,0,0:0:0:0:
64,192,86659,1,0,0:0:0:0:
448,192,86659,1,0,0:0:0:0:
320,192,86689,1,0,0:0:0:0:
64,192,86894,1,0,0:0:0:0:
192,192,86894,1,0,0:0:0:0:
320,192,86923,1,0,0:0:0:0:
448,192,87128,1,0,0:0:0:0:
64,192,87128,128,0,87480:0:0:0:0:
320,192,87128,1,0,0:0:0:0:
192,192,87362,1,0,0:0:0:0:
320,192,87480,1,0,0:0:0:0:
64,192,87597,1,0,0:0:0:0:
192,192,87597,1,0,0:0:0:0:
448,192,87597,1,0,0:0:0:0:
320,192,87831,1,0,0:0:0:0:
192,192,87831,1,0,0:0:0:0:
320,192,88066,1,0,0:0:0:0:
448,192,88066,128,0,88300:0:0:0:0:
192,192,88300,1,0,0:0:0:0:
64,192,88300,1,0,0:0:0:0:
64,192,88417,1,0,0:0:0:0:
320,192,88534,1,0,0:0:0:0:
448,192,88534,1,0,0:0:0:0:
192,192,88651,128,0,88886:0:0:0:0:
320,192,88886,128,0,89237:0:0:0:0:
64,192,89003,1,0,0:0:0:0:
192,192,89003,1,0,0:0:0:0:
64,192,89237,1,0,0:0:0:0:
448,192,89237,128,0,89472:0:0:0:0:
192,192,89472,1,0,0:0:0:0:
64,192,89472,128,0,89706:0:0:0:0:
320,192,89706,1,0,0:0:0:0:
192,192,89706,128,0,89941:0:0:0:0:
448,192,89941,1,0,0:0:0:0:
320,192,89941,128,0,90175:0:0:0:0:
64,192,90175,1,0,0:0:0:0:
448,192,90175,1,0,0:0:0:0:
448,192,90292,1,0,0:0:0:0:
320,192,90292,1,0,0:0:0:0:
192,192,90409,1,0,0:0:0:0:
64,192,90409,1,0,0:0:0:0:
448,192,90526,128,0,90605:0:0:0:0:
320,192,90556,128,0,90644:0:0:0:0:
448,192,90761,128,0,90839:0:0:0:0:
320,192,90790,128,0,90878:0:0:0:0:
64,192,90878,1,0,0:0:0:0:
192,192,90878,1,0,0:0:0:0:
448,192,90995,1,0,0:0:0:0:
320,192,91112,1,0,0:0:0:0:
192,192,91230,1,0,0:0:0:0:
64,192,91347,1,0,0:0:0:0:
448,192,91347,1,0,0:0:0:0:
192,192,91464,1,0,0:0:0:0:
320,192,91581,1,0,0:0:0:0:
192,192,91698,1,0,0:0:0:0:
320,192,91816,1,0,0:0:0:0:
448,192,91816,1,0,0:0:0:0:
64,192,91816,128,0,92050:0:0:0:0:
192,192,92050,1,0,0:0:0:0:
448,192,92050,1,0,0:0:0:0:
320,192,92167,1,0,0:0:0:0:
192,192,92167,128,0,92401:0:0:0:0:
64,192,92284,1,0,0:0:0:0:
448,192,92284,1,0,0:0:0:0:
320,192,92401,128,0,92636:0:0:0:0:
64,192,92636,1,0,0:0:0:0:
448,192,92636,1,0,0:0:0:0:
192,192,92753,1,0,0:0:0:0:
64,192,92870,128,0,92987:0:0:0:0:
320,192,92870,128,0,92987:0:0:0:0:
64,192,93105,128,0,93222:0:0:0:0:
320,192,93105,128,0,93222:0:0:0:0:
192,192,93222,1,0,0:0:0:0:
448,192,93222,1,0,0:0:0:0:
320,192,93339,1,0,0:0:0:0:
64,192,93456,1,0,0:0:0:0:
448,192,93573,1,0,0:0:0:0:
192,192,93691,1,0,0:0:0:0:
64,192,93691,128,0,93925:0:0:0:0:
448,192,93925,1,0,0:0:0:0:
320,192,93925,1,0,0:0:0:0:
320,192,94159,1,0,0:0:0:0:
64,192,94159,1,0,0:0:0:0:
192,192,94159,1,0,0:0:0:0:
448,192,94276,1,0,0:0:0:0:
64,192,94511,1,0,0:0:0:0:
448,192,94511,128,0,94745:0:0:0:0:
192,192,94628,1,0,0:0:0:0:
320,192,94628,1,0,0:0:0:0:
64,192,94745,1,0,0:0:0:0:
192,192,94862,1,0,0:0:0:0:
320,192,94980,1,0,0:0:0:0:
448,192,95097,1,0,0:0:0:0:
64,192,95097,1,0,0:0:0:0:
192,192,95214,1,0,0:0:0:0:
320,192,95331,1,0,0:0:0:0:
192,192,95448,1,0,0:0:0:0:
64,192,95566,128,0,95917:0:0:0:0:
320,192,95566,1,0,0:0:0:0:
448,192,95566,1,0,0:0:0:0:
448,192,95800,1,0,0:0:0:0:
448,192,95917,128,0,96151:0:0:0:0:
320,192,95917,1,0,0:0:0:0:
64,192,96034,1,0,0:0:0:0:
192,192,96034,1,0,0:0:0:0:
320,192,96151,128,0,96386:0:0:0:0:
64,192,96386,1,0,0:0:0:0:
192,192,96386,1,0,0:0:0:0:
192,192,96503,128,0,96737:0:0:0:0:
448,192,96503,1,0,0:0:0:0:
64,192,96737,128,0,96972:0:0:0:0:
320,192,96737,1,0,0:0:0:0:
320,192,96972,128,0,97206:0:0:0:0:
448,192,96972,1,0,0:0:0:0:
64,192,97206,1,0,0:0:0:0:
192,192,97206,128,0,97441:0:0:0:0:
320,192,97441,128,0,97675:0:0:0:0:
448,192,97441,1,0,0:0:0:0:
192,192,97675,1,0,0:0:0:0:
64,192,97675,1,0,0:0:0:0:
64,192,97792,128,0,98144:0:0:0:0:
192,192,97792,1,0,0:0:0:0:
448,192,97909,1,0,0:0:0:0:
320,192,97909,1,0,0:0:0:0:
192,192,98144,128,0,98261:0:0:0:0:
320,192,98144,128,0,98261:0:0:0:0:
448,192,98378,128,0,98847:0:0:0:0:
192,192,98378,1,0,0:0:0:0:
320,192,98378,128,0,98495:0:0:0:0:
64,192,98612,1,0,0:0:0:0:
64,192,98847,1,0,0:0:0:0:
320,192,98847,1,0,0:0:0:0:
320,192,98964,1,0,0:0:0:0:
192,192,98964,1,0,0:0:0:0:
64,192,99081,128,0,99433:0:0:0:0:
448,192,99081,128,0,99198:0:0:0:0:
448,192,99316,128,0,99784:0:0:0:0:
320,192,99316,1,0,0:0:0:0:
192,192,99550,1,0,0:0:0:0:
320,192,99784,1,0,0:0:0:0:
64,192,99784,1,0,0:0:0:0:
320,192,99901,1,0,0:0:0:0:
192,192,99901,1,0,0:0:0:0:
448,192,100019,128,0,100370:0:0:0:0:
64,192,100019,128,0,100136:0:0:0:0:
64,192,100253,128,0,100487:0:0:0:0:
192,192,100253,1,0,0:0:0:0:
320,192,100487,1,0,0:0:0:0:
448,192,100487,1,0,0:0:0:0:
448,192,100605,1,0,0:0:0:0:
320,192,100605,1,0,0:0:0:0:
192,192,100722,1,0,0:0:0:0:
64,192,100722,1,0,0:0:0:0:
192,192,100956,128,0,101191:0:0:0:0:
320,192,100956,1,0,0:0:0:0:
64,192,101191,128,0,101308:0:0:0:0:
448,192,101191,1,0,0:0:0:0:
320,192,101220,1,0,0:0:0:0:
64,192,101425,1,0,0:0:0:0:
192,192,101425,128,0,101542:0:0:0:0:
320,192,101454,1,0,0:0:0:0:
64,192,101659,1,0,0:0:0:0:
448,192,101659,128,0,101776:0:0:0:0:
192,192,101689,1,0,0:0:0:0:
448,192,101894,1,0,0:0:0:0:
320,192,101894,128,0,102011:0:0:0:0:
192,192,101923,1,0,0:0:0:0:
320,192,102128,1,0,0:0:0:0:
64,192,102128,128,0,102480:0:0:0:0:
192,192,102128,128,0,102362:0:0:0:0:
448,192,102304,1,0,0:0:0:0:
192,192,102480,1,0,0:0:0:0:
320,192,102480,128,0,102597:0:0:0:0:
448,192,102597,1,0,0:0:0:0:
192,192,102597,1,0,0:0:0:0:
64,192,102597,1,0,0:0:0:0:
320,192,102831,128,0,102948:0:0:0:0:
192,192,102831,128,0,102948:0:0:0:0:
448,192,103066,128,0,103417:0:0:0:0:
320,192,103066,1,0,0:0:0:0:
64,192,103300,1,0,0:0:0:0:
320,192,103417,1,0,0:0:0:0:
64,192,103417,128,0,103651:0:0:0:0:
192,192,103534,1,0,0:0:0:0:
448,192,103534,1,0,0:0:0:0:
320,192,103651,128,0,103886:0:0:0:0:
64,192,103886,1,0,0:0:0:0:
192,192,103886,1,0,0:0:0:0:
192,192,104003,128,0,104237:0:0:0:0:
448,192,104003,1,0,0:0:0:0:
320,192,104237,128,0,104472:0:0:0:0:
448,192,104237,1,0,0:0:0:0:
192,192,104472,1,0,0:0:0:0:
64,192,104472,128,0,104706:0:0:0:0:
192,192,104706,1,0,0:0:0:0:
448,192,104706,128,0,104941:0:0:0:0:
64,192,104941,1,0,0:0:0:0:
192,192,104941,128,0,105175:0:0:0:0:
448,192,105175,1,0,0:0:0:0:
320,192,105175,1,0,0:0:0:0:
448,192,105292,1,0,0:0:0:0:
320,192,105292,1,0,0:0:0:0:
192,192,105409,1,0,0:0:0:0:
64,192,105409,1,0,0:0:0:0:
448,192,105526,128,0,105644:0:0:0:0:
320,192,105526,128,0,105644:0:0:0:0:
448,192,105761,128,0,105878:0:0:0:0:
320,192,105761,128,0,105878:0:0:0:0:
64,192,105878,1,0,0:0:0:0:
192,192,105878,1,0,0:0:0:0:
448,192,105995,1,0,0:0:0:0:
192,192,106112,1,0,0:0:0:0:
320,192,106230,1,0,0:0:0:0:
448,192,106347,1,0,0:0:0:0:
64,192,106347,1,0,0:0:0:0:
192,192,106464,1,0,0:0:0:0:
448,192,106581,1,0,0:0:0:0:
320,192,106698,1,0,0:0:0:0:
192,192,106816,1,0,0:0:0:0:
64,192,106816,128,0,107050:0:0:0:0:
320,192,107050,1,0,0:0:0:0:
448,192,107050,1,0,0:0:0:0:
64,192,107167,1,0,0:0:0:0:
448,192,107167,128,0,107401:0:0:0:0:
192,192,107284,1,0,0:0:0:0:
320,192,107284,1,0,0:0:0:0:
64,192,107401,128,0,107636:0:0:0:0:
448,192,107636,1,0,0:0:0:0:
320,192,107636,128,0,107753:0:0:0:0:
64,192,107753,1,0,0:0:0:0:
192,192,107753,1,0,0:0:0:0:
320,192,107870,128,0,107987:0:0:0:0:
448,192,107870,128,0,107987:0:0:0:0:
64,192,107870,128,0,107987:0:0:0:0:
192,192,107987,1,0,0:0:0:0:
448,192,108105,128,0,108222:0:0:0:0:
64,192,108105,128,0,108222:0:0:0:0:
320,192,108105,128,0,108222:0:0:0:0:
192,192,108222,1,0,0:0:0:0:
448,192,108339,1,0,0:0:0:0:
192,192,108456,1,0,0:0:0:0:
320,192,108573,1,0,0:0:0:0:
448,192,108691,1,0,0:0:0:0:
64,192,108691,128,0,108925:0:0:0:0:
320,192,108925,1,0,0:0:0:0:
192,192,109042,1,0,0:0:0:0:
448,192,109159,1,0,0:0:0:0:
320,192,109159,1,0,0:0:0:0:
64,192,109276,1,0,0:0:0:0:
192,192,109276,1,0,0:0:0:0:
320,192,109511,1,0,0:0:0:0:
192,192,109511,1,0,0:0:0:0:
448,192,109628,1,0,0:0:0:0:
320,192,109628,128,0,109980:0:0:0:0:
64,192,109628,1,0,0:0:0:0:
192,192,109862,1,0,0:0:0:0:
64,192,109980,1,0,0:0:0:0:
448,192,109980,1,0,0:0:0:0:
320,192,110097,1,0,0:0:0:0:
192,192,110097,1,0,0:0:0:0:
64,192,110331,1,0,0:0:0:0:
320,192,110331,1,0,0:0:0:0:
448,192,110331,1,0,0:0:0:0:
320,192,110566,1,0,0:0:0:0:
448,192,110566,1,0,0:0:0:0:
64,192,110566,1,0,0:0:0:0:
64,192,118066,5,0,0:0:0:0:
192,192,118183,1,0,0:0:0:0:
320,192,118300,128,0,118534:0:0:0:0:
448,192,118534,1,0,0:0:0:0:
64,192,118769,1,0,0:0:0:0:
192,192,118886,1,0,0:0:0:0:
320,192,119003,128,0,119237:0:0:0:0:
448,192,119237,1,0,0:0:0:0:
192,192,119472,1,0,0:0:0:0:
320,192,119589,1,0,0:0:0:0:
448,192,119706,128,0,119941:0:0:0:0:
64,192,119941,128,0,120175:0:0:0:0:
192,192,120175,1,0,0:0:0:0:
320,192,120292,1,0,0:0:0:0:
448,192,120409,128,0,120644:0:0:0:0:
64,192,120644,128,0,120878:0:0:0:0:
192,192,120878,1,0,0:0:0:0:
320,192,120995,1,0,0:0:0:0:
448,192,121112,128,0,121347:0:0:0:0:
64,192,121347,128,0,121581:0:0:0:0:
320,192,121581,1,0,0:0:0:0:
192,192,121698,1,0,0:0:0:0:
64,192,121816,128,0,122050:0:0:0:0:
448,192,122050,128,0,122284:0:0:0:0:
320,192,122284,1,0,0:0:0:0:
192,192,122401,1,0,0:0:0:0:
64,192,122519,128,0,122753:0:0:0:0:
192,192,122753,1,0,0:0:0:0:
320,192,122870,1,0,0:0:0:0:
448,192,122987,128,0,123222:0:0:0:0:
320,192,123222,128,0,123456:0:0:0:0:
64,192,123456,1,0,0:0:0:0:
192,192,123573,1,0,0:0:0:0:
448,192,123691,128,0,123925:0:0:0:0:
64,192,123925,128,0,124159:0:0:0:0:
320,192,124159,128,0,124394:0:0:0:0:
192,192,124394,128,0,124628:0:0:0:0:
448,192,124628,128,0,125097:0:0:0:0:
192,192,125097,128,0,125331:0:0:0:0:
320,192,125331,128,0,125566:0:0:0:0:
448,192,125566,128,0,125800:0:0:0:0:
64,192,125566,1,0,0:0:0:0:
192,192,125566,1,0,0:0:0:0:
320,192,125800,1,0,0:0:0:0:
192,192,126034,1,0,0:0:0:0:
64,192,126034,1,0,0:0:0:0:
320,192,126151,1,0,0:0:0:0:
192,192,126269,128,0,126503:0:0:0:0:
64,192,126503,1,0,0:0:0:0:
448,192,126503,128,0,126972:0:0:0:0:
192,192,126972,128,0,127206:0:0:0:0:
320,192,127206,128,0,127441:0:0:0:0:
64,192,127441,128,0,127675:0:0:0:0:
448,192,127441,1,0,0:0:0:0:
192,192,127675,1,0,0:0:0:0:
320,192,127909,1,0,0:0:0:0:
448,192,127909,1,0,0:0:0:0:
192,192,128026,1,0,0:0:0:0:
64,192,128144,128,0,128378:0:0:0:0:
448,192,128378,128,0,128847:0:0:0:0:
320,192,128378,1,0,0:0:0:0:
192,192,128847,128,0,129081:0:0:0:0:
64,192,129081,128,0,129316:0:0:0:0:
320,192,129316,128,0,129550:0:0:0:0:
448,192,129316,1,0,0:0:0:0:
192,192,129550,128,0,129784:0:0:0:0:
64,192,129784,1,0,0:0:0:0:
448,192,129784,1,0,0:0:0:0:
320,192,129901,1,0,0:0:0:0:
192,192,130019,128,0,130253:0:0:0:0:
448,192,130253,128,0,130487:0:0:0:0:
64,192,130253,1,0,0:0:0:0:
320,192,130487,128,0,130722:0:0:0:0:
64,192,130722,1,0,0:0:0:0:
192,192,130839,1,0,0:0:0:0:
448,192,130956,1,0,0:0:0:0:
320,192,131073,1,0,0:0:0:0:
64,192,131191,128,0,131425:0:0:0:0:
192,192,131191,1,0,0:0:0:0:
320,192,131425,128,0,131659:0:0:0:0:
448,192,131425,128,0,131659:0:0:0:0:
192,192,131659,128,0,131894:0:0:0:0:
448,192,131894,128,0,132128:0:0:0:0:
64,192,132128,128,0,132362:0:0:0:0:
192,192,132128,128,0,132362:0:0:0:0:
448,192,132362,1,0,0:0:0:0:
320,192,132597,1,0,0:0:0:0:
64,192,132714,1,0,0:0:0:0:
192,192,132831,1,0,0:0:0:0:
320,192,132948,1,0,0:0:0:0:
448,192,133066,128,0,133300:0:0:0:0:
64,192,133066,1,0,0:0:0:0:
192,192,133300,128,0,133534:0:0:0:0:
64,192,133534,1,0,0:0:0:0:
448,192,133534,1,0,0:0:0:0:
320,192,133651,1,0,0:0:0:0:
192,192,133769,128,0,134003:0:0:0:0:
64,192,134003,128,0,134472:0:0:0:0:
448,192,134003,1,0,0:0:0:0:
320,192,134472,128,0,134706:0:0:0:0:
192,192,134706,128,0,134941:0:0:0:0:
448,192,134941,128,0,135175:0:0:0:0:
64,192,134941,1,0,0:0:0:0:
320,192,135175,128,0,135409:0:0:0:0:
448,192,135409,1,0,0:0:0:0:
64,192,135409,1,0,0:0:0:0:
192,192,135526,1,0,0:0:0:0:
320,192,135644,128,0,135878:0:0:0:0:
64,192,135878,128,0,136347:0:0:0:0:
448,192,135878,1,0,0:0:0:0:
320,192,136347,128,0,136581:0:0:0:0:
448,192,136581,128,0,136816:0:0:0:0:
192,192,136816,128,0,137050:0:0:0:0:
64,192,136816,1,0,0:0:0:0:
320,192,137050,128,0,137284:0:0:0:0:
64,192,137284,1,0,0:0:0:0:
448,192,137284,1,0,0:0:0:0:
192,192,137401,1,0,0:0:0:0:
320,192,137519,128,0,137753:0:0:0:0:
64,192,137753,128,0,137987:0:0:0:0:
192,192,137753,1,0,0:0:0:0:
448,192,137987,128,0,138222:0:0:0:0:
64,192,138222,1,0,0:0:0:0:
192,192,138339,1,0,0:0:0:0:
448,192,138456,1,0,0:0:0:0:
320,192,138573,1,0,0:0:0:0:
64,192,138691,128,0,138925:0:0:0:0:
192,192,138691,1,0,0:0:0:0:
320,192,138925,128,0,139159:0:0:0:0:
192,192,139159,128,0,139394:0:0:0:0:
448,192,139394,128,0,139511:0:0:0:0:
448,192,139628,128,0,140566:0:0:0:0:
320,192,139628,128,0,139862:0:0:0:0:
192,192,139862,128,0,140097:0:0:0:0:
64,192,140097,128,0,140331:0:0:0:0:
320,192,140331,128,0,140566:0:0:0:0:
192,192,140566,5,0,0:0:0:0:
64,192,140566,1,0,0:0:0:0:
192,192,140800,1,0,0:0:0:0:
64,192,140800,1,0,0:0:0:0:
64,192,141034,1,0,0:0:0:0:
448,192,141034,128,0,141386:0:0:0:0:
192,192,141269,1,0,0:0:0:0:
320,192,141386,1,0,0:0:0:0:
448,192,141503,1,0,0:0:0:0:
64,192,141503,1,0,0:0:0:0:
448,192,141737,1,0,0:0:0:0:
64,192,141737,1,0,0:0:0:0:
320,192,141972,1,0,0:0:0:0:
192,192,141972,1,0,0:0:0:0:
64,192,142089,1,0,0:0:0:0:
192,192,142206,1,0,0:0:0:0:
320,192,142323,1,0,0:0:0:0:
64,192,142441,1,0,0:0:0:0:
448,192,142441,1,0,0:0:0:0:
448,192,142675,1,0,0:0:0:0:
64,192,142675,1,0,0:0:0:0:
192,192,142909,1,0,0:0:0:0:
320,192,142909,1,0,0:0:0:0:
64,192,143026,1,0,0:0:0:0:
448,192,143144,1,0,0:0:0:0:
320,192,143261,1,0,0:0:0:0:
64,192,143378,1,0,0:0:0:0:
192,192,143378,1,0,0:0:0:0:
192,192,143612,1,0,0:0:0:0:
64,192,143612,1,0,0:0:0:0:
320,192,143847,1,0,0:0:0:0:
448,192,143847,1,0,0:0:0:0:
192,192,143964,1,0,0:0:0:0:
448,192,144081,1,0,0:0:0:0:
64,192,144081,1,0,0:0:0:0:
320,192,144316,1,0,0:0:0:0:
192,192,144316,1,0,0:0:0:0:
192,192,144550,1,0,0:0:0:0:
320,192,144550,1,0,0:0:0:0:
448,192,144784,1,0,0:0:0:0:
64,192,144784,128,0,145136:0:0:0:0:
320,192,145019,1,0,0:0:0:0:
192,192,145136,1,0,0:0:0:0:
448,192,145253,1,0,0:0:0:0:
320,192,145253,1,0,0:0:0:0:
448,192,145487,1,0,0:0:0:0:
320,192,145487,1,0,0:0:0:0:
64,192,145722,1,0,0:0:0:0:
192,192,145722,1,0,0:0:0:0:
448,192,145839,1,0,0:0:0:0:
320,192,145956,1,0,0:0:0:0:
192,192,146073,1,0,0:0:0:0:
64,192,146191,1,0,0:0:0:0:
448,192,146191,1,0,0:0:0:0:
448,192,146425,1,0,0:0:0:0:
64,192,146425,1,0,0:0:0:0:
192,192,146659,1,0,0:0:0:0:
320,192,146659,1,0,0:0:0:0:
448,192,146776,1,0,0:0:0:0:
64,192,146894,1,0,0:0:0:0:
192,192,147011,1,0,0:0:0:0:
448,192,147128,1,0,0:0:0:0:
64,192,147128,1,0,0:0:0:0:
320,192,147245,1,0,0:0:0:0:
192,192,147362,1,0,0:0:0:0:
64,192,147480,1,0,0:0:0:0:
448,192,147480,128,0,147714:0:0:0:0:
192,192,147714,1,0,0:0:0:0:
64,192,147714,1,0,0:0:0:0:
320,192,147831,1,0,0:0:0:0:
448,192,147831,1,0,0:0:0:0:
192,192,148066,1,0,0:0:0:0:
320,192,148066,1,0,0:0:0:0:
320,192,148300,1,0,0:0:0:0:
192,192,148300,1,0,0:0:0:0:
64,192,148534,1,0,0:0:0:0:
448,192,148534,128,0,148886:0:0:0:0:
192,192,148769,1,0,0:0:0:0:
320,192,148886,1,0,0:0:0:0:
448,192,149003,1,0,0:0:0:0:
64,192,149003,1,0,0:0:0:0:
448,192,149237,1,0,0:0:0:0:
64,192,149237,1,0,0:0:0:0:
192,192,149472,1,0,0:0:0:0:
320,192,149472,1,0,0:0:0:0:
64,192,149589,1,0,0:0:0:0:
192,192,149706,1,0,0:0:0:0:
320,192,149823,1,0,0:0:0:0:
64,192,149941,1,0,0:0:0:0:
448,192,149941,1,0,0:0:0:0:
448,192,150175,1,0,0:0:0:0:
64,192,150175,1,0,0:0:0:0:
192,192,150409,1,0,0:0:0:0:
320,192,150409,1,0,0:0:0:0:
448,192,150526,1,0,0:0:0:0:
320,192,150644,1,0,0:0:0:0:
192,192,150761,1,0,0:0:0:0:
64,192,150878,1,0,0:0:0:0:
448,192,150878,1,0,0:0:0:0:
448,192,151112,1,0,0:0:0:0:
64,192,151112,1,0,0:0:0:0:
192,192,151347,1,0,0:0:0:0:
320,192,151347,1,0,0:0:0:0:
64,192,151464,1,0,0:0:0:0:
320,192,151581,1,0,0:0:0:0:
448,192,151581,1,0,0:0:0:0:
192,192,151816,1,0,0:0:0:0:
64,192,151816,1,0,0:0:0:0:
64,192,152050,1,0,0:0:0:0:
192,192,152050,1,0,0:0:0:0:
320,192,152284,1,0,0:0:0:0:
448,192,152284,128,0,152636:0:0:0:0:
64,192,152519,1,0,0:0:0:0:
192,192,152636,1,0,0:0:0:0:
448,192,152753,1,0,0:0:0:0:
320,192,152753,1,0,0:0:0:0:
448,192,152987,1,0,0:0:0:0:
320,192,152987,1,0,0:0:0:0:
64,192,153222,1,0,0:0:0:0:
192,192,153222,1,0,0:0:0:0:
448,192,153339,1,0,0:0:0:0:
192,192,153456,1,0,0:0:0:0:
320,192,153573,1,0,0:0:0:0:
64,192,153691,1,0,0:0:0:0:
448,192,153691,1,0,0:0:0:0:
448,192,153925,1,0,0:0:0:0:
64,192,153925,1,0,0:0:0:0:
64,192,154159,1,0,0:0:0:0:
192,192,154159,1,0,0:0:0:0:
448,192,154276,1,0,0:0:0:0:
192,192,154394,1,0,0:0:0:0:
192,192,154511,1,0,0:0:0:0:
320,192,154628,1,0,0:0:0:0:
448,192,154628,1,0,0:0:0:0:
64,192,154745,1,0,0:0:0:0:
320,192,154862,1,0,0:0:0:0:
320,192,154980,1,0,0:0:0:0:
64,192,155214,1,0,0:0:0:0:
448,192,155214,1,0,0:0:0:0:
320,192,155331,1,0,0:0:0:0:
192,192,155448,1,0,0:0:0:0:
64,192,155566,5,0,0:0:0:0:
320,192,155566,1,0,0:0:0:0:
448,192,155566,128,0,155800:0:0:0:0:
320,192,155800,1,0,0:0:0:0:
64,192,155800,1,0,0:0:0:0:
64,192,156034,128,0,156269:0:0:0:0:
192,192,156034,128,0,156269:0:0:0:0:
320,192,156269,1,0,0:0:0:0:
192,192,156386,1,0,0:0:0:0:
448,192,156503,128,0,156737:0:0:0:0:
320,192,156503,1,0,0:0:0:0:
64,192,156503,1,0,0:0:0:0:
64,192,156737,1,0,0:0:0:0:
320,192,156737,1,0,0:0:0:0:
320,192,156972,1,0,0:0:0:0:
192,192,156972,1,0,0:0:0:0:
448,192,157089,1,0,0:0:0:0:
64,192,157206,1,0,0:0:0:0:
192,192,157323,1,0,0:0:0:0:
64,192,157441,1,0,0:0:0:0:
448,192,157441,1,0,0:0:0:0:
320,192,157441,128,0,157675:0:0:0:0:
448,192,157675,1,0,0:0:0:0:
64,192,157675,1,0,0:0:0:0:
192,192,157909,1,0,0:0:0:0:
320,192,157909,1,0,0:0:0:0:
448,192,158026,1,0,0:0:0:0:
64,192,158144,1,0,0:0:0:0:
192,192,158261,1,0,0:0:0:0:
448,192,158378,1,0,0:0:0:0:
320,192,158378,1,0,0:0:0:0:
64,192,158378,128,0,158612:0:0:0:0:
320,192,158612,1,0,0:0:0:0:
448,192,158612,1,0,0:0:0:0:
192,192,158847,1,0,0:0:0:0:
320,192,158847,1,0,0:0:0:0:
448,192,158964,1,0,0:0:0:0:
192,192,159081,1,0,0:0:0:0:
64,192,159081,1,0,0:0:0:0:
448,192,159316,1,0,0:0:0:0:
64,192,159316,1,0,0:0:0:0:
320,192,159316,128,0,159550:0:0:0:0:
64,192,159550,1,0,0:0:0:0:
448,192,159550,1,0,0:0:0:0:
448,192,159784,128,0,160019:0:0:0:0:
320,192,159784,128,0,160019:0:0:0:0:
192,192,160019,1,0,0:0:0:0:
320,192,160136,1,0,0:0:0:0:
448,192,160253,1,0,0:0:0:0:
192,192,160253,1,0,0:0:0:0:
64,192,160253,128,0,160487:0:0:0:0:
448,192,160487,1,0,0:0:0:0:
192,192,160487,1,0,0:0:0:0:
192,192,160722,1,0,0:0:0:0:
320,192,160722,1,0,0:0:0:0:
64,192,160839,1,0,0:0:0:0:
448,192,160956,1,0,0:0:0:0:
320,192,161073,1,0,0:0:0:0:
192,192,161191,1,0,0:0:0:0:
64,192,161191,1,0,0:0:0:0:
448,192,161191,128,0,161425:0:0:0:0:
192,192,161425,1,0,0:0:0:0:
64,192,161425,1,0,0:0:0:0:
192,192,161659,1,0,0:0:0:0:
320,192,161659,1,0,0:0:0:0:
448,192,161776,1,0,0:0:0:0:
320,192,161894,1,0,0:0:0:0:
192,192,162011,1,0,0:0:0:0:
448,192,162128,1,0,0:0:0:0:
64,192,162128,1,0,0:0:0:0:
320,192,162245,1,0,0:0:0:0:
192,192,162362,1,0,0:0:0:0:
64,192,162480,1,0,0:0:0:0:
448,192,162480,128,0,162714:0:0:0:0:
192,192,162714,1,0,0:0:0:0:
64,192,162714,1,0,0:0:0:0:
320,192,162831,1,0,0:0:0:0:
448,192,162831,1,0,0:0:0:0:
448,192,163066,1,0,0:0:0:0:
64,192,163066,1,0,0:0:0:0:
192,192,163066,128,0,163300:0:0:0:0:
448,192,163300,1,0,0:0:0:0:
64,192,163300,1,0,0:0:0:0:
320,192,163534,128,0,163769:0:0:0:0:
192,192,163534,128,0,163769:0:0:0:0:
448,192,163769,1,0,0:0:0:0:
64,192,163886,1,0,0:0:0:0:
448,192,164003,1,0,0:0:0:0:
320,192,164003,128,0,164237:0:0:0:0:
192,192,164003,1,0,0:0:0:0:
448,192,164237,1,0,0:0:0:0:
192,192,164237,1,0,0:0:0:0:
64,192,164472,1,0,0:0:0:0:
448,192,164472,1,0,0:0:0:0:
320,192,164589,1,0,0:0:0:0:
192,192,164706,1,0,0:0:0:0:
320,192,164823,1,0,0:0:0:0:
64,192,164941,1,0,0:0:0:0:
448,192,164941,1,0,0:0:0:0:
192,192,164941,128,0,165175:0:0:0:0:
448,192,165175,1,0,0:0:0:0:
64,192,165175,1,0,0:0:0:0:
192,192,165409,1,0,0:0:0:0:
320,192,165409,1,0,0:0:0:0:
448,192,165526,1,0,0:0:0:0:
64,192,165644,1,0,0:0:0:0:
192,192,165761,1,0,0:0:0:0:
448,192,165878,1,0,0:0:0:0:
64,192,165878,1,0,0:0:0:0:
320,192,165878,128,0,166112:0:0:0:0:
64,192,166112,1,0,0:0:0:0:
448,192,166112,1,0,0:0:0:0:
192,192,166347,1,0,0:0:0:0:
320,192,166347,1,0,0:0:0:0:
64,192,166464,1,0,0:0:0:0:
320,192,166581,1,0,0:0:0:0:
448,192,166581,1,0,0:0:0:0:
448,192,166816,1,0,0:0:0:0:
192,192,166816,128,0,167050:0:0:0:0:
64,192,166816,1,0,0:0:0:0:
64,192,167050,1,0,0:0:0:0:
448,192,167050,1,0,0:0:0:0:
320,192,167284,128,0,167519:0:0:0:0:
448,192,167284,128,0,167519:0:0:0:0:
64,192,167519,1,0,0:0:0:0:
192,192,167636,1,0,0:0:0:0:
448,192,167753,1,0,0:0:0:0:
320,192,167753,1,0,0:0:0:0:
64,192,167753,128,0,167987:0:0:0:0:
448,192,167987,1,0,0:0:0:0:
320,192,167987,1,0,0:0:0:0:
64,192,168222,1,0,0:0:0:0:
192,192,168222,1,0,0:0:0:0:
448,192,168339,1,0,0:0:0:0:
320,192,168456,1,0,0:0:0:0:
192,192,168573,1,0,0:0:0:0:
64,192,168691,1,0,0:0:0:0:
448,192,168691,1,0,0:0:0:0:
320,192,168691,128,0,168925:0:0:0:0:
448,192,168925,1,0,0:0:0:0:
64,192,168925,1,0,0:0:0:0:
64,192,169159,1,0,0:0:0:0:
192,192,169159,1,0,0:0:0:0:
448,192,169276,1,0,0:0:0:0:
192,192,169394,1,0,0:0:0:0:
192,192,169511,1,0,0:0:0:0:
448,192,169628,1,0,0:0:0:0:
320,192,169628,1,0,0:0:0:0:
64,192,169745,1,0,0:0:0:0:
320,192,169862,1,0,0:0:0:0:
192,192,169862,1,0,0:0:0:0:
192,192,169980,1,0,0:0:0:0:
448,192,170097,1,0,0:0:0:0:
320,192,170097,1,0,0:0:0:0:
192,192,170214,1,0,0:0:0:0:
64,192,170214,1,0,0:0:0:0:
320,192,170331,1,0,0:0:0:0:
448,192,170331,1,0,0:0:0:0:
192,192,170448,1,0,0:0:0:0:
64,192,170448,1,0,0:0:0:0:
448,192,170566,1,0,0:0:0:0:
320,192,170683,1,0,0:0:0:0:
192,192,170800,1,0,0:0:0:0:
448,192,170917,128,0,171151:0:0:0:0:
320,192,171151,1,0,0:0:0:0:
192,192,171269,1,0,0:0:0:0:
320,192,171503,1,0,0:0:0:0:
192,192,171620,1,0,0:0:0:0:
64,192,171737,1,0,0:0:0:0:
320,192,171855,128,0,172089:0:0:0:0:
192,192,172089,1,0,0:0:0:0:
64,192,172206,1,0,0:0:0:0:
448,192,172441,1,0,0:0:0:0:
320,192,172558,1,0,0:0:0:0:
192,192,172675,1,0,0:0:0:0:
448,192,172792,128,0,173026:0:0:0:0:
320,192,173026,1,0,0:0:0:0:
192,192,173144,1,0,0:0:0:0:
448,192,173378,1,0,0:0:0:0:
64,192,173378,1,0,0:0:0:0:
320,192,173495,1,0,0:0:0:0:
448,192,173612,1,0,0:0:0:0:
64,192,173730,1,0,0:0:0:0:
192,192,173847,1,0,0:0:0:0:
448,192,173964,1,0,0:0:0:0:
320,192,174081,1,0,0:0:0:0:
64,192,174198,1,0,0:0:0:0:
448,192,174316,1,0,0:0:0:0:
320,192,174316,1,0,0:0:0:0:
192,192,174316,128,0,174550:0:0:0:0:
64,192,174550,1,0,0:0:0:0:
448,192,174550,1,0,0:0:0:0:
320,192,174667,128,0,174901:0:0:0:0:
448,192,174667,1,0,0:0:0:0:
64,192,174784,1,0,0:0:0:0:
192,192,174784,1,0,0:0:0:0:
448,192,174901,1,0,0:0:0:0:
64,192,174901,128,0,175136:0:0:0:0:
192,192,175019,1,0,0:0:0:0:
320,192,175136,1,0,0:0:0:0:
448,192,175136,128,0,175487:0:0:0:0:
192,192,175253,1,0,0:0:0:0:
64,192,175253,1,0,0:0:0:0:
320,192,175487,1,0,0:0:0:0:
64,192,175487,1,0,0:0:0:0:
192,192,175722,1,0,0:0:0:0:
448,192,175722,1,0,0:0:0:0:
64,192,175839,1,0,0:0:0:0:
320,192,175956,1,0,0:0:0:0:
192,192,176073,1,0,0:0:0:0:
64,192,176191,1,0,0:0:0:0:
448,192,176191,128,0,176425:0:0:0:0:
64,192,176425,1,0,0:0:0:0:
320,192,176425,1,0,0:0:0:0:
192,192,176542,128,0,176776:0:0:0:0:
64,192,176542,1,0,0:0:0:0:
320,192,176659,1,0,0:0:0:0:
448,192,176659,1,0,0:0:0:0:
64,192,176776,1,0,0:0:0:0:
448,192,176776,128,0,177011:0:0:0:0:
320,192,176894,1,0,0:0:0:0:
64,192,177011,128,0,177362:0:0:0:0:
192,192,177011,1,0,0:0:0:0:
320,192,177128,1,0,0:0:0:0:
448,192,177128,1,0,0:0:0:0:
192,192,177362,128,0,177480:0:0:0:0:
320,192,177362,128,0,177480:0:0:0:0:
64,192,177597,1,0,0:0:0:0:
320,192,177597,128,0,177714:0:0:0:0:
448,192,177597,128,0,177714:0:0:0:0:
64,192,177831,128,0,177948:0:0:0:0:
448,192,177831,128,0,177948:0:0:0:0:
192,192,178066,1,0,0:0:0:0:
64,192,178066,1,0,0:0:0:0:
320,192,178066,128,0,178300:0:0:0:0:
192,192,178300,1,0,0:0:0:0:
448,192,178300,1,0,0:0:0:0:
320,192,178417,1,0,0:0:0:0:
192,192,178417,1,0,0:0:0:0:
448,192,178534,128,0,178769:0:0:0:0:
64,192,178534,1,0,0:0:0:0:
64,192,178769,1,0,0:0:0:0:
192,192,178769,1,0,0:0:0:0:
192,192,178886,1,0,0:0:0:0:
320,192,178886,1,0,0:0:0:0:
64,192,179003,1,0,0:0:0:0:
448,192,179003,1,0,0:0:0:0:
192,192,179120,1,0,0:0:0:0:
320,192,179237,1,0,0:0:0:0:
192,192,179355,1,0,0:0:0:0:
64,192,179472,1,0,0:0:0:0:
448,192,179472,1,0,0:0:0:0:
320,192,179589,1,0,0:0:0:0:
192,192,179706,1,0,0:0:0:0:
64,192,179823,1,0,0:0:0:0:
192,192,179941,1,0,0:0:0:0:
448,192,179941,1,0,0:0:0:0:
320,192,179941,128,0,180175:0:0:0:0:
192,192,180175,1,0,0:0:0:0:
64,192,180175,1,0,0:0:0:0:
448,192,180175,1,0,0:0:0:0:
192,192,180292,1,0,0:0:0:0:
64,192,180292,1,0,0:0:0:0:
448,192,180292,1,0,0:0:0:0:
64,192,180526,1,0,0:0:0:0:
320,192,180526,1,0,0:0:0:0:
448,192,180526,1,0,0:0:0:0:
448,192,180644,1,0,0:0:0:0:
320,192,180644,1,0,0:0:0:0:
64,192,180644,1,0,0:0:0:0:
448,192,180878,1,0,0:0:0:0:
320,192,180878,1,0,0:0:0:0:
192,192,180878,1,0,0:0:0:0:
448,192,180995,1,0,0:0:0:0:
320,192,180995,1,0,0:0:0:0:
192,192,180995,1,0,0:0:0:0:
64,192,181230,1,0,0:0:0:0:
192,192,181230,1,0,0:0:0:0:
320,192,181230,1,0,0:0:0:0:
192,192,181347,1,0,0:0:0:0:
64,192,181347,1,0,0:0:0:0:
320,192,181347,1,0,0:0:0:0:
448,192,181464,1,0,0:0:0:0:
320,192,181581,1,0,0:0:0:0:
192,192,181698,1,0,0:0:0:0:
448,192,181816,1,0,0:0:0:0:
64,192,181816,1,0,0:0:0:0:
320,192,181933,1,0,0:0:0:0:
192,192,182050,1,0,0:0:0:0:
320,192,182167,1,0,0:0:0:0:
448,192,182284,128,0,182519:0:0:0:0:
192,192,182284,1,0,0:0:0:0:
64,192,182284,1,0,0:0:0:0:
320,192,182519,1,0,0:0:0:0:
192,192,182636,1,0,0:0:0:0:
64,192,182753,1,0,0:0:0:0:
448,192,182753,1,0,0:0:0:0:
192,192,182870,1,0,0:0:0:0:
448,192,182987,128,0,183222:0:0:0:0:
320,192,182987,1,0,0:0:0:0:
192,192,183222,1,0,0:0:0:0:
320,192,183222,1,0,0:0:0:0:
64,192,183222,128,0,183456:0:0:0:0:
448,192,183456,1,0,0:0:0:0:
192,192,183573,1,0,0:0:0:0:
320,192,183691,128,0,184042:0:0:0:0:
64,192,183691,128,0,183749:0:0:0:0:
448,192,183691,128,0,183749:0:0:0:0:
64,192,183837,128,0,183886:0:0:0:0:
192,192,183837,128,0,183886:0:0:0:0:
448,192,183837,128,0,183886:0:0:0:0:
64,192,183983,128,0,184042:0:0:0:0:
192,192,183983,128,0,184042:0:0:0:0:
448,192,183983,128,0,184042:0:0:0:0:
192,192,184159,128,0,184511:0:0:0:0:
64,192,184159,128,0,184218:0:0:0:0:
448,192,184159,128,0,184218:0:0:0:0:
64,192,184306,128,0,184355:0:0:0:0:
320,192,184306,128,0,184355:0:0:0:0:
448,192,184306,128,0,184355:0:0:0:0:
320,192,184452,128,0,184511:0:0:0:0:
448,192,184452,128,0,184511:0:0:0:0:
64,192,184452,128,0,184511:0:0:0:0:
192,192,184628,1,0,0:0:0:0:
64,192,184628,1,0,0:0:0:0:
448,192,184628,1,0,0:0:0:0:
320,192,184745,1,0,0:0:0:0:
192,192,184862,1,0,0:0:0:0:
320,192,184980,1,0,0:0:0:0:
192,192,185097,1,0,0:0:0:0:
64,192,185097,128,0,185331:0:0:0:0:
320,192,185331,1,0,0:0:0:0:
448,192,185448,1,0,0:0:0:0:
192,192,185566,1,0,0:0:0:0:
320,192,185566,128,0,185800:0:0:0:0:
64,192,185800,1,0,0:0:0:0:
448,192,185800,1,0,0:0:0:0:
192,192,185917,1,0,0:0:0:0:
320,192,186034,1,0,0:0:0:0:
448,192,186034,1,0,0:0:0:0:
64,192,186151,1,0,0:0:0:0:
448,192,186151,128,0,186386:0:0:0:0:
320,192,186269,1,0,0:0:0:0:
64,192,186386,1,0,0:0:0:0:
192,192,186386,1,0,0:0:0:0:
64,192,186503,128,0,186737:0:0:0:0:
320,192,186503,1,0,0:0:0:0:
448,192,186737,1,0,0:0:0:0:
320,192,186737,1,0,0:0:0:0:
192,192,186855,1,0,0:0:0:0:
64,192,186972,1,0,0:0:0:0:
448,192,186972,1,0,0:0:0:0:
320,192,187089,1,0,0:0:0:0:
192,192,187206,1,0,0:0:0:0:
64,192,187323,1,0,0:0:0:0:
320,192,187441,1,0,0:0:0:0:
448,192,187441,1,0,0:0:0:0:
64,192,187558,1,0,0:0:0:0:
192,192,187675,1,0,0:0:0:0:
448,192,187675,128,0,187909:0:0:0:0:
320,192,187909,1,0,0:0:0:0:
64,192,187909,1,0,0:0:0:0:
192,192,188144,1,0,0:0:0:0:
320,192,188261,1,0,0:0:0:0:
64,192,188378,128,0,188612:0:0:0:0:
448,192,188378,1,0,0:0:0:0:
448,192,188612,1,0,0:0:0:0:
192,192,188612,1,0,0:0:0:0:
320,192,188612,128,0,188847:0:0:0:0:
448,192,188847,1,0,0:0:0:0:
64,192,188847,1,0,0:0:0:0:
192,192,188964,1,0,0:0:0:0:
320,192,189081,1,0,0:0:0:0:
192,192,189198,1,0,0:0:0:0:
64,192,189316,1,0,0:0:0:0:
320,192,189316,1,0,0:0:0:0:
448,192,189316,1,0,0:0:0:0:
192,192,189433,1,0,0:0:0:0:
448,192,189550,128,0,189784:0:0:0:0:
192,192,189784,1,0,0:0:0:0:
320,192,189784,1,0,0:0:0:0:
64,192,189784,128,0,190019:0:0:0:0:
320,192,190019,1,0,0:0:0:0:
448,192,190019,1,0,0:0:0:0:
192,192,190253,1,0,0:0:0:0:
64,192,190253,1,0,0:0:0:0:
320,192,190370,1,0,0:0:0:0:
448,192,190487,1,0,0:0:0:0:
192,192,190605,1,0,0:0:0:0:
64,192,190605,1,0,0:0:0:0:
448,192,190722,1,0,0:0:0:0:
320,192,190722,1,0,0:0:0:0:
64,192,190839,1,0,0:0:0:0:
448,192,190956,1,0,0:0:0:0:
320,192,191073,1,0,0:0:0:0:
64,192,191191,1,0,0:0:0:0:
192,192,191191,128,0,191425:0:0:0:0:
448,192,191425,1,0,0:0:0:0:
320,192,191425,1,0,0:0:0:0:
64,192,191425,1,0,0:0:0:0:
320,192,191542,1,0,0:0:0:0:
448,192,191542,1,0,0:0:0:0:
64,192,191542,1,0,0:0:0:0:
192,192,191776,1,0,0:0:0:0:
64,192,191776,1,0,0:0:0:0:
448,192,191776,1,0,0:0:0:0:
192,192,191894,1,0,0:0:0:0:
64,192,191894,1,0,0:0:0:0:
448,192,191894,1,0,0:0:0:0:
192,192,192128,1,0,0:0:0:0:
448,192,192128,1,0,0:0:0:0:
320,192,192128,1,0,0:0:0:0:
448,192,192245,1,0,0:0:0:0:
320,192,192245,1,0,0:0:0:0:
192,192,192245,1,0,0:0:0:0:
64,192,192480,128,0,192714:0:0:0:0:
448,192,192597,1,0,0:0:0:0:
320,192,192597,1,0,0:0:0:0:
192,192,192714,1,0,0:0:0:0:
320,192,192831,1,0,0:0:0:0:
448,192,192948,1,0,0:0:0:0:
64,192,193066,128,0,193300:0:0:0:0:
192,192,193066,1,0,0:0:0:0:
320,192,193300,1,0,0:0:0:0:
448,192,193417,1,0,0:0:0:0:
192,192,193534,1,0,0:0:0:0:
64,192,193534,1,0,0:0:0:0:
320,192,193651,1,0,0:0:0:0:
192,192,193769,1,0,0:0:0:0:
320,192,193886,1,0,0:0:0:0:
448,192,194003,1,0,0:0:0:0:
64,192,194003,1,0,0:0:0:0:
192,192,194120,1,0,0:0:0:0:
320,192,194237,1,0,0:0:0:0:
192,192,194355,1,0,0:0:0:0:
64,192,194472,1,0,0:0:0:0:
448,192,194472,1,0,0:0:0:0:
320,192,194589,1,0,0:0:0:0:
64,192,194706,1,0,0:0:0:0:
192,192,194823,1,0,0:0:0:0:
64,192,194941,1,0,0:0:0:0:
448,192,194941,128,0,195175:0:0:0:0:
320,192,194941,1,0,0:0:0:0:
64,192,195175,1,0,0:0:0:0:
192,192,195175,1,0,0:0:0:0:
320,192,195175,1,0,0:0:0:0:
64,192,195292,1,0,0:0:0:0:
192,192,195292,1,0,0:0:0:0:
320,192,195292,1,0,0:0:0:0:
320,192,195526,1,0,0:0:0:0:
448,192,195526,1,0,0:0:0:0:
64,192,195526,1,0,0:0:0:0:
320,192,195644,1,0,0:0:0:0:
448,192,195644,1,0,0:0:0:0:
64,192,195644,1,0,0:0:0:0:
192,192,195878,1,0,0:0:0:0:
448,192,195878,1,0,0:0:0:0:
64,192,195878,1,0,0:0:0:0:
192,192,195995,1,0,0:0:0:0:
448,192,195995,1,0,0:0:0:0:
64,192,195995,1,0,0:0:0:0:
448,192,196230,1,0,0:0:0:0:
320,192,196230,1,0,0:0:0:0:
192,192,196230,1,0,0:0:0:0:
448,192,196347,1,0,0:0:0:0:
192,192,196347,1,0,0:0:0:0:
320,192,196347,1,0,0:0:0:0:
64,192,196464,1,0,0:0:0:0:
320,192,196581,1,0,0:0:0:0:
192,192,196698,1,0,0:0:0:0:
64,192,196816,5,0,0:0:0:0:
448,192,196816,1,0,0:0:0:0:
192,192,196933,1,0,0:0:0:0:
320,192,197050,1,0,0:0:0:0:
192,192,197167,1,0,0:0:0:0:
448,192,197284,128,0,197519:0:0:0:0:
64,192,197284,1,0,0:0:0:0:
320,192,197519,5,0,0:0:0:0:
192,192,197636,1,0,0:0:0:0:
64,192,197753,1,0,0:0:0:0:
448,192,197753,1,0,0:0:0:0:
192,192,197870,1,0,0:0:0:0:
448,192,197987,128,0,198222:0:0:0:0:
320,192,197987,1,0,0:0:0:0:
64,192,198222,1,0,0:0:0:0:
320,192,198222,1,0,0:0:0:0:
192,192,198222,128,0,198456:0:0:0:0:
448,192,198456,1,0,0:0:0:0:
320,192,198573,1,0,0:0:0:0:
192,192,198691,128,0,199042:0:0:0:0:
64,192,198691,128,0,198749:0:0:0:0:
448,192,198691,128,0,198749:0:0:0:0:
64,192,198837,128,0,198886:0:0:0:0:
320,192,198837,128,0,198886:0:0:0:0:
448,192,198837,128,0,198886:0:0:0:0:
320,192,198983,128,0,199042:0:0:0:0:
448,192,198983,128,0,199042:0:0:0:0:
64,192,198983,128,0,199042:0:0:0:0:
320,192,199159,128,0,199511:0:0:0:0:
64,192,199159,128,0,199218:0:0:0:0:
448,192,199159,128,0,199218:0:0:0:0:
192,192,199306,128,0,199355:0:0:0:0:
64,192,199306,128,0,199355:0:0:0:0:
448,192,199306,128,0,199355:0:0:0:0:
64,192,199452,128,0,199511:0:0:0:0:
192,192,199452,128,0,199511:0:0:0:0:
448,192,199452,128,0,199511:0:0:0:0:
64,192,199628,1,0,0:0:0:0:
320,192,199628,1,0,0:0:0:0:
448,192,199628,1,0,0:0:0:0:
192,192,199745,1,0,0:0:0:0:
320,192,199862,1,0,0:0:0:0:
192,192,199980,1,0,0:0:0:0:
64,192,200097,1,0,0:0:0:0:
448,192,200097,1,0,0:0:0:0:
320,192,200214,1,0,0:0:0:0:
192,192,200331,1,0,0:0:0:0:
448,192,200448,1,0,0:0:0:0:
192,192,200566,1,0,0:0:0:0:
320,192,200566,1,0,0:0:0:0:
64,192,200566,128,0,200800:0:0:0:0:
448,192,200800,1,0,0:0:0:0:
320,192,200800,1,0,0:0:0:0:
320,192,200917,128,0,201151:0:0:0:0:
64,192,201034,1,0,0:0:0:0:
448,192,201034,1,0,0:0:0:0:
192,192,201151,1,0,0:0:0:0:
320,192,201269,1,0,0:0:0:0:
448,192,201386,1,0,0:0:0:0:
64,192,201386,128,0,201620:0:0:0:0:
192,192,201503,1,0,0:0:0:0:
320,192,201620,1,0,0:0:0:0:
448,192,201620,1,0,0:0:0:0:
64,192,201737,1,0,0:0:0:0:
320,192,201855,1,0,0:0:0:0:
448,192,201855,128,0,202089:0:0:0:0:
192,192,201972,1,0,0:0:0:0:
64,192,201972,1,0,0:0:0:0:
320,192,202089,1,0,0:0:0:0:
64,192,202206,1,0,0:0:0:0:
192,192,202323,1,0,0:0:0:0:
448,192,202441,1,0,0:0:0:0:
64,192,202441,1,0,0:0:0:0:
320,192,202558,1,0,0:0:0:0:
192,192,202675,1,0,0:0:0:0:
64,192,202792,1,0,0:0:0:0:
448,192,202909,1,0,0:0:0:0:
320,192,202909,1,0,0:0:0:0:
192,192,203026,1,0,0:0:0:0:
64,192,203026,1,0,0:0:0:0:
448,192,203144,1,0,0:0:0:0:
320,192,203144,1,0,0:0:0:0:
192,192,203261,1,0,0:0:0:0:
64,192,203261,1,0,0:0:0:0:
448,192,203378,128,0,203730:0:0:0:0:
320,192,203378,128,0,203495:0:0:0:0:
192,192,203495,128,0,203612:0:0:0:0:
64,192,203612,128,0,203730:0:0:0:0:
320,192,203730,128,0,203847:0:0:0:0:
64,192,203847,128,0,204198:0:0:0:0:
192,192,203847,128,0,203964:0:0:0:0:
448,192,203964,128,0,204081:0:0:0:0:
320,192,204081,128,0,204198:0:0:0:0:
192,192,204198,128,0,204316:0:0:0:0:
320,192,204316,1,0,0:0:0:0:
448,192,204316,128,0,204550:0:0:0:0:
64,192,204316,1,0,0:0:0:0:
192,192,204550,1,0,0:0:0:0:
64,192,204550,1,0,0:0:0:0:
192,192,204667,128,0,204784:0:0:0:0:
64,192,204784,1,0,0:0:0:0:
448,192,204784,1,0,0:0:0:0:
320,192,204901,128,0,205019:0:0:0:0:
192,192,204901,1,0,0:0:0:0:
64,192,205136,1,0,0:0:0:0:
192,192,205136,1,0,0:0:0:0:
64,192,205253,128,0,205487:0:0:0:0:
448,192,205253,1,0,0:0:0:0:
320,192,205253,1,0,0:0:0:0:
320,192,205487,128,0,205722:0:0:0:0:
192,192,205487,1,0,0:0:0:0:
64,192,205722,1,0,0:0:0:0:
192,192,205722,128,0,205956:0:0:0:0:
448,192,205722,1,0,0:0:0:0:
448,192,205956,1,0,0:0:0:0:
320,192,205956,128,0,206191:0:0:0:0:
192,192,206191,128,0,206425:0:0:0:0:
64,192,206191,1,0,0:0:0:0:
448,192,206191,1,0,0:0:0:0:
64,192,206425,1,0,0:0:0:0:
320,192,206425,1,0,0:0:0:0:
320,192,206542,1,0,0:0:0:0:
448,192,206542,128,0,206894:0:0:0:0:
192,192,206659,1,0,0:0:0:0:
64,192,206659,1,0,0:0:0:0:
64,192,206894,128,0,207011:0:0:0:0:
192,192,206894,128,0,207011:0:0:0:0:
192,192,207128,128,0,207597:0:0:0:0:
64,192,207128,128,0,207245:0:0:0:0:
448,192,207128,1,0,0:0:0:0:
320,192,207362,1,0,0:0:0:0:
64,192,207597,1,0,0:0:0:0:
448,192,207597,1,0,0:0:0:0:
64,192,207714,1,0,0:0:0:0:
192,192,207714,1,0,0:0:0:0:
320,192,207831,128,0,208183:0:0:0:0:
448,192,207831,128,0,207948:0:0:0:0:
192,192,208066,1,0,0:0:0:0:
64,192,208066,128,0,208183:0:0:0:0:
448,192,208066,128,0,208534:0:0:0:0:
320,192,208300,1,0,0:0:0:0:
192,192,208300,1,0,0:0:0:0:
320,192,208534,1,0,0:0:0:0:
64,192,208534,1,0,0:0:0:0:
320,192,208651,1,0,0:0:0:0:
448,192,208651,1,0,0:0:0:0:
192,192,208769,128,0,209120:0:0:0:0:
64,192,208769,128,0,208886:0:0:0:0:
64,192,209003,128,0,209237:0:0:0:0:
320,192,209003,1,0,0:0:0:0:
448,192,209003,128,0,209120:0:0:0:0:
320,192,209237,1,0,0:0:0:0:
192,192,209237,1,0,0:0:0:0:
192,192,209355,1,0,0:0:0:0:
320,192,209355,1,0,0:0:0:0:
64,192,209472,1,0,0:0:0:0:
448,192,209472,1,0,0:0:0:0:
192,192,209706,1,0,0:0:0:0:
448,192,209706,1,0,0:0:0:0:
64,192,209706,1,0,0:0:0:0:
448,192,209941,1,0,0:0:0:0:
64,192,209941,128,0,210058:0:0:0:0:
320,192,209970,1,0,0:0:0:0:
64,192,210175,1,0,0:0:0:0:
192,192,210175,128,0,210292:0:0:0:0:
320,192,210204,1,0,0:0:0:0:
64,192,210409,1,0,0:0:0:0:
448,192,210409,128,0,210526:0:0:0:0:
192,192,210439,1,0,0:0:0:0:
448,192,210644,1,0,0:0:0:0:
320,192,210644,128,0,210761:0:0:0:0:
192,192,210673,1,0,0:0:0:0:
448,192,210878,128,0,211112:0:0:0:0:
192,192,210878,1,0,0:0:0:0:
64,192,210878,128,0,211230:0:0:0:0:
320,192,211112,1,0,0:0:0:0:
192,192,211230,1,0,0:0:0:0:
320,192,211288,1,0,0:0:0:0:
448,192,211347,1,0,0:0:0:0:
64,192,211347,1,0,0:0:0:0:
192,192,211581,128,0,211698:0:0:0:0:
320,192,211581,128,0,211698:0:0:0:0:
64,192,211816,1,0,0:0:0:0:
448,192,211816,128,0,212050:0:0:0:0:
320,192,211816,1,0,0:0:0:0:
192,192,212050,1,0,0:0:0:0:
64,192,212050,1,0,0:0:0:0:
64,192,212167,128,0,212284:0:0:0:0:
320,192,212284,1,0,0:0:0:0:
448,192,212284,1,0,0:0:0:0:
64,192,212401,1,0,0:0:0:0:
192,192,212401,128,0,212519:0:0:0:0:
448,192,212401,1,0,0:0:0:0:
192,192,212636,1,0,0:0:0:0:
320,192,212636,1,0,0:0:0:0:
448,192,212753,1,0,0:0:0:0:
64,192,212753,1,0,0:0:0:0:
320,192,212753,128,0,212987:0:0:0:0:
64,192,212987,128,0,213222:0:0:0:0:
192,192,212987,1,0,0:0:0:0:
192,192,213222,1,0,0:0:0:0:
448,192,213222,128,0,213456:0:0:0:0:
320,192,213222,1,0,0:0:0:0:
64,192,213456,1,0,0:0:0:0:
320,192,213456,1,0,0:0:0:0:
192,192,213456,128,0,213691:0:0:0:0:
448,192,213691,1,0,0:0:0:0:
64,192,213691,1,0,0:0:0:0:
320,192,213691,128,0,213925:0:0:0:0:
192,192,213925,1,0,0:0:0:0:
64,192,213925,1,0,0:0:0:0:
64,192,214042,1,0,0:0:0:0:
192,192,214042,1,0,0:0:0:0:
448,192,214159,1,0,0:0:0:0:
320,192,214159,1,0,0:0:0:0:
192,192,214276,128,0,214394:0:0:0:0:
64,192,214276,128,0,214394:0:0:0:0:
192,192,214511,128,0,214628:0:0:0:0:
64,192,214511,128,0,214628:0:0:0:0:
448,192,214628,128,0,215566:0:0:0:0:
320,192,214628,1,0,0:0:0:0:
64,192,214745,1,0,0:0:0:0:
320,192,214862,1,0,0:0:0:0:
192,192,214980,1,0,0:0:0:0:
320,192,215097,1,0,0:0:0:0:
64,192,215097,1,0,0:0:0:0:
192,192,215214,1,0,0:0:0:0:
64,192,215331,1,0,0:0:0:0:
320,192,215448,1,0,0:0:0:0:
64,192,215566,128,0,216503:0:0:0:0:
192,192,215566,128,0,215800:0:0:0:0:
448,192,215800,1,0,0:0:0:0:
320,192,215917,1,0,0:0:0:0:
192,192,216034,1,0,0:0:0:0:
448,192,216034,1,0,0:0:0:0:
320,192,216151,128,0,216386:0:0:0:0:
192,192,216386,1,0,0:0:0:0:
448,192,216503,128,0,217441:0:0:0:0:
320,192,216503,1,0,0:0:0:0:
192,192,216620,1,0,0:0:0:0:
192,192,216855,1,0,0:0:0:0:
64,192,216972,1,0,0:0:0:0:
320,192,216972,1,0,0:0:0:0:
192,192,217089,1,0,0:0:0:0:
64,192,217206,1,0,0:0:0:0:
320,192,217323,1,0,0:0:0:0:
64,192,217441,128,0,217675:0:0:0:0:
192,192,217441,128,0,218378:0:0:0:0:
448,192,217675,1,0,0:0:0:0:
320,192,217792,1,0,0:0:0:0:
64,192,217909,1,0,0:0:0:0:
448,192,217909,1,0,0:0:0:0:
320,192,218026,128,0,218261:0:0:0:0:
448,192,218261,1,0,0:0:0:0:
64,192,218378,1,0,0:0:0:0:
320,192,218378,128,0,219316:0:0:0:0:
192,192,218495,1,0,0:0:0:0:
448,192,218612,1,0,0:0:0:0:
64,192,218730,1,0,0:0:0:0:
192,192,218847,128,0,218964:0:0:0:0:
448,192,218847,1,0,0:0:0:0:
64,192,218964,128,0,219081:0:0:0:0:
448,192,219081,128,0,219198:0:0:0:0:
192,192,219198,128,0,219316:0:0:0:0:
64,192,219316,1,0,0:0:0:0:
448,192,219316,128,0,219550:0:0:0:0:
64,192,219550,1,0,0:0:0:0:
192,192,219550,1,0,0:0:0:0:
64,192,219667,128,0,219784:0:0:0:0:
192,192,219667,128,0,219784:0:0:0:0:
320,192,219784,1,0,0:0:0:0:
448,192,219784,1,0,0:0:0:0:
192,192,219901,128,0,220136:0:0:0:0:
64,192,219901,128,0,220019:0:0:0:0:
320,192,220019,1,0,0:0:0:0:
64,192,220136,1,0,0:0:0:0:
448,192,220136,1,0,0:0:0:0:
320,192,220253,128,0,220487:0:0:0:0:
448,192,220253,1,0,0:0:0:0:
192,192,220253,1,0,0:0:0:0:
64,192,220487,128,0,220722:0:0:0:0:
192,192,220487,1,0,0:0:0:0:
448,192,220722,128,0,220839:0:0:0:0:
192,192,220722,1,0,0:0:0:0:
320,192,220722,1,0,0:0:0:0:
64,192,220956,1,0,0:0:0:0:
448,192,220956,128,0,221191:0:0:0:0:
192,192,221191,128,0,221425:0:0:0:0:
64,192,221191,1,0,0:0:0:0:
320,192,221191,1,0,0:0:0:0:
64,192,221425,1,0,0:0:0:0:
448,192,221425,1,0,0:0:0:0:
64,192,221542,128,0,221659:0:0:0:0:
448,192,221542,128,0,221894:0:0:0:0:
320,192,221659,1,0,0:0:0:0:
192,192,221659,1,0,0:0:0:0:
192,192,221894,128,0,222245:0:0:0:0:
64,192,221894,128,0,222128:0:0:0:0:
448,192,222128,128,0,222597:0:0:0:0:
320,192,222128,128,0,222362:0:0:0:0:
192,192,222362,1,0,0:0:0:0:
320,192,222597,1,0,0:0:0:0:
64,192,222597,1,0,0:0:0:0:
320,192,222714,1,0,0:0:0:0:
192,192,222714,1,0,0:0:0:0:
448,192,222831,128,0,223183:0:0:0:0:
64,192,222831,128,0,222948:0:0:0:0:
320,192,223066,1,0,0:0:0:0:
192,192,223066,128,0,223300:0:0:0:0:
64,192,223066,128,0,223534:0:0:0:0:
320,192,223300,1,0,0:0:0:0:
192,192,223534,1,0,0:0:0:0:
448,192,223534,1,0,0:0:0:0:
320,192,223651,1,0,0:0:0:0:
192,192,223651,1,0,0:0:0:0:
448,192,223769,128,0,223886:0:0:0:0:
64,192,223769,128,0,224120:0:0:0:0:
448,192,224003,128,0,224237:0:0:0:0:
320,192,224003,128,0,224237:0:0:0:0:
192,192,224003,1,0,0:0:0:0:
64,192,224237,1,0,0:0:0:0:
192,192,224237,1,0,0:0:0:0:
64,192,224355,1,0,0:0:0:0:
192,192,224355,1,0,0:0:0:0:
320,192,224472,1,0,0:0:0:0:
448,192,224472,1,0,0:0:0:0:
192,192,224706,1,0,0:0:0:0:
320,192,224706,128,0,224941:0:0:0:0:
64,192,224941,128,0,225058:0:0:0:0:
448,192,224941,128,0,225058:0:0:0:0:
192,192,224970,1,0,0:0:0:0:
64,192,225175,1,0,0:0:0:0:
448,192,225175,128,0,225292:0:0:0:0:
320,192,225175,128,0,225292:0:0:0:0:
192,192,225204,1,0,0:0:0:0:
192,192,225409,1,0,0:0:0:0:
64,192,225409,128,0,225526:0:0:0:0:
448,192,225409,128,0,225526:0:0:0:0:
320,192,225439,1,0,0:0:0:0:
448,192,225644,1,0,0:0:0:0:
64,192,225644,128,0,225761:0:0:0:0:
192,192,225644,128,0,225761:0:0:0:0:
320,192,225673,1,0,0:0:0:0:
320,192,225878,1,0,0:0:0:0:
64,192,225878,128,0,226230:0:0:0:0:
448,192,225878,128,0,226112:0:0:0:0:
192,192,226112,1,0,0:0:0:0:
320,192,226230,1,0,0:0:0:0:
192,192,226288,1,0,0:0:0:0:
448,192,226347,1,0,0:0:0:0:
64,192,226347,1,0,0:0:0:0:
320,192,226581,128,0,226698:0:0:0:0:
192,192,226581,128,0,226698:0:0:0:0:
320,192,226816,128,0,227050:0:0:0:0:
64,192,226816,1,0,0:0:0:0:
448,192,226816,128,0,229628:0:0:0:0:
64,192,227050,1,0,0:0:0:0:
192,192,227050,1,0,0:0:0:0:
192,192,227167,128,0,227284:0:0:0:0:
320,192,227284,1,0,0:0:0:0:
64,192,227284,1,0,0:0:0:0:
192,192,227401,128,0,227636:0:0:0:0:
64,192,227519,1,0,0:0:0:0:
320,192,227636,1,0,0:0:0:0:
64,192,227753,128,0,227987:0:0:0:0:
192,192,227753,1,0,0:0:0:0:
320,192,227987,128,0,228222:0:0:0:0:
64,192,228222,1,0,0:0:0:0:
192,192,228222,128,0,228339:0:0:0:0:
192,192,228456,128,0,228691:0:0:0:0:
320,192,228456,1,0,0:0:0:0:
64,192,228691,1,0,0:0:0:0:
320,192,228691,128,0,228925:0:0:0:0:
192,192,228925,1,0,0:0:0:0:
64,192,228925,1,0,0:0:0:0:
192,192,229042,128,0,229159:0:0:0:0:
64,192,229042,128,0,229159:0:0:0:0:
320,192,229159,1,0,0:0:0:0:
192,192,229276,128,0,229394:0:0:0:0:
64,192,229394,1,0,0:0:0:0:
192,192,229511,128,0,229628:0:0:0:0:
64,192,229628,128,0,230566:0:0:0:0:
320,192,229628,1,0,0:0:0:0:
192,192,229745,1,0,0:0:0:0:
320,192,229862,1,0,0:0:0:0:
448,192,229980,1,0,0:0:0:0:
192,192,230097,1,0,0:0:0:0:
320,192,230097,1,0,0:0:0:0:
448,192,230214,1,0,0:0:0:0:
320,192,230331,1,0,0:0:0:0:
192,192,230448,1,0,0:0:0:0:
448,192,230566,128,0,231503:0:0:0:0:
320,192,230566,128,0,230800:0:0:0:0:
192,192,230800,1,0,0:0:0:0:
64,192,230800,1,0,0:0:0:0:
64,192,230917,128,0,231034:0:0:0:0:
320,192,231034,1,0,0:0:0:0:
192,192,231034,1,0,0:0:0:0:
64,192,231151,128,0,231386:0:0:0:0:
192,192,231269,1,0,0:0:0:0:
320,192,231386,1,0,0:0:0:0:
192,192,231503,128,0,232441:0:0:0:0:
64,192,231503,1,0,0:0:0:0:
320,192,231620,128,0,231737:0:0:0:0:
64,192,231737,1,0,0:0:0:0:
320,192,231855,128,0,231972:0:0:0:0:
64,192,231972,1,0,0:0:0:0:
448,192,231972,1,0,0:0:0:0:
320,192,232089,1,0,0:0:0:0:
448,192,232206,1,0,0:0:0:0:
64,192,232323,1,0,0:0:0:0:
320,192,232441,128,0,232675:0:0:0:0:
448,192,232441,128,0,233378:0:0:0:0:
192,192,232675,1,0,0:0:0:0:
64,192,232675,1,0,0:0:0:0:
192,192,232792,128,0,232909:0:0:0:0:
320,192,232909,1,0,0:0:0:0:
64,192,232909,1,0,0:0:0:0:
192,192,233026,128,0,233261:0:0:0:0:
320,192,233144,1,0,0:0:0:0:
64,192,233261,1,0,0:0:0:0:
320,192,233378,128,0,234316:0:0:0:0:
64,192,233378,128,0,233612:0:0:0:0:
192,192,233612,1,0,0:0:0:0:
448,192,233730,1,0,0:0:0:0:
64,192,233847,1,0,0:0:0:0:
192,192,233847,1,0,0:0:0:0:
64,192,234081,128,0,234198:0:0:0:0:
448,192,234081,128,0,234198:0:0:0:0:
192,192,234316,128,0,234433:0:0:0:0:
448,192,234316,128,0,234433:0:0:0:0:
64,192,234316,128,0,237597:0:0:0:0:
448,192,234550,1,0,0:0:0:0:
192,192,234550,1,0,0:0:0:0:
320,192,234784,128,0,235019:0:0:0:0:
448,192,234784,1,0,0:0:0:0:
192,192,235019,1,0,0:0:0:0:
320,192,235136,1,0,0:0:0:0:
448,192,235253,1,0,0:0:0:0:
192,192,235253,1,0,0:0:0:0:
192,192,235487,1,0,0:0:0:0:
448,192,235487,1,0,0:0:0:0:
320,192,235722,1,0,0:0:0:0:
448,192,235722,1,0,0:0:0:0:
192,192,235839,1,0,0:0:0:0:
320,192,235956,1,0,0:0:0:0:
448,192,236073,1,0,0:0:0:0:
192,192,236191,1,0,0:0:0:0:
320,192,236191,1,0,0:0:0:0:
192,192,236425,1,0,0:0:0:0:
320,192,236425,1,0,0:0:0:0:
192,192,236659,1,0,0:0:0:0:
448,192,236659,1,0,0:0:0:0:
320,192,236776,1,0,0:0:0:0:
448,192,236894,1,0,0:0:0:0:
192,192,237011,1,0,0:0:0:0:
448,192,237128,1,0,0:0:0:0:
320,192,237128,1,0,0:0:0:0:
448,192,237362,1,0,0:0:0:0:
320,192,237362,1,0,0:0:0:0:
192,192,237597,1,0,0:0:0:0:
448,192,237597,128,0,237948:0:0:0:0:
320,192,237714,1,0,0:0:0:0:
64,192,237831,1,0,0:0:0:0:
448,192,238066,128,0,241816:0:0:0:0:
320,192,238066,1,0,0:0:0:0:
192,192,238066,1,0,0:0:0:0:
320,192,238300,1,0,0:0:0:0:
192,192,238300,1,0,0:0:0:0:
320,192,238534,1,0,0:0:0:0:
64,192,238534,128,0,238769:0:0:0:0:
192,192,238769,1,0,0:0:0:0:
320,192,238886,1,0,0:0:0:0:
192,192,239003,1,0,0:0:0:0:
64,192,239003,1,0,0:0:0:0:
64,192,239237,1,0,0:0:0:0:
192,192,239237,1,0,0:0:0:0:
64,192,239472,1,0,0:0:0:0:
320,192,239472,1,0,0:0:0:0:
192,192,239589,1,0,0:0:0:0:
320,192,239706,1,0,0:0:0:0:
192,192,239823,1,0,0:0:0:0:
320,192,239941,1,0,0:0:0:0:
64,192,239941,1,0,0:0:0:0:
64,192,240175,1,0,0:0:0:0:
320,192,240175,1,0,0:0:0:0:
64,192,240409,1,0,0:0:0:0:
192,192,240409,1,0,0:0:0:0:
320,192,240526,1,0,0:0:0:0:
192,192,240644,1,0,0:0:0:0:
320,192,240761,1,0,0:0:0:0:
64,192,240878,1,0,0:0:0:0:
192,192,240995,1,0,0:0:0:0:
320,192,241112,1,0,0:0:0:0:
64,192,241230,128,0,241464:0:0:0:0:
192,192,241347,1,0,0:0:0:0:
320,192,241464,1,0,0:0:0:0:
192,192,241581,1,0,0:0:0:0:
64,192,241581,1,0,0:0:0:0:
64,192,241816,1,0,0:0:0:0:
320,192,241816,1,0,0:0:0:0:
192,192,241816,128,0,242050:0:0:0:0:
320,192,242050,1,0,0:0:0:0:
64,192,242050,1,0,0:0:0:0:
192,192,242284,1,0,0:0:0:0:
64,192,242284,1,0,0:0:0:0:
448,192,242284,128,0,242636:0:0:0:0:
320,192,242519,1,0,0:0:0:0:
192,192,242636,1,0,0:0:0:0:
448,192,242753,1,0,0:0:0:0:
64,192,242753,128,0,242987:0:0:0:0:
320,192,242753,1,0,0:0:0:0:
448,192,242987,1,0,0:0:0:0:
320,192,242987,1,0,0:0:0:0:
192,192,243222,1,0,0:0:0:0:
64,192,243222,1,0,0:0:0:0:
448,192,243222,1,0,0:0:0:0:
320,192,243339,1,0,0:0:0:0:
64,192,243456,1,0,0:0:0:0:
320,192,243573,1,0,0:0:0:0:
64,192,243691,1,0,0:0:0:0:
192,192,243691,1,0,0:0:0:0:
448,192,243691,128,0,243925:0:0:0:0:
192,192,243925,1,0,0:0:0:0:
64,192,243925,1,0,0:0:0:0:
448,192,244159,1,0,0:0:0:0:
320,192,244159,1,0,0:0:0:0:
192,192,244159,1,0,0:0:0:0:
64,192,244276,1,0,0:0:0:0:
320,192,244394,1,0,0:0:0:0:
192,192,244511,1,0,0:0:0:0:
448,192,244628,1,0,0:0:0:0:
64,192,244628,1,0,0:0:0:0:
320,192,244628,128,0,244862:0:0:0:0:
64,192,244862,1,0,0:0:0:0:
448,192,244862,1,0,0:0:0:0:
192,192,245097,1,0,0:0:0:0:
320,192,245097,1,0,0:0:0:0:
64,192,245097,1,0,0:0:0:0:
448,192,245214,1,0,0:0:0:0:
320,192,245331,1,0,0:0:0:0:
192,192,245331,1,0,0:0:0:0:
448,192,245566,1,0,0:0:0:0:
192,192,245566,1,0,0:0:0:0:
64,192,245566,128,0,245800:0:0:0:0:
192,192,245800,1,0,0:0:0:0:
448,192,245800,1,0,0:0:0:0:
320,192,246034,128,0,246386:0:0:0:0:
64,192,246034,1,0,0:0:0:0:
448,192,246034,1,0,0:0:0:0:
192,192,246269,1,0,0:0:0:0:
64,192,246386,1,0,0:0:0:0:
320,192,246503,1,0,0:0:0:0:
448,192,246503,1,0,0:0:0:0:
192,192,246503,128,0,246737:0:0:0:0:
320,192,246737,1,0,0:0:0:0:
448,192,246737,1,0,0:0:0:0:
192,192,246972,1,0,0:0:0:0:
448,192,246972,1,0,0:0:0:0:
64,192,246972,1,0,0:0:0:0:
320,192,247089,1,0,0:0:0:0:
64,192,247206,1,0,0:0:0:0:
192,192,247323,1,0,0:0:0:0:
64,192,247441,1,0,0:0:0:0:
448,192,247441,1,0,0:0:0:0:
320,192,247441,128,0,247675:0:0:0:0:
448,192,247675,1,0,0:0:0:0:
64,192,247675,1,0,0:0:0:0:
320,192,247909,1,0,0:0:0:0:
192,192,247909,1,0,0:0:0:0:
448,192,247909,1,0,0:0:0:0:
64,192,248026,1,0,0:0:0:0:
448,192,248026,1,0,0:0:0:0:
192,192,248144,1,0,0:0:0:0:
192,192,248261,1,0,0:0:0:0:
448,192,248378,1,0,0:0:0:0:
320,192,248378,1,0,0:0:0:0:
64,192,248495,1,0,0:0:0:0:
448,192,248495,1,0,0:0:0:0:
320,192,248612,1,0,0:0:0:0:
192,192,248612,1,0,0:0:0:0:
192,192,248730,1,0,0:0:0:0:
64,192,248730,1,0,0:0:0:0:
320,192,248847,1,0,0:0:0:0:
448,192,248847,1,0,0:0:0:0:
192,192,248964,1,0,0:0:0:0:
64,192,248964,1,0,0:0:0:0:
192,192,249081,1,0,0:0:0:0:
320,192,249081,1,0,0:0:0:0:
192,192,249316,5,0,0:0:0:0:
448,192,249316,1,0,0:0:0:0:
64,192,249316,1,0,0:0:0:0:
448,192,249550,1,0,0:0:0:0:
192,192,249550,1,0,0:0:0:0:
64,192,249550,1,0,0:0:0:0:
448,192,249784,1,0,0:0:0:0:
320,192,249784,128,0,250136:0:0:0:0:
64,192,250019,1,0,0:0:0:0:
192,192,250136,1,0,0:0:0:0:
320,192,250253,1,0,0:0:0:0:
448,192,250253,1,0,0:0:0:0:
64,192,250253,1,0,0:0:0:0:
64,192,250487,1,0,0:0:0:0:
320,192,250487,1,0,0:0:0:0:
448,192,250487,1,0,0:0:0:0:
192,192,250722,1,0,0:0:0:0:
320,192,250722,1,0,0:0:0:0:
448,192,250839,1,0,0:0:0:0:
64,192,250956,1,0,0:0:0:0:
320,192,251073,1,0,0:0:0:0:
192,192,251191,1,0,0:0:0:0:
64,192,251191,1,0,0:0:0:0:
448,192,251191,1,0,0:0:0:0:
448,192,251425,1,0,0:0:0:0:
192,192,251425,1,0,0:0:0:0:
64,192,251425,1,0,0:0:0:0:
192,192,251659,1,0,0:0:0:0:
320,192,251659,1,0,0:0:0:0:
448,192,251776,1,0,0:0:0:0:
64,192,251894,1,0,0:0:0:0:
192,192,252011,1,0,0:0:0:0:
448,192,252128,1,0,0:0:0:0:
320,192,252128,1,0,0:0:0:0:
64,192,252128,1,0,0:0:0:0:
64,192,252362,1,0,0:0:0:0:
448,192,252362,1,0,0:0:0:0:
320,192,252362,1,0,0:0:0:0:
192,192,252597,1,0,0:0:0:0:
320,192,252597,1,0,0:0:0:0:
448,192,252714,1,0,0:0:0:0:
192,192,252831,1,0,0:0:0:0:
64,192,252831,1,0,0:0:0:0:
448,192,253066,1,0,0:0:0:0:
64,192,253066,1,0,0:0:0:0:
320,192,253066,1,0,0:0:0:0:
320,192,253300,1,0,0:0:0:0:
64,192,253300,1,0,0:0:0:0:
448,192,253300,1,0,0:0:0:0:
192,192,253534,1,0,0:0:0:0:
320,192,253534,128,0,253886:0:0:0:0:
64,192,253769,1,0,0:0:0:0:
192,192,253886,1,0,0:0:0:0:
448,192,254003,1,0,0:0:0:0:
320,192,254003,1,0,0:0:0:0:
64,192,254003,1,0,0:0:0:0:
448,192,254237,1,0,0:0:0:0:
320,192,254237,1,0,0:0:0:0:
64,192,254237,1,0,0:0:0:0:
320,192,254472,1,0,0:0:0:0:
192,192,254472,1,0,0:0:0:0:
64,192,254589,1,0,0:0:0:0:
448,192,254706,1,0,0:0:0:0:
320,192,254823,1,0,0:0:0:0:
192,192,254941,1,0,0:0:0:0:
64,192,254941,1,0,0:0:0:0:
448,192,254941,1,0,0:0:0:0:
448,192,255175,1,0,0:0:0:0:
192,192,255175,1,0,0:0:0:0:
64,192,255175,1,0,0:0:0:0:
192,192,255409,1,0,0:0:0:0:
320,192,255409,1,0,0:0:0:0:
448,192,255526,1,0,0:0:0:0:
64,192,255644,1,0,0:0:0:0:
192,192,255761,1,0,0:0:0:0:
448,192,255878,1,0,0:0:0:0:
320,192,255878,1,0,0:0:0:0:
64,192,255995,1,0,0:0:0:0:
192,192,256112,1,0,0:0:0:0:
320,192,256112,1,0,0:0:0:0:
64,192,256230,1,0,0:0:0:0:
448,192,256230,128,0,256464:0:0:0:0:
192,192,256464,1,0,0:0:0:0:
64,192,256464,1,0,0:0:0:0:
320,192,256581,1,0,0:0:0:0:
448,192,256581,1,0,0:0:0:0:
64,192,256816,1,0,0:0:0:0:
448,192,256816,1,0,0:0:0:0:
192,192,256816,128,0,257050:0:0:0:0:
448,192,257050,1,0,0:0:0:0:
64,192,257050,1,0,0:0:0:0:
192,192,257284,1,0,0:0:0:0:
320,192,257284,128,0,257636:0:0:0:0:
64,192,257519,1,0,0:0:0:0:
448,192,257636,1,0,0:0:0:0:
320,192,257753,1,0,0:0:0:0:
64,192,257753,128,0,257987:0:0:0:0:
192,192,257753,1,0,0:0:0:0:
320,192,257987,1,0,0:0:0:0:
192,192,257987,1,0,0:0:0:0:
448,192,258222,1,0,0:0:0:0:
320,192,258222,1,0,0:0:0:0:
64,192,258339,1,0,0:0:0:0:
192,192,258456,1,0,0:0:0:0:
320,192,258573,1,0,0:0:0:0:
64,192,258691,1,0,0:0:0:0:
448,192,258691,1,0,0:0:0:0:
192,192,258691,128,0,258925:0:0:0:0:
448,192,258925,1,0,0:0:0:0:
64,192,258925,1,0,0:0:0:0:
192,192,259159,1,0,0:0:0:0:
64,192,259159,1,0,0:0:0:0:
448,192,259276,1,0,0:0:0:0:
320,192,259394,1,0,0:0:0:0:
192,192,259511,1,0,0:0:0:0:
448,192,259628,1,0,0:0:0:0:
64,192,259628,1,0,0:0:0:0:
320,192,259628,128,0,259862:0:0:0:0:
64,192,259862,1,0,0:0:0:0:
448,192,259862,1,0,0:0:0:0:
192,192,260097,1,0,0:0:0:0:
320,192,260097,1,0,0:0:0:0:
64,192,260214,1,0,0:0:0:0:
320,192,260331,1,0,0:0:0:0:
448,192,260331,1,0,0:0:0:0:
448,192,260566,1,0,0:0:0:0:
64,192,260566,1,0,0:0:0:0:
192,192,260566,128,0,260800:0:0:0:0:
64,192,260800,1,0,0:0:0:0:
448,192,260800,1,0,0:0:0:0:
192,192,261034,1,0,0:0:0:0:
64,192,261034,128,0,261386:0:0:0:0:
320,192,261269,1,0,0:0:0:0:
192,192,261386,1,0,0:0:0:0:
448,192,261503,1,0,0:0:0:0:
64,192,261503,1,0,0:0:0:0:
320,192,261503,128,0,261737:0:0:0:0:
448,192,261737,1,0,0:0:0:0:
64,192,261737,1,0,0:0:0:0:
192,192,261972,1,0,0:0:0:0:
64,192,261972,1,0,0:0:0:0:
320,192,262089,1,0,0:0:0:0:
448,192,262206,1,0,0:0:0:0:
192,192,262323,1,0,0:0:0:0:
320,192,262441,1,0,0:0:0:0:
448,192,262441,1,0,0:0:0:0:
64,192,262441,128,0,262675:0:0:0:0:
448,192,262675,1,0,0:0:0:0:
320,192,262675,1,0,0:0:0:0:
320,192,262909,1,0,0:0:0:0:
192,192,262909,1,0,0:0:0:0:
448,192,263026,1,0,0:0:0:0:
64,192,263144,1,0,0:0:0:0:
320,192,263261,1,0,0:0:0:0:
448,192,263378,1,0,0:0:0:0:
64,192,263378,1,0,0:0:0:0:
192,192,263495,1,0,0:0:0:0:
320,192,263612,1,0,0:0:0:0:
448,192,263612,1,0,0:0:0:0:
64,192,263730,128,0,263964:0:0:0:0:
192,192,263730,1,0,0:0:0:0:
320,192,263964,1,0,0:0:0:0:
448,192,263964,1,0,0:0:0:0:
64,192,264081,1,0,0:0:0:0:
192,192,264081,1,0,0:0:0:0:
448,192,264316,1,0,0:0:0:0:
320,192,264433,1,0,0:0:0:0:
192,192,264550,1,0,0:0:0:0:
448,192,264667,128,0,264901:0:0:0:0:
320,192,264901,1,0,0:0:0:0:
192,192,265019,1,0,0:0:0:0:
64,192,265253,1,0,0:0:0:0:
192,192,265370,1,0,0:0:0:0:
320,192,265487,1,0,0:0:0:0:
64,192,265605,128,0,265839:0:0:0:0:
192,192,265839,1,0,0:0:0:0:
320,192,265956,1,0,0:0:0:0:
