osu file format v14

[General]
AudioFilename: audio.mp3
AudioLeadIn: 0
PreviewTime: 75352
Countdown: 0
SampleSet: Soft
StackLeniency: 0.7
Mode: 3
LetterboxInBreaks: 0
SpecialStyle: 0
WidescreenStoryboard: 1

[Editor]
DistanceSpacing: 0.8
BeatDivisor: 4
GridSize: 32
TimelineZoom: 1.5

[Metadata]
Title:Timeline
TitleUnicode:Timeline
Artist:Plum
ArtistUnicode:Plum
Creator:TakJun
Version:Medieval | NM
Source:
Tags:7th album musicbox 24/7 side pm new age artcore instrumental classical piano chill FAMoss
BeatmapID:3092460
BeatmapSetID:1510034

[Difficulty]
HPDrainRate:7.5
CircleSize:7
OverallDifficulty:7.5
ApproachRate:5
SliderMultiplier:1.4
SliderTickRate:1

[Events]
//Background and Video events
0,0,"Thumnail.png",0,0
//Break Periods
//Storyboard Layer 0 (Background)
//Storyboard Layer 1 (Fail)
//Storyboard Layer 2 (Pass)
//Storyboard Layer 3 (Foreground)
//Storyboard Layer 4 (Overlay)
//Storyboard Sound Samples

[TimingPoints]
2100,333.333333333333,3,2,1,40,1,0
75766,-100,3,2,1,40,0,1
108099,-100,3,2,1,40,0,0

[HitObjects]
36,192,2099,5,0,0:0:0:70:ticks.wav
109,192,2266,1,0,0:0:0:0:
182,192,2433,1,0,0:0:0:0:
256,192,2599,1,0,0:0:0:0:
329,192,2766,1,0,0:0:0:0:
475,192,2933,1,0,0:0:0:0:
182,192,3099,1,0,0:0:0:70:ticks.wav
402,192,3433,1,0,0:0:0:0:
36,192,4099,1,0,0:0:0:70:ticks.wav
182,192,4266,1,0,0:0:0:0:
256,192,4433,1,0,0:0:0:0:
329,192,4599,1,0,0:0:0:0:
402,192,4766,1,0,0:0:0:0:
475,192,4933,1,0,0:0:0:0:
329,192,5099,1,0,0:0:0:70:ticks.wav
256,192,5433,1,0,0:0:0:0:
475,192,5766,1,0,0:0:0:0:
109,192,6099,1,0,0:0:0:70:ticks.wav
182,192,6433,1,0,0:0:0:0:
256,192,6599,1,0,0:0:0:0:
402,192,6766,1,0,0:0:0:0:
475,192,6933,1,0,0:0:0:0:
109,192,7099,1,0,0:0:0:70:ticks.wav
36,192,7433,1,0,0:0:0:0:
182,192,7599,1,0,0:0:0:0:
329,192,7766,1,0,0:0:0:0:
402,192,7933,1,0,0:0:0:0:
109,192,8099,1,0,0:0:0:70:ticks.wav
256,192,8266,1,0,0:0:0:0:
329,192,8433,1,0,0:0:0:0:
36,192,8599,1,0,0:0:0:0:
329,192,8766,1,0,0:0:0:0:
36,192,8933,1,0,0:0:0:0:
475,192,9099,1,0,0:0:0:70:ticks.wav
402,192,9266,1,0,0:0:0:0:
329,192,9433,1,0,0:0:0:0:
182,192,9599,1,0,0:0:0:0:
109,192,9766,1,0,0:0:0:0:
36,192,9933,1,0,0:0:0:0:
109,192,10099,1,0,0:0:0:70:ticks.wav
256,192,10099,1,0,0:0:0:0:
475,192,10266,1,0,0:0:0:0:
182,192,10433,1,0,0:0:0:0:
329,192,10599,1,0,0:0:0:0:
475,192,10766,1,0,0:0:0:0:
256,192,10933,1,0,0:0:0:0:
109,192,11099,1,0,0:0:0:70:ticks.wav
402,192,11099,1,0,0:0:0:0:
475,192,11433,1,0,0:0:0:0:
182,192,11766,1,0,0:0:0:0:
402,192,12099,1,0,0:0:0:70:ticks.wav
109,192,12099,1,0,0:0:0:0:
182,192,12266,1,0,0:0:0:0:
329,192,12433,1,0,0:0:0:0:
36,192,12599,1,0,0:0:0:0:
256,192,12766,1,0,0:0:0:0:
402,192,12933,1,0,0:0:0:0:
475,192,13099,1,0,0:0:0:70:ticks.wav
182,192,13099,1,0,0:0:0:0:
109,192,13433,1,0,0:0:0:0:
475,192,13766,1,0,0:0:0:0:
109,192,14099,1,0,0:0:0:70:ticks.wav
402,192,14099,1,0,0:0:0:0:
36,192,14433,1,0,0:0:0:0:
109,192,14599,1,0,0:0:0:0:
182,192,14766,1,0,0:0:0:0:
329,192,14933,1,0,0:0:0:0:
475,192,15099,1,0,0:0:0:70:ticks.wav
109,192,15099,1,0,0:0:0:0:
36,192,15433,1,0,0:0:0:0:
109,192,15599,1,0,0:0:0:0:
256,192,15766,1,0,0:0:0:0:
329,192,15933,1,0,0:0:0:0:
475,192,16099,1,0,0:0:0:70:ticks.wav
402,192,16099,1,0,0:0:0:0:
182,192,16266,1,0,0:0:0:0:
329,192,16433,1,0,0:0:0:0:
109,192,16599,1,0,0:0:0:0:
329,192,16766,1,0,0:0:0:0:
109,192,16933,1,0,0:0:0:0:
36,192,17099,1,0,0:0:0:70:ticks.wav
402,192,17099,1,0,0:0:0:0:
182,192,17266,1,0,0:0:0:0:
329,192,17433,1,0,0:0:0:0:
256,192,17599,1,0,0:0:0:0:
475,192,17766,1,0,0:0:0:0:
402,192,17933,1,0,0:0:0:0:
329,192,18099,1,4,0:0:0:0:
36,192,18099,1,0,0:0:0:0:
182,192,18433,1,0,0:0:0:0:
402,192,18599,1,0,0:0:0:0:
475,192,18766,1,0,0:0:0:0:
36,192,19099,1,0,0:0:0:0:
256,192,19099,1,0,0:0:0:0:
475,192,19433,1,0,0:0:0:0:
109,192,19766,1,0,0:0:0:0:
256,192,19933,1,0,0:0:0:0:
402,192,20099,1,0,0:0:0:0:
475,192,20099,1,0,0:0:0:0:
182,192,20433,1,0,0:0:0:0:
475,192,20599,1,0,0:0:0:0:
402,192,20766,1,0,0:0:0:0:
36,192,21099,1,0,0:0:0:0:
256,192,21099,1,0,0:0:0:0:
329,192,21433,1,0,0:0:0:0:
475,192,21766,1,0,0:0:0:0:
109,192,22099,1,0,0:0:0:0:
329,192,22099,1,0,0:0:0:0:
182,192,22433,1,0,0:0:0:0:
475,192,22766,1,0,0:0:0:0:
256,192,23099,1,0,0:0:0:0:
36,192,23099,1,0,0:0:0:0:
182,192,23433,1,0,0:0:0:0:
256,192,23599,1,0,0:0:0:0:
329,192,23766,1,0,0:0:0:0:
475,192,23933,1,0,0:0:0:0:
402,192,24099,1,0,0:0:0:0:
36,192,24099,1,0,0:0:0:0:
182,192,24266,1,0,0:0:0:0:
475,192,24433,1,0,0:0:0:0:
329,192,24599,1,0,0:0:0:0:
109,192,24766,1,0,0:0:0:0:
402,192,24933,1,0,0:0:0:0:
182,192,25099,1,0,0:0:0:0:
475,192,25099,1,0,0:0:0:0:
36,192,25266,1,0,0:0:0:0:
256,192,25433,1,0,0:0:0:0:
109,192,25599,1,0,0:0:0:0:
329,192,25766,1,0,0:0:0:0:
182,192,25933,1,0,0:0:0:0:
402,192,26099,1,0,0:0:0:0:
475,192,26099,1,0,0:0:0:0:
36,192,26266,1,0,0:0:0:0:
182,192,26433,1,0,0:0:0:0:
256,192,26599,1,0,0:0:0:0:
475,192,26766,1,0,0:0:0:0:
329,192,26933,1,0,0:0:0:0:
36,192,27099,1,0,0:0:0:0:
402,192,27099,1,0,0:0:0:0:
475,192,27433,1,0,0:0:0:0:
182,192,27766,1,0,0:0:0:0:
256,192,27933,1,0,0:0:0:0:
475,192,28099,1,0,0:0:0:0:
402,192,28099,1,0,0:0:0:0:
182,192,28433,1,0,0:0:0:0:
475,192,28599,1,0,0:0:0:0:
329,192,28766,1,0,0:0:0:0:
256,192,28933,1,0,0:0:0:0:
475,192,29099,1,0,0:0:0:0:
109,192,29099,1,0,0:0:0:0:
402,192,29433,1,0,0:0:0:0:
329,192,29766,1,0,0:0:0:0:
475,192,29933,1,0,0:0:0:0:
182,192,30099,1,0,0:0:0:0:
256,192,30099,1,0,0:0:0:0:
36,192,30433,1,0,0:0:0:0:
109,192,30599,1,0,0:0:0:0:
256,192,30766,1,0,0:0:0:0:
475,192,30933,1,0,0:0:0:0:
109,192,31099,1,0,0:0:0:0:
329,192,31099,1,0,0:0:0:0:
36,192,31433,1,0,0:0:0:0:
109,192,31599,1,0,0:0:0:0:
256,192,31766,1,0,0:0:0:0:
475,192,31933,1,0,0:0:0:0:
402,192,32099,1,0,0:0:0:0:
36,192,32099,1,0,0:0:0:0:
182,192,32266,1,0,0:0:0:0:
329,192,32433,1,0,0:0:0:0:
109,192,32599,1,0,0:0:0:0:
256,192,32766,1,0,0:0:0:0:
402,192,32933,1,0,0:0:0:0:
36,192,33099,1,0,0:0:0:0:
475,192,33099,1,0,0:0:0:0:
256,192,33266,1,0,0:0:0:0:
402,192,33433,1,0,0:0:0:0:
182,192,33599,1,0,0:0:0:0:
329,192,33766,1,0,0:0:0:0:
109,192,33933,1,0,0:0:0:0:
475,192,34099,1,4,0:0:0:70:ticks.wav
256,192,34099,1,4,0:0:0:0:
36,192,34266,1,0,0:0:0:0:
475,192,34433,1,0,0:0:0:0:
109,192,34599,1,0,0:0:0:0:
402,192,34766,1,0,0:0:0:0:
256,192,34933,1,0,0:0:0:0:
36,192,35099,1,0,0:0:0:70:ticks.wav
475,192,35099,1,0,0:0:0:0:
109,192,35266,1,0,0:0:0:0:
402,192,35433,1,0,0:0:0:0:
109,192,35599,1,0,0:0:0:0:
256,192,35766,1,0,0:0:0:0:
329,192,35933,1,0,0:0:0:0:
182,192,36099,1,0,0:0:0:70:ticks.wav
475,192,36099,1,0,0:0:0:0:
36,192,36266,1,0,0:0:0:0:
402,192,36433,1,0,0:0:0:0:
182,192,36599,1,0,0:0:0:0:
182,192,36766,1,0,0:0:0:0:
36,192,36933,1,0,0:0:0:0:
182,192,37099,1,0,0:0:0:70:ticks.wav
402,192,37099,1,0,0:0:0:0:
36,192,37266,1,0,0:0:0:0:
475,192,37433,1,0,0:0:0:0:
256,192,37433,1,0,0:0:0:0:
36,192,37599,1,0,0:0:0:0:
402,192,37766,1,0,0:0:0:0:
109,192,37933,1,0,0:0:0:0:
475,192,38099,1,0,0:0:0:70:ticks.wav
256,192,38099,1,0,0:0:0:0:
36,192,38266,1,0,0:0:0:0:
182,192,38433,1,0,0:0:0:0:
329,192,38599,1,0,0:0:0:0:
109,192,38766,1,0,0:0:0:0:
402,192,38933,1,0,0:0:0:0:
36,192,39099,1,0,0:0:0:70:ticks.wav
256,192,39099,1,0,0:0:0:0:
182,192,39266,1,0,0:0:0:0:
475,192,39433,1,0,0:0:0:0:
402,192,39599,1,0,0:0:0:0:
256,192,39766,1,0,0:0:0:0:
329,192,39933,1,0,0:0:0:0:
109,192,40099,1,0,0:0:0:70:ticks.wav
475,192,40099,1,0,0:0:0:0:
256,192,40266,1,0,0:0:0:0:
402,192,40433,1,0,0:0:0:0:
36,192,40599,1,0,0:0:0:0:
475,192,40766,1,0,0:0:0:0:
329,192,40933,1,0,0:0:0:0:
256,192,41099,1,0,0:0:0:70:ticks.wav
36,192,41099,1,0,0:0:0:0:
109,192,41266,1,0,0:0:0:0:
475,192,41433,1,0,0:0:0:0:
256,192,41599,1,0,0:0:0:0:
402,192,41766,1,0,0:0:0:0:
329,192,41933,1,0,0:0:0:0:
36,192,42099,1,0,0:0:0:70:ticks.wav
475,192,42099,1,0,0:0:0:0:
182,192,42266,1,0,0:0:0:0:
256,192,42433,1,0,0:0:0:0:
475,192,42599,1,0,0:0:0:0:
402,192,42766,1,0,0:0:0:0:
402,192,42933,1,0,0:0:0:0:
109,192,43099,1,0,0:0:0:70:ticks.wav
256,192,43099,1,0,0:0:0:0:
475,192,43266,1,0,0:0:0:0:
182,192,43433,1,0,0:0:0:0:
402,192,43599,1,0,0:0:0:0:
109,192,43766,1,0,0:0:0:0:
109,192,43933,1,0,0:0:0:0:
329,192,44099,1,0,0:0:0:70:ticks.wav
182,192,44099,1,0,0:0:0:0:
402,192,44266,1,0,0:0:0:0:
475,192,44433,1,0,0:0:0:0:
36,192,44599,1,0,0:0:0:0:
329,192,44766,1,0,0:0:0:0:
329,192,44933,1,0,0:0:0:0:
475,192,45099,1,0,0:0:0:70:ticks.wav
109,192,45099,1,0,0:0:0:0:
182,192,45266,1,0,0:0:0:0:
36,192,45433,1,0,0:0:0:0:
256,192,45599,1,0,0:0:0:0:
475,192,45766,1,0,0:0:0:0:
402,192,45933,1,0,0:0:0:0:
109,192,46099,1,0,0:0:0:70:ticks.wav
329,192,46099,1,0,0:0:0:0:
475,192,46266,1,0,0:0:0:0:
182,192,46433,1,0,0:0:0:0:
256,192,46599,1,0,0:0:0:0:
329,192,46766,1,0,0:0:0:0:
329,192,46933,1,0,0:0:0:0:
475,192,47099,1,0,0:0:0:70:ticks.wav
182,192,47099,1,0,0:0:0:0:
109,192,47266,1,0,0:0:0:0:
329,192,47433,1,0,0:0:0:0:
256,192,47599,1,0,0:0:0:0:
182,192,47766,1,0,0:0:0:0:
182,192,47933,1,0,0:0:0:0:
329,192,48099,1,0,0:0:0:70:ticks.wav
36,192,48099,1,0,0:0:0:0:
256,192,48266,1,0,0:0:0:0:
109,192,48433,1,0,0:0:0:0:
402,192,48433,1,0,0:0:0:0:
182,192,48599,1,0,0:0:0:0:
475,192,48766,1,0,0:0:0:0:
36,192,48933,1,0,0:0:0:0:
182,192,49099,1,0,0:0:0:70:ticks.wav
402,192,49099,1,0,0:0:0:0:
329,192,49266,1,0,0:0:0:0:
256,192,49433,1,0,0:0:0:0:
402,192,49599,1,0,0:0:0:0:
329,192,49766,1,0,0:0:0:0:
182,192,49933,1,0,0:0:0:0:
475,192,50099,1,4,0:0:0:70:ticks.wav
109,192,50099,1,4,0:0:0:0:
36,192,50349,1,0,0:0:0:0:
329,192,50433,1,0,0:0:0:0:
109,192,50683,1,0,0:0:0:0:
256,192,50766,1,0,0:0:0:0:
329,192,51099,1,0,0:0:0:70:ticks.wav
475,192,51099,1,0,0:0:0:0:
109,192,51349,1,0,0:0:0:0:
402,192,51433,1,0,0:0:0:0:
329,192,51683,1,0,0:0:0:0:
182,192,51766,1,0,0:0:0:0:
256,192,52099,1,0,0:0:0:70:ticks.wav
36,192,52099,1,0,0:0:0:0:
109,192,52349,1,0,0:0:0:0:
329,192,52433,1,0,0:0:0:0:
475,192,52683,1,0,0:0:0:0:
182,192,52766,1,0,0:0:0:0:
36,192,53016,1,0,0:0:0:0:
256,192,53099,1,0,0:0:0:70:ticks.wav
329,192,53099,1,0,0:0:0:0:
109,192,53349,1,0,0:0:0:0:
402,192,53433,1,0,0:0:0:0:
182,192,53683,1,0,0:0:0:0:
329,192,53766,1,0,0:0:0:0:
36,192,54016,1,0,0:0:0:0:
256,192,54099,1,0,0:0:0:70:ticks.wav
402,192,54099,1,0,0:0:0:0:
182,192,54349,1,0,0:0:0:0:
475,192,54433,1,0,0:0:0:0:
109,192,54683,1,0,0:0:0:0:
402,192,54766,1,0,0:0:0:0:
36,192,55016,1,0,0:0:0:0:
256,192,55099,1,0,0:0:0:70:ticks.wav
182,192,55099,1,0,0:0:0:0:
402,192,55349,1,0,0:0:0:0:
109,192,55433,1,0,0:0:0:0:
475,192,55683,1,0,0:0:0:0:
182,192,55766,1,0,0:0:0:0:
329,192,56016,1,0,0:0:0:0:
36,192,56099,1,0,0:0:0:70:ticks.wav
109,192,56211,1,0,0:0:0:0:
182,192,56322,1,0,0:0:0:0:
475,192,56433,1,0,0:0:0:0:
402,192,56544,1,0,0:0:0:0:
329,192,56655,1,0,0:0:0:0:
36,192,56766,1,0,0:0:0:0:
109,192,56877,1,0,0:0:0:0:
256,192,56988,1,0,0:0:0:0:
475,192,57099,1,0,0:0:0:70:ticks.wav
329,192,57211,1,0,0:0:0:0:
182,192,57322,1,0,0:0:0:0:
36,192,57433,1,0,0:0:0:0:
256,192,57544,1,0,0:0:0:0:
475,192,57655,1,0,0:0:0:0:
109,192,57766,1,0,0:0:0:0:
182,192,57877,1,0,0:0:0:0:
329,192,57988,1,0,0:0:0:0:
109,192,58099,1,4,0:0:0:70:ticks.wav
402,192,58099,1,4,0:0:0:0:
475,192,58433,1,0,0:0:0:0:
109,192,58766,1,0,0:0:0:0:
402,192,59099,1,0,0:0:0:70:ticks.wav
256,192,59099,1,0,0:0:0:0:
109,192,59766,1,0,0:0:0:0:
475,192,60099,1,0,0:0:0:70:ticks.wav
182,192,60099,1,0,0:0:0:0:
402,192,60433,1,0,0:0:0:0:
256,192,60766,1,0,0:0:0:0:
109,192,61099,1,0,0:0:0:70:ticks.wav
329,192,61099,1,0,0:0:0:0:
475,192,61766,1,0,0:0:0:0:
109,192,62099,1,0,0:0:0:70:ticks.wav
475,192,62099,1,0,0:0:0:0:
402,192,62433,1,0,0:0:0:0:
329,192,62766,1,0,0:0:0:0:
36,192,63099,1,0,0:0:0:70:ticks.wav
329,192,63099,1,0,0:0:0:0:
256,192,63433,1,0,0:0:0:0:
182,192,63766,1,0,0:0:0:0:
36,192,64099,1,4,0:0:0:70:ticks.wav
475,192,64099,1,4,0:0:0:0:
329,192,64266,1,0,0:0:0:0:
182,192,64433,1,0,0:0:0:0:
402,192,64599,1,0,0:0:0:0:
256,192,64683,1,0,0:0:0:0:
109,192,64766,1,0,0:0:0:0:
329,192,64933,1,0,0:0:0:0:
182,192,65016,1,0,0:0:0:0:
36,192,65099,1,0,0:0:0:70:ticks.wav
109,192,65266,1,0,0:0:0:0:
256,192,65349,1,0,0:0:0:0:
402,192,65433,1,0,0:0:0:0:
182,192,65599,1,0,0:0:0:0:
329,192,65683,1,0,0:0:0:0:
475,192,65766,1,0,0:0:0:0:
109,192,65933,1,0,0:0:0:0:
256,192,66099,1,0,0:0:0:70:ticks.wav
36,192,66266,1,0,0:0:0:0:
182,192,66349,1,0,0:0:0:0:
402,192,66433,1,0,0:0:0:0:
109,192,66599,1,0,0:0:0:0:
329,192,66683,1,0,0:0:0:0:
475,192,66766,1,0,0:0:0:0:
36,192,66933,1,0,0:0:0:0:
256,192,67099,128,0,67266:0:0:0:0:
475,192,67266,128,0,67433:0:0:0:0:
182,192,67433,128,0,67599:0:0:0:0:
402,192,67599,128,0,67766:0:0:0:0:
109,192,67766,128,0,67933:0:0:0:0:
329,192,67933,128,0,68099:0:0:0:0:
36,192,68099,1,4,0:0:0:70:ticks.wav
475,192,68099,1,4,0:0:0:0:
109,192,68266,1,0,0:0:0:0:
182,192,68433,1,0,0:0:0:0:
329,192,68599,1,0,0:0:0:0:
402,192,68766,1,0,0:0:0:0:
475,192,68933,1,0,0:0:0:0:
182,192,69099,1,0,0:0:0:70:ticks.wav
329,192,69099,1,0,0:0:0:0:
475,192,69433,1,0,0:0:0:0:
109,192,70099,1,0,0:0:0:70:ticks.wav
475,192,70099,1,0,0:0:0:0:
402,192,70266,1,0,0:0:0:0:
36,192,70433,1,0,0:0:0:0:
109,192,70599,1,0,0:0:0:0:
182,192,70766,1,0,0:0:0:0:
256,192,70933,1,0,0:0:0:0:
109,192,71099,1,0,0:0:0:70:ticks.wav
329,192,71099,1,0,0:0:0:0:
182,192,71433,1,0,0:0:0:0:
475,192,71766,1,0,0:0:0:0:
36,192,72099,1,0,0:0:0:70:ticks.wav
329,192,72099,1,0,0:0:0:0:
182,192,72433,1,0,0:0:0:0:
329,192,72599,1,0,0:0:0:0:
256,192,72766,1,0,0:0:0:0:
402,192,72933,1,0,0:0:0:0:
36,192,73099,1,0,0:0:0:70:ticks.wav
475,192,73099,1,0,0:0:0:0:
109,192,73433,1,0,0:0:0:0:
329,192,73599,1,0,0:0:0:0:
182,192,73766,1,0,0:0:0:0:
402,192,73933,1,0,0:0:0:0:
256,192,74099,1,0,0:0:0:70:ticks.wav
475,192,74099,1,0,0:0:0:0:
109,192,74266,1,0,0:0:0:0:
329,192,74433,1,0,0:0:0:0:
182,192,74599,1,0,0:0:0:0:
475,192,74766,1,0,0:0:0:0:
402,192,74933,1,0,0:0:0:0:
36,192,75099,1,0,0:0:0:70:ticks.wav
329,192,75099,1,0,0:0:0:0:
109,192,75766,1,0,0:0:0:0:
329,192,75933,1,0,0:0:0:0:
402,192,76099,1,4,0:0:0:70:ticks.wav
36,192,76099,1,4,0:0:0:0:
182,192,76266,1,0,0:0:0:0:
329,192,76433,1,0,0:0:0:0:
256,192,76599,1,0,0:0:0:0:
109,192,76766,1,0,0:0:0:0:
329,192,76933,1,0,0:0:0:0:
475,192,77016,1,0,0:0:0:0:
182,192,77099,1,0,0:0:0:70:ticks.wav
36,192,77099,1,0,0:0:0:0:
256,192,77266,1,0,0:0:0:0:
402,192,77433,1,0,0:0:0:0:
329,192,77599,1,0,0:0:0:0:
256,192,77766,1,0,0:0:0:0:
182,192,77933,1,0,0:0:0:0:
36,192,78016,1,0,0:0:0:0:
475,192,78099,1,0,0:0:0:70:ticks.wav
329,192,78099,1,0,0:0:0:0:
256,192,78266,1,0,0:0:0:0:
36,192,78433,1,0,0:0:0:0:
36,192,78599,1,0,0:0:0:0:
109,192,78766,1,0,0:0:0:0:
329,192,78933,1,0,0:0:0:0:
475,192,79016,1,0,0:0:0:0:
36,192,79099,1,0,0:0:0:70:ticks.wav
402,192,79099,1,0,0:0:0:0:
182,192,79266,1,0,0:0:0:0:
256,192,79433,1,0,0:0:0:0:
402,192,79599,1,0,0:0:0:0:
109,192,79766,1,0,0:0:0:0:
182,192,79933,1,0,0:0:0:0:
475,192,80099,1,0,0:0:0:70:ticks.wav
256,192,80099,1,0,0:0:0:0:
36,192,80266,1,0,0:0:0:0:
182,192,80433,1,0,0:0:0:0:
329,192,80599,1,0,0:0:0:0:
475,192,80766,1,0,0:0:0:0:
402,192,80933,1,0,0:0:0:0:
109,192,81016,1,0,0:0:0:0:
256,192,81099,1,0,0:0:0:70:ticks.wav
182,192,81099,1,0,0:0:0:0:
475,192,81266,1,0,0:0:0:0:
329,192,81433,1,0,0:0:0:0:
256,192,81599,1,0,0:0:0:0:
36,192,81766,1,0,0:0:0:0:
109,192,81933,1,0,0:0:0:0:
475,192,82016,1,0,0:0:0:0:
256,192,82099,1,0,0:0:0:70:ticks.wav
329,192,82099,1,0,0:0:0:0:
402,192,82349,1,0,0:0:0:0:
182,192,82433,1,0,0:0:0:0:
256,192,82683,1,0,0:0:0:0:
36,192,82766,1,0,0:0:0:0:
109,192,83016,1,0,0:0:0:0:
329,192,83099,1,0,0:0:0:70:ticks.wav
182,192,83099,1,0,0:0:0:0:
475,192,83266,1,0,0:0:0:0:
36,192,83433,1,0,0:0:0:0:
256,192,83599,1,0,0:0:0:0:
402,192,83766,1,0,0:0:0:0:
475,192,83933,1,0,0:0:0:0:
36,192,84099,1,4,0:0:0:0:
329,192,84099,1,0,0:0:0:70:ticks.wav
182,192,84266,1,0,0:0:0:0:
256,192,84433,1,0,0:0:0:0:
329,192,84599,1,0,0:0:0:0:
402,192,84766,1,0,0:0:0:0:
182,192,84933,1,0,0:0:0:0:
329,192,85016,1,0,0:0:0:0:
109,192,85099,1,0,0:0:0:70:ticks.wav
36,192,85099,1,0,0:0:0:0:
402,192,85266,1,0,0:0:0:0:
36,192,85433,1,0,0:0:0:0:
109,192,85599,1,0,0:0:0:0:
256,192,85766,1,0,0:0:0:0:
329,192,85933,1,0,0:0:0:0:
182,192,86016,1,0,0:0:0:0:
475,192,86099,1,0,0:0:0:70:ticks.wav
402,192,86099,1,0,0:0:0:0:
36,192,86266,1,0,0:0:0:0:
256,192,86433,1,0,0:0:0:0:
256,192,86599,1,0,0:0:0:0:
182,192,86766,1,0,0:0:0:0:
402,192,86933,1,0,0:0:0:0:
109,192,87016,1,0,0:0:0:0:
329,192,87099,1,0,0:0:0:70:ticks.wav
182,192,87099,1,0,0:0:0:0:
36,192,87266,1,0,0:0:0:0:
256,192,87433,1,0,0:0:0:0:
36,192,87599,1,0,0:0:0:0:
182,192,87766,1,0,0:0:0:0:
402,192,87933,1,0,0:0:0:0:
256,192,88099,1,0,0:0:0:70:ticks.wav
475,192,88099,1,0,0:0:0:0:
182,192,88266,1,0,0:0:0:0:
109,192,88433,1,0,0:0:0:0:
256,192,88599,1,0,0:0:0:0:
475,192,88766,1,0,0:0:0:0:
182,192,88933,1,0,0:0:0:0:
402,192,89016,1,0,0:0:0:0:
109,192,89099,1,0,0:0:0:70:ticks.wav
36,192,89099,1,0,0:0:0:0:
256,192,89266,1,0,0:0:0:0:
329,192,89433,1,0,0:0:0:0:
402,192,89599,1,0,0:0:0:0:
182,192,89766,1,0,0:0:0:0:
329,192,89933,1,0,0:0:0:0:
475,192,90099,1,0,0:0:0:70:ticks.wav
36,192,90099,1,0,0:0:0:0:
182,192,90266,1,0,0:0:0:0:
109,192,90433,1,0,0:0:0:0:
256,192,90599,1,0,0:0:0:0:
475,192,90766,1,0,0:0:0:0:
402,192,90933,1,0,0:0:0:0:
109,192,91016,1,0,0:0:0:0:
182,192,91099,1,0,0:0:0:70:ticks.wav
329,192,91099,1,0,0:0:0:0:
475,192,91266,1,0,0:0:0:0:
256,192,91433,1,0,0:0:0:0:
329,192,91599,1,0,0:0:0:0:
475,192,91766,1,0,0:0:0:0:
182,192,91933,1,0,0:0:0:0:
402,192,92099,1,4,0:0:0:70:ticks.wav
109,192,92099,1,4,0:0:0:0:
329,192,92266,1,0,0:0:0:0:
36,192,92433,1,0,0:0:0:0:
182,192,92599,1,0,0:0:0:0:
329,192,92766,1,0,0:0:0:0:
109,192,92933,1,0,0:0:0:0:
402,192,93016,1,0,0:0:0:0:
182,192,93099,1,0,0:0:0:70:ticks.wav
256,192,93099,1,0,0:0:0:0:
329,192,93266,1,0,0:0:0:0:
475,192,93433,1,0,0:0:0:0:
109,192,93599,1,0,0:0:0:0:
329,192,93766,1,0,0:0:0:0:
182,192,93933,1,0,0:0:0:0:
402,192,94016,1,0,0:0:0:0:
109,192,94099,1,0,0:0:0:70:ticks.wav
36,192,94099,1,0,0:0:0:0:
256,192,94266,1,0,0:0:0:0:
329,192,94433,1,0,0:0:0:0:
329,192,94599,1,0,0:0:0:0:
475,192,94766,1,0,0:0:0:0:
182,192,94933,1,0,0:0:0:0:
402,192,95016,1,0,0:0:0:0:
329,192,95099,1,0,0:0:0:70:ticks.wav
256,192,95099,1,0,0:0:0:0:
36,192,95266,1,0,0:0:0:0:
475,192,95433,1,0,0:0:0:0:
109,192,95599,1,0,0:0:0:0:
402,192,95766,1,0,0:0:0:0:
182,192,95933,1,0,0:0:0:0:
36,192,96099,1,0,0:0:0:70:ticks.wav
329,192,96099,1,0,0:0:0:0:
109,192,96266,1,0,0:0:0:0:
256,192,96433,1,0,0:0:0:0:
182,192,96599,1,0,0:0:0:0:
475,192,96766,1,0,0:0:0:0:
329,192,96933,1,0,0:0:0:0:
36,192,97016,1,0,0:0:0:0:
182,192,97099,1,0,0:0:0:70:ticks.wav
256,192,97099,1,0,0:0:0:0:
402,192,97266,1,0,0:0:0:0:
109,192,97433,1,0,0:0:0:0:
256,192,97599,1,0,0:0:0:0:
475,192,97766,1,0,0:0:0:0:
109,192,97933,1,0,0:0:0:0:
402,192,98016,1,0,0:0:0:0:
182,192,98099,1,0,0:0:0:70:ticks.wav
329,192,98099,1,0,0:0:0:0:
475,192,98349,1,0,0:0:0:0:
182,192,98433,1,0,0:0:0:0:
36,192,98683,1,0,0:0:0:0:
256,192,98766,1,0,0:0:0:0:
109,192,99016,1,0,0:0:0:0:
329,192,99099,1,0,0:0:0:70:ticks.wav
182,192,99099,1,0,0:0:0:0:
475,192,99266,1,0,0:0:0:0:
36,192,99433,1,0,0:0:0:0:
182,192,99599,1,0,0:0:0:0:
256,192,99766,1,0,0:0:0:0:
475,192,99933,1,0,0:0:0:0:
402,192,100099,1,4,0:0:0:70:ticks.wav
109,192,100099,1,4,0:0:0:0:
256,192,100266,1,0,0:0:0:0:
182,192,100433,1,0,0:0:0:0:
36,192,100599,1,0,0:0:0:0:
256,192,100766,1,0,0:0:0:0:
475,192,100933,1,0,0:0:0:0:
109,192,101016,1,0,0:0:0:0:
329,192,101099,1,0,0:0:0:70:ticks.wav
182,192,101099,1,0,0:0:0:0:
402,192,101266,1,0,0:0:0:0:
256,192,101433,1,0,0:0:0:0:
475,192,101599,1,0,0:0:0:0:
402,192,101766,1,0,0:0:0:0:
36,192,101933,1,0,0:0:0:0:
329,192,102016,1,0,0:0:0:0:
109,192,102099,1,0,0:0:0:70:ticks.wav
256,192,102099,1,0,0:0:0:0:
402,192,102266,1,0,0:0:0:0:
109,192,102433,1,0,0:0:0:0:
109,192,102599,1,0,0:0:0:0:
182,192,102766,1,0,0:0:0:0:
329,192,102933,1,0,0:0:0:0:
109,192,103016,1,0,0:0:0:0:
475,192,103099,1,0,0:0:0:70:ticks.wav
402,192,103099,1,0,0:0:0:0:
256,192,103266,1,0,0:0:0:0:
402,192,103433,1,0,0:0:0:0:
475,192,103599,1,0,0:0:0:0:
36,192,103766,1,0,0:0:0:0:
329,192,103933,1,0,0:0:0:0:
109,192,104099,1,0,0:0:0:70:ticks.wav
475,192,104099,1,0,0:0:0:0:
256,192,104266,1,0,0:0:0:0:
402,192,104433,1,0,0:0:0:0:
36,192,104599,1,0,0:0:0:0:
109,192,104766,1,0,0:0:0:0:
256,192,104933,1,0,0:0:0:0:
475,192,105016,1,0,0:0:0:0:
182,192,105099,1,0,0:0:0:70:ticks.wav
329,192,105099,1,0,0:0:0:0:
36,192,105266,1,0,0:0:0:0:
256,192,105433,1,0,0:0:0:0:
109,192,105599,1,0,0:0:0:0:
182,192,105766,1,0,0:0:0:0:
329,192,105933,1,0,0:0:0:0:
402,192,106099,1,0,0:0:0:70:ticks.wav
36,192,106099,1,0,0:0:0:0:
256,192,106266,1,0,0:0:0:0:
475,192,106433,1,0,0:0:0:0:
329,192,106599,1,0,0:0:0:0:
182,192,106766,1,0,0:0:0:0:
402,192,106933,1,0,0:0:0:0:
475,192,107099,1,0,0:0:0:0:
36,192,107099,128,0,107266:0:0:0:0:
256,192,107266,128,0,107433:0:0:0:0:
109,192,107433,128,0,107599:0:0:0:0:
329,192,107599,128,0,107766:0:0:0:0:
475,192,107766,128,0,107933:0:0:0:0:
256,192,107933,128,0,108099:0:0:0:0:
36,192,108099,128,4,110099:0:0:0:100:ticks.wav
182,192,108099,1,4,0:0:0:0:
256,192,109099,1,0,0:0:0:100:ticks.wav
402,192,109766,1,0,0:0:0:0:
256,192,110099,1,0,0:0:0:100:ticks.wav
182,192,110099,1,0,0:0:0:0:
256,192,111099,1,0,0:0:0:100:ticks.wav
109,192,111766,1,0,0:0:0:0:
256,192,112099,1,0,0:0:0:100:ticks.wav
475,192,112099,1,0,0:0:0:0:
256,192,113099,1,0,0:0:0:100:ticks.wav
475,192,113766,1,0,0:0:0:0:
256,192,114099,1,0,0:0:0:100:ticks.wav
109,192,114099,1,0,0:0:0:0:
256,192,115099,1,0,0:0:0:100:ticks.wav
475,192,115766,1,0,0:0:0:0:
256,192,116099,1,0,0:0:0:100:ticks.wav
36,192,116099,1,0,0:0:0:0:
256,192,117099,1,0,0:0:0:100:ticks.wav
329,192,117766,1,0,0:0:0:0:
256,192,118099,1,0,0:0:0:100:ticks.wav
182,192,118099,1,0,0:0:0:0:
256,192,119099,1,0,0:0:0:100:ticks.wav
109,192,119099,1,0,0:0:0:0:
36,192,119433,1,0,0:0:0:0:
182,192,119766,1,0,0:0:0:0:
256,192,120099,1,0,0:0:0:100:ticks.wav
475,192,120099,1,0,0:0:0:0:
256,192,121099,1,0,0:0:0:100:ticks.wav
109,192,121766,1,0,0:0:0:0:
256,192,122099,1,0,0:0:0:100:ticks.wav
475,192,122099,1,0,0:0:0:0:
256,192,123099,1,0,0:0:0:100:ticks.wav
36,192,123766,1,0,0:0:0:0:
256,192,124099,1,0,0:0:0:100:ticks.wav
475,192,124099,1,0,0:0:0:0:
256,192,125099,1,0,0:0:0:100:ticks.wav
256,192,126099,1,0,0:0:0:100:ticks.wav
