osu file format v14

[General]
AudioFilename: audio.mp3
AudioLeadIn: 0
PreviewTime: 75352
Countdown: 0
SampleSet: Soft
StackLeniency: 0.7
Mode: 3
LetterboxInBreaks: 0
SpecialStyle: 0
WidescreenStoryboard: 0

[Editor]
Bookmarks: 73353
DistanceSpacing: 0.8
BeatDivisor: 3
GridSize: 32
TimelineZoom: 2.1

[Metadata]
Title:Timeline
TitleUnicode:Timeline
Artist:Plum
ArtistUnicode:Plum
Creator:TakJun
Version:Future | SC
Source:
Tags:7th album musicbox 24/7 side pm new age artcore instrumental classical piano chill FAMoss
BeatmapID:3092215
BeatmapSetID:1510034

[Difficulty]
HPDrainRate:8.5
CircleSize:7
OverallDifficulty:8
ApproachRate:5
SliderMultiplier:1.4
SliderTickRate:1

[Events]
//Background and Video events
0,0,"Thumnail.png",0,0
//Break Periods
//Storyboard Layer 0 (Background)
//Storyboard Layer 1 (Fail)
//Storyboard Layer 2 (Pass)
//Storyboard Layer 3 (Foreground)
//Storyboard Layer 4 (Overlay)
//Storyboard Sound Samples

[TimingPoints]
2100,333.333333333333,3,2,1,40,1,0
75766,-100,3,2,1,40,0,1
108099,-100,3,2,1,40,0,0

[HitObjects]
36,192,2099,5,0,0:0:0:70:ticks.wav
256,192,2099,1,0,0:0:0:0:
475,192,2099,1,0,0:0:0:0:
109,192,2266,1,0,0:0:0:0:
182,192,2433,1,0,0:0:0:0:
256,192,2599,1,0,0:0:0:0:
329,192,2766,1,0,0:0:0:0:
402,192,2933,1,0,0:0:0:0:
256,192,3099,1,0,0:0:0:70:ticks.wav
109,192,3099,1,0,0:0:0:0:
36,192,3099,1,0,0:0:0:0:
475,192,3433,1,0,0:0:0:0:
109,192,4099,5,0,0:0:0:70:ticks.wav
256,192,4099,1,0,0:0:0:0:
475,192,4099,1,0,0:0:0:0:
36,192,4266,1,0,0:0:0:0:
109,192,4433,1,0,0:0:0:0:
182,192,4599,1,0,0:0:0:0:
329,192,4766,1,0,0:0:0:0:
475,192,4933,1,0,0:0:0:0:
402,192,5099,1,0,0:0:0:70:ticks.wav
256,192,5099,1,0,0:0:0:0:
109,192,5099,1,0,0:0:0:0:
36,192,5433,1,0,0:0:0:0:
402,192,5766,1,0,0:0:0:0:
256,192,6099,1,0,0:0:0:70:ticks.wav
109,192,6099,1,0,0:0:0:0:
329,192,6099,1,0,0:0:0:0:
182,192,6433,1,0,0:0:0:0:
256,192,6599,1,0,0:0:0:0:
402,192,6766,1,0,0:0:0:0:
475,192,6933,1,0,0:0:0:0:
256,192,7099,1,0,0:0:0:70:ticks.wav
36,192,7099,1,0,0:0:0:0:
182,192,7099,1,0,0:0:0:0:
109,192,7433,1,0,0:0:0:0:
182,192,7599,1,0,0:0:0:0:
329,192,7766,1,0,0:0:0:0:
475,192,7933,1,0,0:0:0:0:
109,192,8099,1,0,0:0:0:70:ticks.wav
256,192,8099,1,0,0:0:0:0:
36,192,8099,1,0,0:0:0:0:
329,192,8266,1,0,0:0:0:0:
402,192,8433,1,0,0:0:0:0:
36,192,8599,1,0,0:0:0:0:
402,192,8766,1,0,0:0:0:0:
36,192,8933,1,0,0:0:0:0:
256,192,9099,1,0,0:0:0:70:ticks.wav
475,192,9099,1,0,0:0:0:0:
182,192,9099,1,0,0:0:0:0:
402,192,9266,1,0,0:0:0:0:
329,192,9433,1,0,0:0:0:0:
182,192,9599,1,0,0:0:0:0:
109,192,9766,1,0,0:0:0:0:
36,192,9933,1,0,0:0:0:0:
475,192,10099,1,0,0:0:0:70:ticks.wav
256,192,10099,1,0,0:0:0:0:
329,192,10099,1,0,0:0:0:0:
109,192,10266,1,0,0:0:0:0:
182,192,10433,1,0,0:0:0:0:
402,192,10433,1,0,0:0:0:0:
256,192,10599,1,0,0:0:0:0:
329,192,10766,1,0,0:0:0:0:
109,192,10766,1,0,0:0:0:0:
475,192,10933,1,0,0:0:0:0:
256,192,11099,1,0,0:0:0:70:ticks.wav
329,192,11099,1,0,0:0:0:0:
36,192,11099,1,0,0:0:0:0:
402,192,11433,1,0,0:0:0:0:
109,192,11433,1,0,0:0:0:0:
475,192,11766,1,0,0:0:0:0:
182,192,11766,1,0,0:0:0:0:
402,192,12099,1,0,0:0:0:70:ticks.wav
36,192,12099,1,0,0:0:0:0:
329,192,12099,1,0,0:0:0:0:
256,192,12266,1,0,0:0:0:0:
109,192,12433,1,0,0:0:0:0:
329,192,12599,1,0,0:0:0:0:
475,192,12766,1,0,0:0:0:0:
182,192,12766,1,0,0:0:0:0:
402,192,12933,1,0,0:0:0:0:
475,192,13099,1,0,0:0:0:70:ticks.wav
109,192,13099,1,0,0:0:0:0:
256,192,13099,1,0,0:0:0:0:
329,192,13433,1,0,0:0:0:0:
36,192,13433,1,0,0:0:0:0:
475,192,13766,1,0,0:0:0:0:
182,192,13766,1,0,0:0:0:0:
256,192,14099,1,0,0:0:0:70:ticks.wav
402,192,14099,1,0,0:0:0:0:
109,192,14099,1,0,0:0:0:0:
36,192,14433,1,0,0:0:0:0:
182,192,14433,1,0,0:0:0:0:
109,192,14599,1,0,0:0:0:0:
329,192,14766,1,0,0:0:0:0:
475,192,14766,1,0,0:0:0:0:
402,192,14933,1,0,0:0:0:0:
256,192,15099,1,0,0:0:0:70:ticks.wav
109,192,15099,1,0,0:0:0:0:
329,192,15099,1,0,0:0:0:0:
36,192,15433,1,0,0:0:0:0:
182,192,15433,1,0,0:0:0:0:
109,192,15599,1,0,0:0:0:0:
475,192,15766,1,0,0:0:0:0:
329,192,15766,1,0,0:0:0:0:
402,192,15933,1,0,0:0:0:0:
36,192,16099,1,0,0:0:0:70:ticks.wav
256,192,16099,1,0,0:0:0:0:
182,192,16099,1,0,0:0:0:0:
402,192,16266,1,0,0:0:0:0:
475,192,16433,1,0,0:0:0:0:
182,192,16433,1,0,0:0:0:0:
329,192,16599,1,0,0:0:0:0:
475,192,16766,1,0,0:0:0:0:
109,192,16766,1,0,0:0:0:0:
329,192,16933,1,0,0:0:0:0:
36,192,17099,1,0,0:0:0:70:ticks.wav
256,192,17099,1,0,0:0:0:0:
402,192,17099,1,0,0:0:0:0:
109,192,17266,1,0,0:0:0:0:
182,192,17433,1,0,0:0:0:0:
475,192,17433,1,0,0:0:0:0:
402,192,17599,1,0,0:0:0:0:
329,192,17766,1,0,0:0:0:0:
36,192,17766,1,0,0:0:0:0:
182,192,17933,1,0,0:0:0:0:
109,192,18099,1,4,0:0:0:0:
329,192,18099,1,0,0:0:0:0:
402,192,18099,1,0,0:0:0:0:
475,192,18433,1,0,0:0:0:0:
36,192,18433,1,0,0:0:0:0:
182,192,18433,1,0,0:0:0:0:
402,192,18599,1,0,0:0:0:0:
36,192,18599,1,0,0:0:0:0:
109,192,18766,1,0,0:0:0:0:
256,192,18766,1,0,0:0:0:0:
329,192,18766,1,0,0:0:0:0:
36,192,19099,1,0,0:0:0:0:
256,192,19099,1,0,0:0:0:0:
402,192,19099,1,0,0:0:0:0:
256,192,19266,1,0,0:0:0:0:
109,192,19433,1,0,0:0:0:0:
475,192,19433,1,0,0:0:0:0:
329,192,19433,1,0,0:0:0:0:
109,192,19599,1,0,0:0:0:0:
182,192,19766,1,0,0:0:0:0:
402,192,19766,1,0,0:0:0:0:
36,192,19766,1,0,0:0:0:0:
329,192,19933,1,0,0:0:0:0:
256,192,20099,1,0,0:0:0:0:
475,192,20099,1,0,0:0:0:0:
109,192,20099,1,0,0:0:0:0:
475,192,20266,1,0,0:0:0:0:
329,192,20433,1,0,0:0:0:0:
182,192,20433,1,0,0:0:0:0:
36,192,20433,1,0,0:0:0:0:
402,192,20599,1,0,0:0:0:0:
475,192,20766,1,0,0:0:0:0:
109,192,20766,1,0,0:0:0:0:
256,192,20766,1,0,0:0:0:0:
109,192,20933,1,0,0:0:0:0:
36,192,21099,1,0,0:0:0:0:
329,192,21099,1,0,0:0:0:0:
402,192,21099,1,0,0:0:0:0:
402,192,21266,1,0,0:0:0:0:
256,192,21433,1,0,0:0:0:0:
109,192,21433,1,0,0:0:0:0:
475,192,21433,1,0,0:0:0:0:
256,192,21599,1,0,0:0:0:0:
182,192,21766,1,0,0:0:0:0:
475,192,21766,1,0,0:0:0:0:
329,192,21766,1,0,0:0:0:0:
475,192,21933,1,0,0:0:0:0:
256,192,22099,1,0,0:0:0:0:
36,192,22099,1,0,0:0:0:0:
109,192,22099,1,0,0:0:0:0:
36,192,22266,1,0,0:0:0:0:
182,192,22433,1,0,0:0:0:0:
402,192,22433,1,0,0:0:0:0:
329,192,22433,1,0,0:0:0:0:
475,192,22766,1,0,0:0:0:0:
256,192,22766,1,0,0:0:0:0:
36,192,22766,1,0,0:0:0:0:
256,192,22933,1,0,0:0:0:0:
182,192,23099,1,0,0:0:0:0:
402,192,23099,1,0,0:0:0:0:
109,192,23099,1,0,0:0:0:0:
109,192,23266,1,0,0:0:0:0:
475,192,23433,1,0,0:0:0:0:
256,192,23433,1,0,0:0:0:0:
36,192,23433,1,0,0:0:0:0:
475,192,23599,1,0,0:0:0:0:
182,192,23599,1,0,0:0:0:0:
36,192,23766,1,0,0:0:0:0:
402,192,23766,1,0,0:0:0:0:
109,192,23766,1,0,0:0:0:0:
36,192,23933,1,0,0:0:0:0:
256,192,23933,1,0,0:0:0:0:
182,192,24099,1,0,0:0:0:0:
329,192,24099,1,0,0:0:0:0:
402,192,24099,1,0,0:0:0:0:
109,192,24266,1,0,0:0:0:0:
329,192,24266,1,0,0:0:0:0:
36,192,24433,1,0,0:0:0:0:
256,192,24433,1,0,0:0:0:0:
475,192,24433,1,0,0:0:0:0:
402,192,24599,1,0,0:0:0:0:
329,192,24766,1,0,0:0:0:0:
109,192,24766,1,0,0:0:0:0:
36,192,24766,1,0,0:0:0:0:
475,192,24933,1,0,0:0:0:0:
182,192,25099,1,0,0:0:0:0:
36,192,25099,1,0,0:0:0:0:
256,192,25099,1,0,0:0:0:0:
402,192,25266,1,0,0:0:0:0:
256,192,25266,1,0,0:0:0:0:
109,192,25433,1,0,0:0:0:0:
182,192,25433,1,0,0:0:0:0:
329,192,25599,1,0,0:0:0:0:
182,192,25599,1,0,0:0:0:0:
36,192,25766,1,0,0:0:0:0:
109,192,25766,1,0,0:0:0:0:
256,192,25933,1,0,0:0:0:0:
109,192,25933,1,0,0:0:0:0:
475,192,26099,1,0,0:0:0:0:
329,192,26099,1,0,0:0:0:0:
402,192,26099,1,0,0:0:0:0:
36,192,26266,1,0,0:0:0:0:
329,192,26266,1,0,0:0:0:0:
109,192,26433,1,0,0:0:0:0:
402,192,26433,1,0,0:0:0:0:
475,192,26433,1,0,0:0:0:0:
182,192,26599,1,0,0:0:0:0:
475,192,26766,1,0,0:0:0:0:
256,192,26766,1,0,0:0:0:0:
329,192,26766,1,0,0:0:0:0:
182,192,26933,1,0,0:0:0:0:
109,192,27099,1,0,0:0:0:0:
402,192,27099,1,0,0:0:0:0:
329,192,27099,1,0,0:0:0:0:
329,192,27266,1,0,0:0:0:0:
36,192,27433,1,0,0:0:0:0:
256,192,27433,1,0,0:0:0:0:
36,192,27599,1,0,0:0:0:0:
109,192,27766,1,0,0:0:0:0:
182,192,27766,1,0,0:0:0:0:
329,192,27933,1,0,0:0:0:0:
475,192,28099,1,0,0:0:0:0:
36,192,28099,1,0,0:0:0:0:
256,192,28099,1,0,0:0:0:0:
256,192,28266,1,0,0:0:0:0:
109,192,28433,1,0,0:0:0:0:
329,192,28433,1,0,0:0:0:0:
182,192,28433,1,0,0:0:0:0:
475,192,28599,1,0,0:0:0:0:
182,192,28766,1,0,0:0:0:0:
36,192,28766,1,0,0:0:0:0:
402,192,28766,1,0,0:0:0:0:
256,192,28933,1,0,0:0:0:0:
402,192,29099,1,0,0:0:0:0:
329,192,29099,1,0,0:0:0:0:
109,192,29099,1,0,0:0:0:0:
329,192,29266,1,0,0:0:0:0:
182,192,29433,1,0,0:0:0:0:
36,192,29433,1,0,0:0:0:0:
475,192,29433,1,0,0:0:0:0:
182,192,29599,1,0,0:0:0:0:
109,192,29766,1,0,0:0:0:0:
329,192,29766,1,0,0:0:0:0:
402,192,29766,1,0,0:0:0:0:
182,192,29933,1,0,0:0:0:0:
402,192,29933,1,0,0:0:0:0:
475,192,30099,1,0,0:0:0:0:
36,192,30099,1,0,0:0:0:0:
256,192,30099,1,0,0:0:0:0:
256,192,30266,1,0,0:0:0:0:
329,192,30433,1,0,0:0:0:0:
109,192,30433,1,0,0:0:0:0:
36,192,30433,1,0,0:0:0:0:
475,192,30599,1,0,0:0:0:0:
402,192,30766,1,0,0:0:0:0:
182,192,30766,1,0,0:0:0:0:
109,192,30766,1,0,0:0:0:0:
329,192,30933,1,0,0:0:0:0:
182,192,31099,1,0,0:0:0:0:
36,192,31099,1,0,0:0:0:0:
475,192,31099,1,0,0:0:0:0:
36,192,31266,1,0,0:0:0:0:
256,192,31433,1,0,0:0:0:0:
182,192,31433,1,0,0:0:0:0:
475,192,31599,1,0,0:0:0:0:
256,192,31599,1,0,0:0:0:0:
402,192,31766,1,0,0:0:0:0:
182,192,31766,1,0,0:0:0:0:
36,192,31766,1,0,0:0:0:0:
329,192,31933,1,0,0:0:0:0:
182,192,31933,1,0,0:0:0:0:
36,192,32099,1,0,0:0:0:0:
256,192,32099,1,0,0:0:0:0:
475,192,32099,1,0,0:0:0:0:
109,192,32266,1,0,0:0:0:0:
475,192,32266,1,0,0:0:0:0:
182,192,32433,1,0,0:0:0:0:
402,192,32433,1,0,0:0:0:0:
36,192,32433,1,0,0:0:0:0:
329,192,32599,1,0,0:0:0:0:
256,192,32766,1,0,0:0:0:0:
475,192,32766,1,0,0:0:0:0:
109,192,32766,1,0,0:0:0:0:
402,192,32933,1,0,0:0:0:0:
256,192,32933,1,0,0:0:0:0:
36,192,33099,1,0,0:0:0:0:
329,192,33099,1,0,0:0:0:0:
109,192,33099,1,0,0:0:0:0:
475,192,33266,1,0,0:0:0:0:
402,192,33266,1,0,0:0:0:0:
182,192,33349,1,0,0:0:0:0:
329,192,33433,1,0,0:0:0:0:
402,192,33433,1,0,0:0:0:0:
36,192,33599,1,0,0:0:0:0:
109,192,33599,1,0,0:0:0:0:
329,192,33683,1,0,0:0:0:0:
182,192,33766,1,0,0:0:0:0:
256,192,33766,1,0,0:0:0:0:
402,192,33933,1,0,0:0:0:0:
36,192,34099,1,4,0:0:0:70:ticks.wav
109,192,34099,1,0,0:0:0:0:
475,192,34099,1,0,0:0:0:0:
256,192,34099,1,4,0:0:0:0:
329,192,34266,1,0,0:0:0:0:
402,192,34433,1,0,0:0:0:0:
182,192,34433,1,0,0:0:0:0:
36,192,34433,1,0,0:0:0:0:
256,192,34599,1,0,0:0:0:0:
329,192,34766,1,0,0:0:0:0:
475,192,34766,1,0,0:0:0:0:
182,192,34933,1,0,0:0:0:0:
36,192,35016,1,0,0:0:0:0:
256,192,35099,1,0,0:0:0:70:ticks.wav
475,192,35099,1,0,0:0:0:0:
402,192,35099,1,0,0:0:0:0:
329,192,35099,1,0,0:0:0:0:
182,192,35266,1,0,0:0:0:0:
109,192,35433,1,0,0:0:0:0:
329,192,35433,1,0,0:0:0:0:
256,192,35599,1,0,0:0:0:0:
402,192,35766,1,0,0:0:0:0:
182,192,35766,1,0,0:0:0:0:
36,192,35766,1,0,0:0:0:0:
329,192,35933,1,0,0:0:0:0:
109,192,36016,1,0,0:0:0:0:
402,192,36099,1,0,0:0:0:70:ticks.wav
256,192,36099,1,0,0:0:0:0:
475,192,36099,1,0,0:0:0:0:
182,192,36099,1,0,0:0:0:0:
36,192,36266,1,0,0:0:0:0:
182,192,36433,1,0,0:0:0:0:
402,192,36433,1,0,0:0:0:0:
475,192,36433,1,0,0:0:0:0:
256,192,36599,1,0,0:0:0:0:
475,192,36766,1,0,0:0:0:0:
256,192,36766,1,0,0:0:0:0:
402,192,36766,1,0,0:0:0:0:
182,192,36933,1,0,0:0:0:0:
36,192,37099,1,0,0:0:0:70:ticks.wav
256,192,37099,1,0,0:0:0:0:
109,192,37099,1,0,0:0:0:0:
402,192,37099,1,0,0:0:0:0:
475,192,37266,1,0,0:0:0:0:
109,192,37433,1,0,0:0:0:0:
182,192,37433,1,0,0:0:0:0:
475,192,37599,1,0,0:0:0:0:
402,192,37683,1,0,0:0:0:0:
329,192,37766,1,0,0:0:0:0:
36,192,37766,1,0,0:0:0:0:
109,192,37933,1,0,0:0:0:0:
475,192,38099,1,0,0:0:0:70:ticks.wav
256,192,38099,1,0,0:0:0:0:
182,192,38099,1,0,0:0:0:0:
36,192,38099,1,0,0:0:0:0:
402,192,38266,1,0,0:0:0:0:
182,192,38266,1,0,0:0:0:0:
329,192,38349,1,0,0:0:0:0:
256,192,38433,1,0,0:0:0:0:
36,192,38433,1,0,0:0:0:0:
475,192,38433,1,0,0:0:0:0:
329,192,38599,1,0,0:0:0:0:
402,192,38766,1,0,0:0:0:0:
182,192,38766,1,0,0:0:0:0:
36,192,38766,1,0,0:0:0:0:
256,192,38766,1,0,0:0:0:0:
475,192,38933,1,0,0:0:0:0:
256,192,39099,1,0,0:0:0:70:ticks.wav
36,192,39099,1,0,0:0:0:0:
182,192,39099,1,0,0:0:0:0:
109,192,39099,1,0,0:0:0:0:
329,192,39266,1,0,0:0:0:0:
475,192,39433,1,0,0:0:0:0:
109,192,39433,1,0,0:0:0:0:
402,192,39599,1,0,0:0:0:0:
36,192,39766,1,0,0:0:0:0:
109,192,39766,1,0,0:0:0:0:
256,192,39766,1,0,0:0:0:0:
329,192,39933,1,0,0:0:0:0:
182,192,40099,1,0,0:0:0:70:ticks.wav
256,192,40099,1,0,0:0:0:0:
475,192,40099,1,0,0:0:0:0:
36,192,40099,1,0,0:0:0:0:
402,192,40266,1,0,0:0:0:0:
182,192,40266,1,0,0:0:0:0:
329,192,40433,1,0,0:0:0:0:
109,192,40433,1,0,0:0:0:0:
36,192,40433,1,0,0:0:0:0:
475,192,40433,1,0,0:0:0:0:
182,192,40599,1,0,0:0:0:0:
475,192,40766,1,0,0:0:0:0:
36,192,40766,1,0,0:0:0:0:
402,192,40766,1,0,0:0:0:0:
256,192,40766,1,0,0:0:0:0:
109,192,40849,1,0,0:0:0:0:
402,192,40933,1,0,0:0:0:0:
329,192,41016,1,0,0:0:0:0:
475,192,41099,1,0,0:0:0:70:ticks.wav
256,192,41099,1,0,0:0:0:0:
36,192,41099,1,0,0:0:0:0:
182,192,41099,1,0,0:0:0:0:
109,192,41266,1,0,0:0:0:0:
182,192,41433,1,0,0:0:0:0:
402,192,41433,1,0,0:0:0:0:
36,192,41599,1,0,0:0:0:0:
329,192,41766,1,0,0:0:0:0:
109,192,41766,1,0,0:0:0:0:
182,192,41766,1,0,0:0:0:0:
475,192,41933,1,0,0:0:0:0:
36,192,42016,1,0,0:0:0:0:
256,192,42099,1,0,0:0:0:70:ticks.wav
402,192,42099,1,0,0:0:0:0:
329,192,42099,1,0,0:0:0:0:
109,192,42099,1,0,0:0:0:0:
182,192,42266,1,0,0:0:0:0:
109,192,42433,1,0,0:0:0:0:
402,192,42433,1,0,0:0:0:0:
36,192,42433,1,0,0:0:0:0:
329,192,42516,1,0,0:0:0:0:
475,192,42599,1,0,0:0:0:0:
402,192,42683,1,0,0:0:0:0:
329,192,42766,1,0,0:0:0:0:
36,192,42766,1,0,0:0:0:0:
329,192,42933,1,0,0:0:0:0:
36,192,42933,1,0,0:0:0:0:
256,192,43099,1,0,0:0:0:70:ticks.wav
475,192,43099,1,0,0:0:0:0:
109,192,43099,1,0,0:0:0:0:
182,192,43099,1,0,0:0:0:0:
402,192,43266,1,0,0:0:0:0:
109,192,43433,1,0,0:0:0:0:
329,192,43433,1,0,0:0:0:0:
182,192,43516,1,0,0:0:0:0:
36,192,43599,1,0,0:0:0:0:
109,192,43683,1,0,0:0:0:0:
182,192,43766,1,0,0:0:0:0:
402,192,43766,1,0,0:0:0:0:
475,192,43766,1,0,0:0:0:0:
182,192,43933,1,0,0:0:0:0:
402,192,43933,1,0,0:0:0:0:
256,192,44099,1,0,0:0:0:70:ticks.wav
36,192,44099,1,0,0:0:0:0:
329,192,44099,1,0,0:0:0:0:
109,192,44099,1,0,0:0:0:0:
182,192,44266,1,0,0:0:0:0:
109,192,44266,1,0,0:0:0:0:
402,192,44349,1,0,0:0:0:0:
36,192,44433,1,0,0:0:0:0:
256,192,44433,1,0,0:0:0:0:
329,192,44433,1,0,0:0:0:0:
475,192,44599,1,0,0:0:0:0:
329,192,44683,1,0,0:0:0:0:
256,192,44766,1,0,0:0:0:0:
182,192,44766,1,0,0:0:0:0:
256,192,44933,1,0,0:0:0:0:
182,192,44933,1,0,0:0:0:0:
475,192,45099,1,0,0:0:0:70:ticks.wav
36,192,45099,1,0,0:0:0:0:
109,192,45099,1,0,0:0:0:0:
329,192,45099,1,0,0:0:0:0:
402,192,45183,1,0,0:0:0:0:
256,192,45266,1,0,0:0:0:0:
182,192,45349,1,0,0:0:0:0:
402,192,45433,1,0,0:0:0:0:
256,192,45433,1,0,0:0:0:0:
329,192,45516,1,0,0:0:0:0:
182,192,45599,1,0,0:0:0:0:
109,192,45683,1,0,0:0:0:0:
182,192,45766,1,0,0:0:0:0:
329,192,45766,1,0,0:0:0:0:
256,192,45849,1,0,0:0:0:0:
109,192,45933,1,0,0:0:0:0:
36,192,46016,1,0,0:0:0:0:
329,192,46099,1,0,0:0:0:70:ticks.wav
256,192,46099,1,0,0:0:0:0:
402,192,46099,1,0,0:0:0:0:
109,192,46099,1,0,0:0:0:0:
475,192,46183,1,0,0:0:0:0:
109,192,46266,1,0,0:0:0:0:
182,192,46266,1,0,0:0:0:0:
329,192,46349,1,0,0:0:0:0:
36,192,46433,1,0,0:0:0:0:
182,192,46433,1,0,0:0:0:0:
475,192,46433,1,0,0:0:0:0:
109,192,46433,1,0,0:0:0:0:
256,192,46516,1,0,0:0:0:0:
402,192,46599,1,0,0:0:0:0:
475,192,46683,1,0,0:0:0:0:
109,192,46766,1,0,0:0:0:0:
182,192,46766,1,0,0:0:0:0:
329,192,46766,1,0,0:0:0:0:
109,192,46933,1,0,0:0:0:0:
182,192,46933,1,0,0:0:0:0:
256,192,47099,1,0,0:0:0:70:ticks.wav
329,192,47099,1,0,0:0:0:0:
475,192,47099,1,0,0:0:0:0:
402,192,47099,1,0,0:0:0:0:
36,192,47183,1,0,0:0:0:0:
109,192,47266,1,0,0:0:0:0:
182,192,47349,1,0,0:0:0:0:
329,192,47433,1,0,0:0:0:0:
402,192,47433,1,0,0:0:0:0:
109,192,47516,1,0,0:0:0:0:
182,192,47599,1,0,0:0:0:0:
256,192,47683,1,0,0:0:0:0:
109,192,47766,1,0,0:0:0:0:
36,192,47766,1,0,0:0:0:0:
402,192,47766,1,0,0:0:0:0:
36,192,47933,1,0,0:0:0:0:
109,192,47933,1,0,0:0:0:0:
402,192,48099,1,0,0:0:0:70:ticks.wav
256,192,48099,1,0,0:0:0:0:
475,192,48099,1,0,0:0:0:0:
329,192,48099,1,0,0:0:0:0:
182,192,48183,1,0,0:0:0:0:
109,192,48266,1,0,0:0:0:0:
36,192,48349,1,0,0:0:0:0:
475,192,48433,1,0,0:0:0:0:
402,192,48433,1,0,0:0:0:0:
256,192,48433,1,0,0:0:0:0:
109,192,48516,1,0,0:0:0:0:
182,192,48599,1,0,0:0:0:0:
329,192,48683,1,0,0:0:0:0:
36,192,48766,1,0,0:0:0:0:
109,192,48766,1,0,0:0:0:0:
475,192,48766,1,0,0:0:0:0:
402,192,48849,1,0,0:0:0:0:
182,192,48933,1,0,0:0:0:0:
36,192,49016,1,0,0:0:0:0:
329,192,49099,1,0,0:0:0:70:ticks.wav
475,192,49099,1,0,0:0:0:0:
402,192,49099,1,0,0:0:0:0:
109,192,49099,1,0,0:0:0:0:
256,192,49183,1,0,0:0:0:0:
329,192,49266,1,0,0:0:0:0:
475,192,49349,1,0,0:0:0:0:
329,192,49433,1,0,0:0:0:0:
256,192,49433,1,0,0:0:0:0:
182,192,49516,1,0,0:0:0:0:
256,192,49599,1,0,0:0:0:0:
402,192,49683,1,0,0:0:0:0:
182,192,49766,1,0,0:0:0:0:
109,192,49766,1,0,0:0:0:0:
36,192,49849,1,0,0:0:0:0:
109,192,49933,1,0,0:0:0:0:
256,192,50016,1,0,0:0:0:0:
329,192,50099,1,4,0:0:0:70:ticks.wav
36,192,50099,1,0,0:0:0:0:
475,192,50099,1,0,0:0:0:0:
402,192,50099,1,4,0:0:0:0:
182,192,50349,1,0,0:0:0:0:
109,192,50349,1,0,0:0:0:0:
475,192,50349,1,0,0:0:0:0:
182,192,50433,1,0,0:0:0:0:
109,192,50433,1,0,0:0:0:0:
329,192,50433,1,0,0:0:0:0:
329,192,50683,1,0,0:0:0:0:
475,192,50683,1,0,0:0:0:0:
36,192,50683,1,0,0:0:0:0:
329,192,50766,1,0,0:0:0:0:
475,192,50766,1,0,0:0:0:0:
109,192,50766,1,0,0:0:0:0:
256,192,51099,1,0,0:0:0:70:ticks.wav
36,192,51099,1,0,0:0:0:0:
475,192,51099,1,0,0:0:0:0:
329,192,51349,1,0,0:0:0:0:
402,192,51349,1,0,0:0:0:0:
36,192,51349,1,0,0:0:0:0:
329,192,51433,1,0,0:0:0:0:
402,192,51433,1,0,0:0:0:0:
182,192,51433,1,0,0:0:0:0:
329,192,51683,1,0,0:0:0:0:
475,192,51683,1,0,0:0:0:0:
109,192,51683,1,0,0:0:0:0:
329,192,51766,1,0,0:0:0:0:
475,192,51766,1,0,0:0:0:0:
36,192,51766,1,0,0:0:0:0:
256,192,52099,1,0,0:0:0:70:ticks.wav
36,192,52099,1,0,0:0:0:0:
475,192,52099,1,0,0:0:0:0:
109,192,52349,1,0,0:0:0:0:
182,192,52349,1,0,0:0:0:0:
329,192,52349,1,0,0:0:0:0:
109,192,52433,1,0,0:0:0:0:
182,192,52433,1,0,0:0:0:0:
402,192,52433,1,0,0:0:0:0:
36,192,52683,1,0,0:0:0:0:
109,192,52683,1,0,0:0:0:0:
475,192,52683,1,0,0:0:0:0:
36,192,52766,1,0,0:0:0:0:
109,192,52766,1,0,0:0:0:0:
329,192,52766,1,0,0:0:0:0:
475,192,53016,1,0,0:0:0:0:
256,192,53016,1,0,0:0:0:0:
402,192,53016,1,0,0:0:0:0:
329,192,53099,1,0,0:0:0:70:ticks.wav
109,192,53099,1,0,0:0:0:0:
36,192,53099,1,0,0:0:0:0:
182,192,53099,1,0,0:0:0:0:
36,192,53349,1,0,0:0:0:0:
182,192,53349,1,0,0:0:0:0:
475,192,53349,1,0,0:0:0:0:
36,192,53433,1,0,0:0:0:0:
182,192,53433,1,0,0:0:0:0:
329,192,53433,1,0,0:0:0:0:
182,192,53683,1,0,0:0:0:0:
109,192,53683,1,0,0:0:0:0:
475,192,53683,1,0,0:0:0:0:
182,192,53766,1,0,0:0:0:0:
402,192,53766,1,0,0:0:0:0:
109,192,53766,1,0,0:0:0:0:
475,192,54016,1,0,0:0:0:0:
36,192,54016,1,0,0:0:0:0:
402,192,54016,1,0,0:0:0:0:
475,192,54099,1,0,0:0:0:70:ticks.wav
402,192,54099,1,0,0:0:0:0:
256,192,54099,1,0,0:0:0:0:
182,192,54099,1,0,0:0:0:0:
329,192,54349,1,0,0:0:0:0:
475,192,54349,1,0,0:0:0:0:
109,192,54349,1,0,0:0:0:0:
329,192,54433,1,0,0:0:0:0:
475,192,54433,1,0,0:0:0:0:
182,192,54433,1,0,0:0:0:0:
329,192,54683,1,0,0:0:0:0:
109,192,54683,1,0,0:0:0:0:
182,192,54683,1,0,0:0:0:0:
182,192,54766,1,0,0:0:0:0:
109,192,54766,1,0,0:0:0:0:
475,192,54766,1,0,0:0:0:0:
402,192,55016,1,0,0:0:0:0:
475,192,55016,1,0,0:0:0:0:
36,192,55016,1,0,0:0:0:0:
402,192,55099,1,0,0:0:0:70:ticks.wav
475,192,55099,1,0,0:0:0:0:
256,192,55099,1,0,0:0:0:0:
36,192,55099,1,0,0:0:0:0:
109,192,55349,1,0,0:0:0:0:
182,192,55349,1,0,0:0:0:0:
402,192,55349,1,0,0:0:0:0:
109,192,55433,1,0,0:0:0:0:
182,192,55433,1,0,0:0:0:0:
402,192,55433,1,0,0:0:0:0:
475,192,55683,1,0,0:0:0:0:
329,192,55683,1,0,0:0:0:0:
36,192,55683,1,0,0:0:0:0:
475,192,55766,1,0,0:0:0:0:
329,192,55766,1,0,0:0:0:0:
36,192,55766,1,0,0:0:0:0:
36,192,56016,1,0,0:0:0:0:
402,192,56016,1,0,0:0:0:0:
109,192,56016,1,0,0:0:0:0:
36,192,56099,1,0,0:0:0:70:ticks.wav
402,192,56099,1,0,0:0:0:0:
109,192,56099,1,0,0:0:0:0:
256,192,56211,1,0,0:0:0:0:
475,192,56211,1,0,0:0:0:0:
329,192,56322,1,0,0:0:0:0:
109,192,56322,1,0,0:0:0:0:
182,192,56433,1,0,0:0:0:0:
402,192,56433,1,0,0:0:0:0:
256,192,56544,1,0,0:0:0:0:
36,192,56544,1,0,0:0:0:0:
329,192,56655,1,0,0:0:0:0:
109,192,56655,1,0,0:0:0:0:
182,192,56766,1,0,0:0:0:0:
475,192,56766,1,0,0:0:0:0:
329,192,56877,1,0,0:0:0:0:
36,192,56877,1,0,0:0:0:0:
182,192,56988,1,0,0:0:0:0:
402,192,56988,1,0,0:0:0:0:
475,192,57099,1,0,0:0:0:70:ticks.wav
256,192,57099,1,0,0:0:0:0:
402,192,57211,1,0,0:0:0:0:
109,192,57211,1,0,0:0:0:0:
329,192,57322,1,0,0:0:0:0:
36,192,57322,1,0,0:0:0:0:
182,192,57433,1,0,0:0:0:0:
475,192,57433,1,0,0:0:0:0:
36,192,57544,1,0,0:0:0:0:
256,192,57544,1,0,0:0:0:0:
329,192,57655,1,0,0:0:0:0:
109,192,57655,1,0,0:0:0:0:
475,192,57766,1,0,0:0:0:0:
182,192,57766,1,0,0:0:0:0:
36,192,57877,1,0,0:0:0:0:
329,192,57877,1,0,0:0:0:0:
402,192,57988,1,0,0:0:0:0:
109,192,57988,1,0,0:0:0:0:
475,192,58099,1,4,0:0:0:70:ticks.wav
182,192,58099,1,0,0:0:0:0:
256,192,58099,1,4,0:0:0:0:
329,192,58433,1,0,0:0:0:0:
109,192,58766,1,0,0:0:0:0:
256,192,59099,1,0,0:0:0:70:ticks.wav
182,192,59099,1,0,0:0:0:0:
402,192,59099,1,0,0:0:0:0:
36,192,59766,1,0,0:0:0:0:
256,192,60099,1,0,0:0:0:70:ticks.wav
475,192,60099,1,0,0:0:0:0:
109,192,60099,1,0,0:0:0:0:
402,192,60433,1,0,0:0:0:0:
182,192,60766,1,0,0:0:0:0:
256,192,61099,1,0,0:0:0:70:ticks.wav
329,192,61099,1,0,0:0:0:0:
36,192,61099,1,0,0:0:0:0:
475,192,61766,1,0,0:0:0:0:
475,192,62099,1,0,0:0:0:70:ticks.wav
256,192,62099,1,0,0:0:0:0:
109,192,62099,1,0,0:0:0:0:
36,192,62099,1,0,0:0:0:0:
182,192,62433,1,0,0:0:0:0:
402,192,62433,1,0,0:0:0:0:
329,192,62766,1,0,0:0:0:0:
109,192,62766,1,0,0:0:0:0:
256,192,63099,1,0,0:0:0:70:ticks.wav
329,192,63099,1,0,0:0:0:0:
109,192,63099,1,0,0:0:0:0:
475,192,63099,1,0,0:0:0:0:
256,192,63433,1,0,0:0:0:0:
36,192,63433,1,0,0:0:0:0:
109,192,63766,1,0,0:0:0:0:
329,192,63766,1,0,0:0:0:0:
182,192,64099,128,4,66099:0:0:0:70:ticks.wav
256,192,64099,1,4,0:0:0:0:
36,192,64099,1,0,0:0:0:0:
475,192,64099,1,0,0:0:0:0:
402,192,64183,1,0,0:0:0:0:
329,192,64266,1,0,0:0:0:0:
109,192,64266,1,0,0:0:0:0:
475,192,64349,1,0,0:0:0:0:
36,192,64433,1,0,0:0:0:0:
256,192,64433,1,0,0:0:0:0:
329,192,64516,1,0,0:0:0:0:
475,192,64599,1,0,0:0:0:0:
402,192,64599,1,0,0:0:0:0:
109,192,64683,1,0,0:0:0:0:
109,192,64766,1,0,0:0:0:0:
329,192,64766,1,0,0:0:0:0:
475,192,64849,1,0,0:0:0:0:
256,192,64933,1,0,0:0:0:0:
36,192,64933,1,0,0:0:0:0:
402,192,65016,1,0,0:0:0:0:
402,192,65099,1,0,0:0:0:70:ticks.wav
109,192,65099,1,0,0:0:0:0:
475,192,65099,1,0,0:0:0:0:
36,192,65183,1,0,0:0:0:0:
256,192,65266,1,0,0:0:0:0:
475,192,65266,1,0,0:0:0:0:
402,192,65349,1,0,0:0:0:0:
329,192,65433,1,0,0:0:0:0:
109,192,65433,1,0,0:0:0:0:
475,192,65516,1,0,0:0:0:0:
402,192,65599,1,0,0:0:0:0:
256,192,65599,1,0,0:0:0:0:
36,192,65683,1,0,0:0:0:0:
36,192,65766,1,0,0:0:0:0:
475,192,65766,1,0,0:0:0:0:
329,192,65849,1,0,0:0:0:0:
402,192,65933,1,0,0:0:0:0:
475,192,65933,1,0,0:0:0:0:
329,192,66099,128,0,68099:0:0:0:70:ticks.wav
256,192,66099,1,0,0:0:0:0:
36,192,66099,1,0,0:0:0:0:
109,192,66099,1,0,0:0:0:0:
475,192,66183,1,0,0:0:0:0:
182,192,66266,1,0,0:0:0:0:
36,192,66266,1,0,0:0:0:0:
402,192,66349,1,0,0:0:0:0:
402,192,66433,1,0,0:0:0:0:
109,192,66433,1,0,0:0:0:0:
256,192,66516,1,0,0:0:0:0:
475,192,66599,1,0,0:0:0:0:
402,192,66599,1,0,0:0:0:0:
182,192,66683,1,0,0:0:0:0:
182,192,66766,1,0,0:0:0:0:
256,192,66766,1,0,0:0:0:0:
109,192,66933,1,0,0:0:0:0:
475,192,66933,1,0,0:0:0:0:
402,192,67016,1,0,0:0:0:0:
256,192,67099,1,0,0:0:0:70:ticks.wav
182,192,67099,1,0,0:0:0:0:
36,192,67099,1,0,0:0:0:0:
475,192,67183,1,0,0:0:0:0:
109,192,67266,1,0,0:0:0:0:
182,192,67266,1,0,0:0:0:0:
256,192,67349,1,0,0:0:0:0:
402,192,67433,1,0,0:0:0:0:
475,192,67433,1,0,0:0:0:0:
36,192,67516,1,0,0:0:0:0:
475,192,67599,1,0,0:0:0:0:
182,192,67599,1,0,0:0:0:0:
256,192,67683,1,0,0:0:0:0:
475,192,67766,1,0,0:0:0:0:
109,192,67766,1,0,0:0:0:0:
402,192,67849,1,0,0:0:0:0:
256,192,67933,1,0,0:0:0:0:
36,192,67933,1,0,0:0:0:0:
182,192,68016,1,0,0:0:0:0:
109,192,68099,1,4,0:0:0:70:ticks.wav
402,192,68099,1,4,0:0:0:0:
475,192,68099,1,0,0:0:0:0:
329,192,68266,1,0,0:0:0:0:
256,192,68433,1,0,0:0:0:0:
109,192,68599,1,0,0:0:0:0:
182,192,68766,1,0,0:0:0:0:
402,192,68933,1,0,0:0:0:0:
109,192,69099,1,0,0:0:0:70:ticks.wav
36,192,69099,1,0,0:0:0:0:
256,192,69099,1,0,0:0:0:0:
475,192,69433,1,0,0:0:0:0:
109,192,70099,1,0,0:0:0:70:ticks.wav
475,192,70099,1,0,0:0:0:0:
329,192,70099,1,0,0:0:0:0:
256,192,70266,1,0,0:0:0:0:
36,192,70433,1,0,0:0:0:0:
182,192,70599,1,0,0:0:0:0:
329,192,70766,1,0,0:0:0:0:
475,192,70933,1,0,0:0:0:0:
256,192,71099,1,0,0:0:0:70:ticks.wav
182,192,71099,1,0,0:0:0:0:
36,192,71099,1,0,0:0:0:0:
109,192,71433,1,0,0:0:0:0:
475,192,71766,1,0,0:0:0:0:
402,192,72099,1,0,0:0:0:70:ticks.wav
256,192,72099,1,0,0:0:0:0:
182,192,72099,1,0,0:0:0:0:
109,192,72433,1,0,0:0:0:0:
182,192,72599,1,0,0:0:0:0:
329,192,72766,1,0,0:0:0:0:
475,192,72933,1,0,0:0:0:0:
182,192,73099,1,0,0:0:0:70:ticks.wav
36,192,73099,1,0,0:0:0:0:
256,192,73099,1,0,0:0:0:0:
109,192,73433,1,0,0:0:0:0:
182,192,73599,1,0,0:0:0:0:
329,192,73766,1,0,0:0:0:0:
475,192,73933,1,0,0:0:0:0:
256,192,74099,1,0,0:0:0:70:ticks.wav
402,192,74099,1,0,0:0:0:0:
36,192,74099,1,0,0:0:0:0:
109,192,74266,1,0,0:0:0:0:
182,192,74266,1,0,0:0:0:0:
475,192,74433,1,0,0:0:0:0:
256,192,74599,1,0,0:0:0:0:
182,192,74599,1,0,0:0:0:0:
475,192,74766,1,0,0:0:0:0:
256,192,74933,1,0,0:0:0:0:
329,192,74933,1,0,0:0:0:0:
182,192,75099,1,0,0:0:0:70:ticks.wav
36,192,75099,1,0,0:0:0:0:
402,192,75099,1,0,0:0:0:0:
109,192,75766,1,0,0:0:0:0:
182,192,75849,1,0,0:0:0:0:
475,192,75933,1,0,0:0:0:0:
402,192,76016,1,0,0:0:0:0:
329,192,76099,1,4,0:0:0:70:ticks.wav
256,192,76099,1,4,0:0:0:0:
109,192,76099,1,0,0:0:0:0:
36,192,76099,128,0,77016:0:0:0:0:
182,192,76266,1,0,0:0:0:0:
402,192,76266,1,0,0:0:0:0:
475,192,76266,1,0,0:0:0:0:
329,192,76349,1,0,0:0:0:0:
109,192,76433,1,0,0:0:0:0:
256,192,76433,1,0,0:0:0:0:
402,192,76516,1,0,0:0:0:0:
182,192,76599,1,0,0:0:0:0:
475,192,76599,1,0,0:0:0:0:
329,192,76683,1,0,0:0:0:0:
402,192,76766,1,0,0:0:0:0:
109,192,76766,1,0,0:0:0:0:
256,192,76849,1,0,0:0:0:0:
402,192,76933,1,0,0:0:0:0:
329,192,76933,1,0,0:0:0:0:
182,192,77016,1,0,0:0:0:0:
182,192,77099,1,0,0:0:0:70:ticks.wav
329,192,77099,1,0,0:0:0:0:
36,192,77099,1,0,0:0:0:0:
475,192,77099,128,0,78016:0:0:0:0:
402,192,77183,1,0,0:0:0:0:
182,192,77266,1,0,0:0:0:0:
256,192,77266,1,0,0:0:0:0:
36,192,77349,1,0,0:0:0:0:
402,192,77433,1,0,0:0:0:0:
109,192,77433,1,0,0:0:0:0:
182,192,77516,1,0,0:0:0:0:
256,192,77599,1,0,0:0:0:0:
329,192,77599,1,0,0:0:0:0:
109,192,77683,1,0,0:0:0:0:
36,192,77766,1,0,0:0:0:0:
402,192,77766,1,0,0:0:0:0:
256,192,77849,1,0,0:0:0:0:
109,192,77933,1,0,0:0:0:0:
182,192,77933,1,0,0:0:0:0:
329,192,78016,1,0,0:0:0:0:
329,192,78099,1,0,0:0:0:70:ticks.wav
475,192,78099,1,0,0:0:0:0:
256,192,78099,128,0,79016:0:0:0:0:
36,192,78099,1,0,0:0:0:0:
109,192,78183,1,0,0:0:0:0:
182,192,78266,1,0,0:0:0:0:
475,192,78266,1,0,0:0:0:0:
329,192,78349,1,0,0:0:0:0:
402,192,78433,1,0,0:0:0:0:
36,192,78433,1,0,0:0:0:0:
109,192,78433,1,0,0:0:0:0:
182,192,78599,1,0,0:0:0:0:
109,192,78599,1,0,0:0:0:0:
402,192,78599,1,0,0:0:0:0:
329,192,78683,1,0,0:0:0:0:
36,192,78766,1,0,0:0:0:0:
475,192,78766,1,0,0:0:0:0:
109,192,78849,1,0,0:0:0:0:
402,192,78933,1,0,0:0:0:0:
329,192,78933,1,0,0:0:0:0:
182,192,79016,1,0,0:0:0:0:
475,192,79099,128,0,79433:0:0:0:70:ticks.wav
36,192,79099,1,0,0:0:0:0:
182,192,79099,1,0,0:0:0:0:
329,192,79183,1,0,0:0:0:0:
402,192,79183,1,0,0:0:0:0:
36,192,79266,1,0,0:0:0:0:
109,192,79266,1,0,0:0:0:0:
329,192,79349,1,0,0:0:0:0:
256,192,79349,1,0,0:0:0:0:
182,192,79433,1,0,0:0:0:0:
109,192,79433,128,0,79766:0:0:0:0:
402,192,79433,1,0,0:0:0:0:
475,192,79599,1,0,0:0:0:0:
182,192,79599,1,0,0:0:0:0:
256,192,79599,1,0,0:0:0:0:
402,192,79683,1,0,0:0:0:0:
36,192,79766,128,0,80099:0:0:0:0:
329,192,79766,1,0,0:0:0:0:
475,192,79849,1,0,0:0:0:0:
182,192,79849,1,0,0:0:0:0:
402,192,79933,1,0,0:0:0:0:
109,192,79933,1,0,0:0:0:0:
329,192,80016,1,0,0:0:0:0:
256,192,80016,1,0,0:0:0:0:
402,192,80099,128,0,81016:0:0:0:70:ticks.wav
109,192,80099,1,0,0:0:0:0:
182,192,80099,1,0,0:0:0:0:
475,192,80099,1,0,0:0:0:0:
329,192,80183,1,0,0:0:0:0:
36,192,80266,1,0,0:0:0:0:
256,192,80266,1,0,0:0:0:0:
109,192,80349,1,0,0:0:0:0:
182,192,80433,1,0,0:0:0:0:
475,192,80433,1,0,0:0:0:0:
329,192,80516,1,0,0:0:0:0:
36,192,80599,1,0,0:0:0:0:
109,192,80599,1,0,0:0:0:0:
256,192,80683,1,0,0:0:0:0:
475,192,80766,1,0,0:0:0:0:
109,192,80766,1,0,0:0:0:0:
182,192,80849,1,0,0:0:0:0:
329,192,80933,1,0,0:0:0:0:
256,192,80933,1,0,0:0:0:0:
36,192,81016,1,0,0:0:0:0:
36,192,81099,1,0,0:0:0:70:ticks.wav
475,192,81099,128,0,82016:0:0:0:0:
402,192,81099,1,0,0:0:0:0:
182,192,81099,1,0,0:0:0:0:
329,192,81183,1,0,0:0:0:0:
109,192,81266,1,0,0:0:0:0:
256,192,81266,1,0,0:0:0:0:
402,192,81349,1,0,0:0:0:0:
36,192,81433,1,0,0:0:0:0:
182,192,81433,1,0,0:0:0:0:
256,192,81516,1,0,0:0:0:0:
402,192,81599,1,0,0:0:0:0:
109,192,81599,1,0,0:0:0:0:
182,192,81683,1,0,0:0:0:0:
256,192,81766,1,0,0:0:0:0:
36,192,81766,1,0,0:0:0:0:
109,192,81849,1,0,0:0:0:0:
329,192,81933,1,0,0:0:0:0:
402,192,81933,1,0,0:0:0:0:
182,192,82016,1,0,0:0:0:0:
182,192,82099,1,0,0:0:0:70:ticks.wav
475,192,82099,1,0,0:0:0:0:
36,192,82099,1,0,0:0:0:0:
256,192,82099,128,0,82349:0:0:0:0:
402,192,82183,1,0,0:0:0:0:
109,192,82266,1,0,0:0:0:0:
182,192,82266,1,0,0:0:0:0:
329,192,82349,1,0,0:0:0:0:
329,192,82433,1,0,0:0:0:0:
475,192,82433,1,0,0:0:0:0:
36,192,82433,128,0,82683:0:0:0:0:
109,192,82516,1,0,0:0:0:0:
402,192,82599,1,0,0:0:0:0:
475,192,82599,1,0,0:0:0:0:
182,192,82683,1,0,0:0:0:0:
182,192,82766,1,0,0:0:0:0:
36,192,82766,1,0,0:0:0:0:
402,192,82766,128,0,83016:0:0:0:0:
475,192,82849,1,0,0:0:0:0:
329,192,82933,1,0,0:0:0:0:
256,192,82933,1,0,0:0:0:0:
109,192,83016,1,0,0:0:0:0:
475,192,83099,128,0,83433:0:0:0:70:ticks.wav
182,192,83099,1,0,0:0:0:0:
109,192,83099,1,0,0:0:0:0:
36,192,83099,1,0,0:0:0:0:
402,192,83183,1,0,0:0:0:0:
36,192,83266,1,0,0:0:0:0:
256,192,83266,1,0,0:0:0:0:
329,192,83266,1,0,0:0:0:0:
256,192,83433,128,0,83766:0:0:0:0:
402,192,83433,1,0,0:0:0:0:
182,192,83433,1,0,0:0:0:0:
475,192,83516,1,0,0:0:0:0:
36,192,83516,1,0,0:0:0:0:
329,192,83599,1,0,0:0:0:0:
109,192,83599,1,0,0:0:0:0:
182,192,83683,1,0,0:0:0:0:
402,192,83683,1,0,0:0:0:0:
475,192,83766,128,0,84099:0:0:0:0:
36,192,83766,1,0,0:0:0:0:
256,192,83849,1,0,0:0:0:0:
329,192,83849,1,0,0:0:0:0:
36,192,83933,1,0,0:0:0:0:
182,192,83933,1,0,0:0:0:0:
329,192,84016,1,0,0:0:0:0:
402,192,84016,1,0,0:0:0:0:
36,192,84099,1,4,0:0:0:70:ticks.wav
182,192,84099,1,0,0:0:0:0:
256,192,84099,1,0,0:0:0:0:
109,192,84099,128,0,85016:0:0:0:0:
402,192,84183,1,0,0:0:0:0:
475,192,84266,1,0,0:0:0:0:
182,192,84266,1,0,0:0:0:0:
256,192,84349,1,0,0:0:0:0:
329,192,84433,1,0,0:0:0:0:
36,192,84433,1,0,0:0:0:0:
475,192,84516,1,0,0:0:0:0:
182,192,84599,1,0,0:0:0:0:
256,192,84599,1,0,0:0:0:0:
329,192,84683,1,0,0:0:0:0:
475,192,84766,1,0,0:0:0:0:
36,192,84766,1,0,0:0:0:0:
402,192,84849,1,0,0:0:0:0:
182,192,84933,1,0,0:0:0:0:
329,192,84933,1,0,0:0:0:0:
475,192,85016,1,0,0:0:0:0:
475,192,85099,1,0,0:0:0:70:ticks.wav
36,192,85099,1,0,0:0:0:0:
109,192,85099,1,0,0:0:0:0:
256,192,85099,128,0,86016:0:0:0:0:
182,192,85183,1,0,0:0:0:0:
402,192,85266,1,0,0:0:0:0:
329,192,85266,1,0,0:0:0:0:
109,192,85349,1,0,0:0:0:0:
36,192,85433,1,0,0:0:0:0:
475,192,85433,1,0,0:0:0:0:
402,192,85516,1,0,0:0:0:0:
329,192,85599,1,0,0:0:0:0:
109,192,85599,1,0,0:0:0:0:
182,192,85683,1,0,0:0:0:0:
402,192,85766,1,0,0:0:0:0:
36,192,85766,1,0,0:0:0:0:
109,192,85849,1,0,0:0:0:0:
329,192,85933,1,0,0:0:0:0:
475,192,85933,1,0,0:0:0:0:
182,192,86016,1,0,0:0:0:0:
182,192,86099,1,0,0:0:0:70:ticks.wav
36,192,86099,1,0,0:0:0:0:
402,192,86099,1,0,0:0:0:0:
475,192,86099,128,0,87016:0:0:0:0:
329,192,86183,1,0,0:0:0:0:
256,192,86266,1,0,0:0:0:0:
109,192,86266,1,0,0:0:0:0:
402,192,86349,1,0,0:0:0:0:
329,192,86433,1,0,0:0:0:0:
182,192,86433,1,0,0:0:0:0:
36,192,86433,1,0,0:0:0:0:
402,192,86599,1,0,0:0:0:0:
109,192,86599,1,0,0:0:0:0:
329,192,86599,1,0,0:0:0:0:
256,192,86683,1,0,0:0:0:0:
182,192,86766,1,0,0:0:0:0:
36,192,86766,1,0,0:0:0:0:
402,192,86849,1,0,0:0:0:0:
109,192,86933,1,0,0:0:0:0:
182,192,86933,1,0,0:0:0:0:
329,192,87016,1,0,0:0:0:0:
329,192,87099,1,0,0:0:0:70:ticks.wav
475,192,87099,1,0,0:0:0:0:
109,192,87099,1,0,0:0:0:0:
36,192,87099,128,0,87433:0:0:0:0:
402,192,87266,1,0,0:0:0:0:
256,192,87266,1,0,0:0:0:0:
182,192,87266,1,0,0:0:0:0:
109,192,87433,128,0,87766:0:0:0:0:
329,192,87433,1,0,0:0:0:0:
256,192,87433,1,0,0:0:0:0:
402,192,87599,1,0,0:0:0:0:
329,192,87599,1,0,0:0:0:0:
182,192,87599,1,0,0:0:0:0:
475,192,87766,128,0,88099:0:0:0:0:
182,192,87766,1,0,0:0:0:0:
36,192,87766,1,0,0:0:0:0:
402,192,87849,1,0,0:0:0:0:
256,192,87849,1,0,0:0:0:0:
36,192,87933,1,0,0:0:0:0:
109,192,87933,1,0,0:0:0:0:
402,192,88016,1,0,0:0:0:0:
329,192,88016,1,0,0:0:0:0:
109,192,88099,1,0,0:0:0:70:ticks.wav
182,192,88099,1,0,0:0:0:0:
256,192,88099,128,0,89016:0:0:0:0:
36,192,88099,1,0,0:0:0:0:
475,192,88183,1,0,0:0:0:0:
329,192,88266,1,0,0:0:0:0:
182,192,88266,1,0,0:0:0:0:
36,192,88349,1,0,0:0:0:0:
109,192,88433,1,0,0:0:0:0:
475,192,88433,1,0,0:0:0:0:
402,192,88516,1,0,0:0:0:0:
36,192,88599,1,0,0:0:0:0:
329,192,88599,1,0,0:0:0:0:
182,192,88683,1,0,0:0:0:0:
402,192,88766,1,0,0:0:0:0:
475,192,88766,1,0,0:0:0:0:
109,192,88849,1,0,0:0:0:0:
182,192,88933,1,0,0:0:0:0:
402,192,89016,1,0,0:0:0:0:
402,192,89099,1,0,0:0:0:70:ticks.wav
329,192,89099,1,0,0:0:0:0:
36,192,89099,128,0,89433:0:0:0:0:
109,192,89183,1,0,0:0:0:0:
182,192,89183,1,0,0:0:0:0:
475,192,89266,1,0,0:0:0:0:
402,192,89266,1,0,0:0:0:0:
329,192,89349,1,0,0:0:0:0:
256,192,89349,1,0,0:0:0:0:
475,192,89433,128,0,89766:0:0:0:0:
109,192,89433,1,0,0:0:0:0:
402,192,89516,1,0,0:0:0:0:
182,192,89516,1,0,0:0:0:0:
36,192,89599,1,0,0:0:0:0:
256,192,89599,1,0,0:0:0:0:
109,192,89683,1,0,0:0:0:0:
329,192,89683,1,0,0:0:0:0:
182,192,89766,128,0,90099:0:0:0:0:
402,192,89766,1,0,0:0:0:0:
256,192,89849,1,0,0:0:0:0:
36,192,89849,1,0,0:0:0:0:
329,192,89933,1,0,0:0:0:0:
109,192,89933,1,0,0:0:0:0:
475,192,90016,1,0,0:0:0:0:
402,192,90016,1,0,0:0:0:0:
109,192,90099,1,0,0:0:0:0:
329,192,90099,1,0,0:0:0:70:ticks.wav
256,192,90099,1,0,0:0:0:0:
36,192,90099,128,0,90683:0:0:0:0:
475,192,90183,1,0,0:0:0:0:
182,192,90266,1,0,0:0:0:0:
329,192,90266,1,0,0:0:0:0:
402,192,90349,1,0,0:0:0:0:
475,192,90433,1,0,0:0:0:0:
256,192,90433,1,0,0:0:0:0:
329,192,90516,1,0,0:0:0:0:
109,192,90599,1,0,0:0:0:0:
182,192,90599,1,0,0:0:0:0:
256,192,90683,1,0,0:0:0:0:
475,192,90766,1,0,0:0:0:0:
329,192,90766,128,0,91016:0:0:0:0:
402,192,90766,1,0,0:0:0:0:
36,192,90849,1,0,0:0:0:0:
182,192,90933,1,0,0:0:0:0:
109,192,90933,1,0,0:0:0:0:
475,192,91016,1,0,0:0:0:0:
475,192,91099,1,0,0:0:0:70:ticks.wav
402,192,91099,1,0,0:0:0:0:
256,192,91099,128,0,91433:0:0:0:0:
109,192,91183,1,0,0:0:0:0:
182,192,91183,1,0,0:0:0:0:
402,192,91266,1,0,0:0:0:0:
329,192,91266,1,0,0:0:0:0:
109,192,91349,1,0,0:0:0:0:
36,192,91349,1,0,0:0:0:0:
402,192,91433,1,0,0:0:0:0:
475,192,91433,128,0,91766:0:0:0:0:
36,192,91516,1,0,0:0:0:0:
256,192,91516,1,0,0:0:0:0:
109,192,91599,1,0,0:0:0:0:
329,192,91599,1,0,0:0:0:0:
402,192,91683,1,0,0:0:0:0:
182,192,91683,1,0,0:0:0:0:
256,192,91766,1,0,0:0:0:0:
36,192,91766,128,0,92099:0:0:0:0:
329,192,91849,1,0,0:0:0:0:
475,192,91849,1,0,0:0:0:0:
109,192,91933,1,0,0:0:0:0:
182,192,91933,1,0,0:0:0:0:
475,192,92016,1,0,0:0:0:0:
402,192,92016,1,0,0:0:0:0:
329,192,92099,1,4,0:0:0:70:ticks.wav
256,192,92099,1,4,0:0:0:0:
109,192,92099,1,0,0:0:0:0:
182,192,92099,128,0,93016:0:0:0:0:
36,192,92266,1,0,0:0:0:0:
475,192,92266,1,0,0:0:0:0:
402,192,92266,1,0,0:0:0:0:
329,192,92349,1,0,0:0:0:0:
256,192,92433,1,0,0:0:0:0:
109,192,92433,1,0,0:0:0:0:
402,192,92516,1,0,0:0:0:0:
36,192,92599,1,0,0:0:0:0:
475,192,92599,1,0,0:0:0:0:
109,192,92683,1,0,0:0:0:0:
475,192,92766,1,0,0:0:0:0:
402,192,92766,1,0,0:0:0:0:
329,192,92849,1,0,0:0:0:0:
256,192,92933,1,0,0:0:0:0:
109,192,92933,1,0,0:0:0:0:
402,192,93016,1,0,0:0:0:0:
402,192,93099,1,0,0:0:0:70:ticks.wav
475,192,93099,1,0,0:0:0:0:
329,192,93099,1,0,0:0:0:0:
36,192,93099,128,0,94016:0:0:0:0:
109,192,93183,1,0,0:0:0:0:
256,192,93266,1,0,0:0:0:0:
475,192,93266,1,0,0:0:0:0:
402,192,93349,1,0,0:0:0:0:
182,192,93433,1,0,0:0:0:0:
109,192,93433,1,0,0:0:0:0:
329,192,93516,1,0,0:0:0:0:
402,192,93599,1,0,0:0:0:0:
182,192,93599,1,0,0:0:0:0:
256,192,93683,1,0,0:0:0:0:
109,192,93766,1,0,0:0:0:0:
475,192,93766,1,0,0:0:0:0:
182,192,93849,1,0,0:0:0:0:
402,192,93933,1,0,0:0:0:0:
182,192,94016,1,0,0:0:0:0:
182,192,94099,1,0,0:0:0:70:ticks.wav
36,192,94099,1,0,0:0:0:0:
402,192,94099,1,0,0:0:0:0:
475,192,94099,128,0,95016:0:0:0:0:
329,192,94183,1,0,0:0:0:0:
256,192,94266,1,0,0:0:0:0:
109,192,94266,1,0,0:0:0:0:
402,192,94349,1,0,0:0:0:0:
36,192,94433,1,0,0:0:0:0:
256,192,94433,1,0,0:0:0:0:
182,192,94433,1,0,0:0:0:0:
109,192,94599,1,0,0:0:0:0:
402,192,94599,1,0,0:0:0:0:
36,192,94599,1,0,0:0:0:0:
329,192,94683,1,0,0:0:0:0:
36,192,94766,1,0,0:0:0:0:
182,192,94766,1,0,0:0:0:0:
256,192,94849,1,0,0:0:0:0:
402,192,94933,1,0,0:0:0:0:
329,192,94933,1,0,0:0:0:0:
109,192,95016,1,0,0:0:0:0:
109,192,95099,1,0,0:0:0:70:ticks.wav
475,192,95099,1,0,0:0:0:0:
36,192,95099,1,0,0:0:0:0:
256,192,95099,128,0,95433:0:0:0:0:
402,192,95183,1,0,0:0:0:0:
329,192,95183,1,0,0:0:0:0:
182,192,95266,1,0,0:0:0:0:
36,192,95266,1,0,0:0:0:0:
475,192,95349,1,0,0:0:0:0:
402,192,95349,1,0,0:0:0:0:
182,192,95433,128,0,95766:0:0:0:0:
109,192,95433,1,0,0:0:0:0:
475,192,95599,1,0,0:0:0:0:
256,192,95599,1,0,0:0:0:0:
402,192,95599,1,0,0:0:0:0:
109,192,95683,1,0,0:0:0:0:
36,192,95683,1,0,0:0:0:0:
329,192,95766,128,0,96099:0:0:0:0:
402,192,95766,1,0,0:0:0:0:
256,192,95849,1,0,0:0:0:0:
182,192,95849,1,0,0:0:0:0:
36,192,95933,1,0,0:0:0:0:
109,192,95933,1,0,0:0:0:0:
402,192,96016,1,0,0:0:0:0:
475,192,96016,1,0,0:0:0:0:
256,192,96099,1,0,0:0:0:70:ticks.wav
182,192,96099,1,0,0:0:0:0:
109,192,96099,1,0,0:0:0:0:
36,192,96099,128,0,97016:0:0:0:0:
329,192,96183,1,0,0:0:0:0:
402,192,96266,1,0,0:0:0:0:
475,192,96266,1,0,0:0:0:0:
182,192,96349,1,0,0:0:0:0:
256,192,96433,1,0,0:0:0:0:
475,192,96433,1,0,0:0:0:0:
402,192,96516,1,0,0:0:0:0:
329,192,96599,1,0,0:0:0:0:
109,192,96599,1,0,0:0:0:0:
182,192,96683,1,0,0:0:0:0:
402,192,96766,1,0,0:0:0:0:
475,192,96766,1,0,0:0:0:0:
256,192,96849,1,0,0:0:0:0:
475,192,96933,1,0,0:0:0:0:
402,192,96933,1,0,0:0:0:0:
182,192,97016,1,0,0:0:0:0:
182,192,97099,1,0,0:0:0:70:ticks.wav
36,192,97099,1,0,0:0:0:0:
256,192,97099,1,0,0:0:0:0:
475,192,97099,128,0,98016:0:0:0:0:
402,192,97183,1,0,0:0:0:0:
109,192,97266,1,0,0:0:0:0:
182,192,97266,1,0,0:0:0:0:
256,192,97349,1,0,0:0:0:0:
329,192,97433,1,0,0:0:0:0:
36,192,97433,1,0,0:0:0:0:
109,192,97516,1,0,0:0:0:0:
182,192,97599,1,0,0:0:0:0:
402,192,97599,1,0,0:0:0:0:
329,192,97683,1,0,0:0:0:0:
109,192,97766,1,0,0:0:0:0:
36,192,97766,1,0,0:0:0:0:
256,192,97849,1,0,0:0:0:0:
402,192,97933,1,0,0:0:0:0:
329,192,97933,1,0,0:0:0:0:
109,192,98016,1,0,0:0:0:0:
182,192,98099,1,0,0:0:0:70:ticks.wav
109,192,98099,1,0,0:0:0:0:
475,192,98099,1,0,0:0:0:0:
329,192,98099,128,0,98349:0:0:0:0:
402,192,98183,1,0,0:0:0:0:
36,192,98266,1,0,0:0:0:0:
256,192,98266,1,0,0:0:0:0:
475,192,98349,1,0,0:0:0:0:
475,192,98433,1,0,0:0:0:0:
402,192,98433,1,0,0:0:0:0:
182,192,98433,128,0,98683:0:0:0:0:
256,192,98516,1,0,0:0:0:0:
109,192,98599,1,0,0:0:0:0:
36,192,98599,1,0,0:0:0:0:
329,192,98683,1,0,0:0:0:0:
329,192,98766,1,0,0:0:0:0:
402,192,98766,1,0,0:0:0:0:
109,192,98766,128,0,99016:0:0:0:0:
182,192,98849,1,0,0:0:0:0:
256,192,98933,1,0,0:0:0:0:
475,192,98933,1,0,0:0:0:0:
36,192,99016,1,0,0:0:0:0:
36,192,99099,1,0,0:0:0:70:ticks.wav
182,192,99099,1,0,0:0:0:0:
475,192,99099,1,0,0:0:0:0:
402,192,99099,128,0,99433:0:0:0:0:
329,192,99183,1,0,0:0:0:0:
256,192,99266,1,0,0:0:0:0:
109,192,99266,1,0,0:0:0:0:
182,192,99266,1,0,0:0:0:0:
475,192,99433,128,0,99766:0:0:0:0:
36,192,99433,1,0,0:0:0:0:
256,192,99433,1,0,0:0:0:0:
109,192,99516,1,0,0:0:0:0:
329,192,99516,1,0,0:0:0:0:
402,192,99599,1,0,0:0:0:0:
182,192,99599,1,0,0:0:0:0:
36,192,99683,1,0,0:0:0:0:
256,192,99683,1,0,0:0:0:0:
329,192,99766,128,0,100099:0:0:0:0:
109,192,99766,1,0,0:0:0:0:
182,192,99849,1,0,0:0:0:0:
402,192,99849,1,0,0:0:0:0:
256,192,99933,1,0,0:0:0:0:
36,192,99933,1,0,0:0:0:0:
475,192,100016,1,0,0:0:0:0:
402,192,100016,1,0,0:0:0:0:
109,192,100099,1,4,0:0:0:70:ticks.wav
36,192,100099,1,0,0:0:0:0:
182,192,100099,1,0,0:0:0:0:
256,192,100099,128,0,101016:0:0:0:0:
329,192,100183,1,0,0:0:0:0:
109,192,100266,1,0,0:0:0:0:
402,192,100266,1,0,0:0:0:0:
182,192,100349,1,0,0:0:0:0:
475,192,100433,1,0,0:0:0:0:
329,192,100433,1,0,0:0:0:0:
109,192,100516,1,0,0:0:0:0:
36,192,100599,1,0,0:0:0:0:
402,192,100599,1,0,0:0:0:0:
329,192,100683,1,0,0:0:0:0:
109,192,100766,1,0,0:0:0:0:
475,192,100766,1,0,0:0:0:0:
402,192,100849,1,0,0:0:0:0:
329,192,100933,1,0,0:0:0:0:
36,192,100933,1,0,0:0:0:0:
182,192,101016,1,0,0:0:0:0:
182,192,101099,1,0,0:0:0:70:ticks.wav
402,192,101099,1,0,0:0:0:0:
109,192,101099,1,0,0:0:0:0:
475,192,101099,128,0,101766:0:0:0:0:
329,192,101183,1,0,0:0:0:0:
256,192,101266,1,0,0:0:0:0:
36,192,101266,1,0,0:0:0:0:
109,192,101349,1,0,0:0:0:0:
329,192,101433,1,0,0:0:0:0:
402,192,101433,1,0,0:0:0:0:
256,192,101516,1,0,0:0:0:0:
109,192,101599,1,0,0:0:0:0:
36,192,101599,1,0,0:0:0:0:
329,192,101683,1,0,0:0:0:0:
402,192,101766,1,0,0:0:0:0:
182,192,101766,128,0,102016:0:0:0:0:
256,192,101849,1,0,0:0:0:0:
329,192,101933,1,0,0:0:0:0:
36,192,101933,1,0,0:0:0:0:
475,192,102016,1,0,0:0:0:0:
475,192,102099,1,0,0:0:0:70:ticks.wav
109,192,102099,1,0,0:0:0:0:
402,192,102099,1,0,0:0:0:0:
36,192,102099,128,0,103016:0:0:0:0:
182,192,102183,1,0,0:0:0:0:
256,192,102266,1,0,0:0:0:0:
402,192,102266,1,0,0:0:0:0:
109,192,102349,1,0,0:0:0:0:
182,192,102433,1,0,0:0:0:0:
329,192,102433,1,0,0:0:0:0:
475,192,102433,1,0,0:0:0:0:
109,192,102599,1,0,0:0:0:0:
475,192,102599,1,0,0:0:0:0:
256,192,102599,1,0,0:0:0:0:
402,192,102683,1,0,0:0:0:0:
329,192,102766,1,0,0:0:0:0:
182,192,102766,1,0,0:0:0:0:
402,192,102849,1,0,0:0:0:0:
109,192,102933,1,0,0:0:0:0:
475,192,102933,1,0,0:0:0:0:
329,192,103016,1,0,0:0:0:0:
329,192,103099,1,0,0:0:0:70:ticks.wav
36,192,103099,1,0,0:0:0:0:
475,192,103099,1,0,0:0:0:0:
182,192,103099,128,0,103433:0:0:0:0:
109,192,103266,1,0,0:0:0:0:
475,192,103266,1,0,0:0:0:0:
402,192,103266,1,0,0:0:0:0:
329,192,103349,1,0,0:0:0:0:
475,192,103433,1,0,0:0:0:0:
256,192,103433,1,0,0:0:0:0:
36,192,103433,128,0,103766:0:0:0:0:
109,192,103599,1,0,0:0:0:0:
182,192,103599,1,0,0:0:0:0:
402,192,103599,1,0,0:0:0:0:
256,192,103683,1,0,0:0:0:0:
475,192,103766,128,0,104099:0:0:0:0:
329,192,103766,1,0,0:0:0:0:
36,192,103849,1,0,0:0:0:0:
109,192,103849,1,0,0:0:0:0:
182,192,103933,1,0,0:0:0:0:
256,192,103933,1,0,0:0:0:0:
329,192,104016,1,0,0:0:0:0:
402,192,104016,1,0,0:0:0:0:
256,192,104099,1,0,0:0:0:70:ticks.wav
36,192,104099,128,0,105016:0:0:0:0:
182,192,104099,1,0,0:0:0:0:
109,192,104099,1,0,0:0:0:0:
475,192,104183,1,0,0:0:0:0:
109,192,104266,1,0,0:0:0:0:
329,192,104266,1,0,0:0:0:0:
182,192,104349,1,0,0:0:0:0:
256,192,104433,1,0,0:0:0:0:
475,192,104433,1,0,0:0:0:0:
402,192,104516,1,0,0:0:0:0:
329,192,104599,1,0,0:0:0:0:
109,192,104599,1,0,0:0:0:0:
182,192,104683,1,0,0:0:0:0:
256,192,104766,1,0,0:0:0:0:
475,192,104766,1,0,0:0:0:0:
402,192,104849,1,0,0:0:0:0:
329,192,104933,1,0,0:0:0:0:
109,192,104933,1,0,0:0:0:0:
475,192,105016,1,0,0:0:0:0:
182,192,105099,1,0,0:0:0:70:ticks.wav
329,192,105099,1,0,0:0:0:0:
256,192,105099,128,0,105433:0:0:0:0:
109,192,105099,1,0,0:0:0:0:
475,192,105183,1,0,0:0:0:0:
402,192,105183,1,0,0:0:0:0:
182,192,105266,1,0,0:0:0:0:
36,192,105266,1,0,0:0:0:0:
329,192,105349,1,0,0:0:0:0:
402,192,105349,1,0,0:0:0:0:
109,192,105433,1,0,0:0:0:0:
36,192,105433,128,0,105766:0:0:0:0:
256,192,105516,1,0,0:0:0:0:
475,192,105516,1,0,0:0:0:0:
182,192,105599,1,0,0:0:0:0:
109,192,105599,1,0,0:0:0:0:
329,192,105599,1,0,0:0:0:0:
256,192,105766,1,0,0:0:0:0:
402,192,105766,1,0,0:0:0:0:
475,192,105766,128,0,106099:0:0:0:0:
36,192,105933,1,0,0:0:0:0:
109,192,105933,1,0,0:0:0:0:
182,192,105933,1,0,0:0:0:0:
402,192,106016,1,0,0:0:0:0:
329,192,106016,1,0,0:0:0:0:
36,192,106099,1,0,0:0:0:70:ticks.wav
182,192,106099,128,0,106683:0:0:0:0:
109,192,106099,1,0,0:0:0:0:
256,192,106099,1,0,0:0:0:0:
475,192,106183,1,0,0:0:0:0:
36,192,106266,1,0,0:0:0:0:
329,192,106266,1,0,0:0:0:0:
402,192,106349,1,0,0:0:0:0:
256,192,106433,1,0,0:0:0:0:
109,192,106433,1,0,0:0:0:0:
329,192,106516,1,0,0:0:0:0:
475,192,106599,1,0,0:0:0:0:
36,192,106599,1,0,0:0:0:0:
402,192,106683,1,0,0:0:0:0:
36,192,106766,1,0,0:0:0:0:
256,192,106766,128,0,107099:0:0:0:0:
329,192,106766,1,0,0:0:0:0:
109,192,106849,1,0,0:0:0:0:
182,192,106933,1,0,0:0:0:0:
475,192,106933,1,0,0:0:0:0:
402,192,106933,1,0,0:0:0:0:
402,192,107099,128,0,107433:0:0:0:70:ticks.wav
36,192,107099,1,0,0:0:0:0:
109,192,107099,1,0,0:0:0:0:
329,192,107099,1,0,0:0:0:0:
182,192,107183,1,0,0:0:0:0:
475,192,107183,1,0,0:0:0:0:
36,192,107266,1,0,0:0:0:0:
256,192,107266,1,0,0:0:0:0:
329,192,107349,1,0,0:0:0:0:
109,192,107349,1,0,0:0:0:0:
475,192,107433,128,0,107766:0:0:0:0:
182,192,107433,1,0,0:0:0:0:
256,192,107516,1,0,0:0:0:0:
36,192,107516,1,0,0:0:0:0:
329,192,107599,1,0,0:0:0:0:
402,192,107599,1,0,0:0:0:0:
182,192,107683,1,0,0:0:0:0:
36,192,107683,1,0,0:0:0:0:
256,192,107766,1,0,0:0:0:0:
329,192,107766,128,0,108099:0:0:0:0:
402,192,107849,1,0,0:0:0:0:
109,192,107849,1,0,0:0:0:0:
475,192,107933,1,0,0:0:0:0:
182,192,107933,1,0,0:0:0:0:
256,192,108016,1,0,0:0:0:0:
36,192,108016,1,0,0:0:0:0:
109,192,108099,128,4,110099:0:0:0:100:ticks.wav
475,192,108099,1,0,0:0:0:0:
402,192,108099,1,4,0:0:0:0:
256,192,109099,5,0,0:0:0:100:ticks.wav
475,192,109766,1,0,0:0:0:0:
256,192,110099,1,0,0:0:0:100:ticks.wav
36,192,110099,1,0,0:0:0:0:
402,192,110099,1,0,0:0:0:0:
256,192,111099,1,0,0:0:0:100:ticks.wav
109,192,111766,1,0,0:0:0:0:
475,192,112099,1,0,0:0:0:100:ticks.wav
256,192,112099,1,0,0:0:0:0:
182,192,112099,1,0,0:0:0:0:
256,192,113099,1,0,0:0:0:100:ticks.wav
402,192,113766,1,0,0:0:0:0:
182,192,114099,1,0,0:0:0:100:ticks.wav
256,192,114099,1,0,0:0:0:0:
36,192,114099,1,0,0:0:0:0:
256,192,115099,1,0,0:0:0:100:ticks.wav
402,192,115766,1,0,0:0:0:0:
109,192,116099,1,0,0:0:0:100:ticks.wav
256,192,116099,1,0,0:0:0:0:
329,192,116099,1,0,0:0:0:0:
256,192,117099,1,0,0:0:0:100:ticks.wav
475,192,117766,1,0,0:0:0:0:
402,192,118099,1,0,0:0:0:100:ticks.wav
256,192,118099,1,0,0:0:0:0:
182,192,118099,1,0,0:0:0:0:
256,192,119099,1,0,0:0:0:100:ticks.wav
109,192,119099,1,0,0:0:0:0:
182,192,119433,1,0,0:0:0:0:
329,192,119766,1,0,0:0:0:0:
256,192,120099,1,0,0:0:0:100:ticks.wav
475,192,120099,1,0,0:0:0:0:
109,192,120099,1,0,0:0:0:0:
256,192,121099,1,0,0:0:0:100:ticks.wav
182,192,121766,1,0,0:0:0:0:
329,192,122099,1,0,0:0:0:100:ticks.wav
36,192,122099,1,0,0:0:0:0:
256,192,122099,1,0,0:0:0:0:
256,192,123099,1,0,0:0:0:100:ticks.wav
36,192,123766,1,0,0:0:0:0:
256,192,124099,1,0,0:0:0:100:ticks.wav
475,192,124099,1,0,0:0:0:0:
256,192,125099,1,0,0:0:0:100:ticks.wav
256,192,126099,1,0,0:0:0:100:ticks.wav
