osu file format v14

[General]
AudioFilename: audio.mp3
AudioLeadIn: 0
PreviewTime: 4499
Countdown: 0
SampleSet: Normal
StackLeniency: 0.7
Mode: 3
LetterboxInBreaks: 0
SpecialStyle: 0
WidescreenStoryboard: 1

[Editor]
DistanceSpacing: 1.3
BeatDivisor: 4
GridSize: 8
TimelineZoom: 2.599999

[Metadata]
Title:Mad Piano Party
TitleUnicode:Mad Piano Party
Artist:Plum
ArtistUnicode:Plum
Creator:[Sick]Catcat
Version:Spirited Trio / Hyper
Source:
Tags:FA Featured artist Melodic plumwriter Piano Instrumental Classical Melody From Sky MPG MG Mappers' Guild electronic 피아노 four hands performance 연탄곡 검은악보 black sheet music rice minijack
BeatmapID:3594077
BeatmapSetID:1756251

[Difficulty]
HPDrainRate:7.5
CircleSize:10
OverallDifficulty:7.5
ApproachRate:5
SliderMultiplier:1.4
SliderTickRate:1

[Events]
//Background and Video events
0,0,"MPP.jpg",0,0
//Break Periods
//Storyboard Layer 0 (Background)
//Storyboard Layer 1 (Fail)
//Storyboard Layer 2 (Pass)
//Storyboard Layer 3 (Foreground)
//Storyboard Layer 4 (Overlay)
//Storyboard Sound Samples

[TimingPoints]
1590,363.636363636364,4,1,1,35,1,0

[HitObjects]
76,192,1408,5,0,0:0:0:0:
179,192,1499,1,0,0:0:0:0:
230,192,1590,1,0,0:0:0:0:
384,192,1771,1,0,0:0:0:0:
25,192,1953,1,0,0:0:0:0:
384,192,2135,1,0,0:0:0:0:
230,192,2317,1,0,0:0:0:0:
384,192,2499,1,0,0:0:0:0:
25,192,2680,1,0,0:0:0:0:
384,192,2862,1,0,0:0:0:0:
230,192,3044,1,0,0:0:0:0:
384,192,3226,1,0,0:0:0:0:
384,192,3317,1,0,0:0:0:0:
25,192,3408,1,0,0:0:0:0:
384,192,3590,1,0,0:0:0:0:
230,192,3771,1,0,0:0:0:0:
384,192,3953,1,0,0:0:0:0:
25,192,4135,1,0,0:0:0:0:
384,192,4317,1,0,0:0:0:0:
230,192,4499,1,0,0:0:0:0:
281,192,4499,1,0,0:0:0:0:
332,192,4680,1,0,0:0:0:0:
384,192,4862,1,0,0:0:0:0:
25,192,4862,1,0,0:0:0:0:
435,192,5044,1,0,0:0:0:0:
486,192,5226,1,0,0:0:0:0:
230,192,5226,1,0,0:0:0:0:
128,192,5408,1,0,0:0:0:0:
25,192,5590,1,0,0:0:0:0:
332,192,5590,1,0,0:0:0:0:
281,192,5771,1,0,0:0:0:0:
281,192,5953,1,0,0:0:0:0:
179,192,5953,1,0,0:0:0:0:
332,192,6044,1,0,0:0:0:0:
76,192,6135,1,0,0:0:0:0:
128,192,6226,1,0,0:0:0:0:
486,192,6317,1,0,0:0:0:0:
179,192,6317,1,0,0:0:0:0:
230,192,6499,1,0,0:0:0:0:
76,192,6680,1,0,0:0:0:0:
435,192,6862,1,0,0:0:0:0:
332,192,7044,1,0,0:0:0:0:
179,192,7044,1,0,0:0:0:0:
435,192,7226,1,0,0:0:0:0:
25,192,7408,1,0,0:0:0:0:
281,192,7408,1,0,0:0:0:0:
76,192,7590,1,0,0:0:0:0:
486,192,7771,1,0,0:0:0:0:
128,192,7771,1,0,0:0:0:0:
179,192,7953,1,0,0:0:0:0:
230,192,8135,1,0,0:0:0:0:
281,192,8135,1,0,0:0:0:0:
384,192,8317,1,0,0:0:0:0:
486,192,8499,1,0,0:0:0:0:
179,192,8499,1,0,0:0:0:0:
128,192,8680,1,0,0:0:0:0:
76,192,8862,1,0,0:0:0:0:
332,192,8862,1,0,0:0:0:0:
230,192,8953,1,0,0:0:0:0:
281,192,9044,1,0,0:0:0:0:
435,192,9226,1,0,0:0:0:0:
25,192,9226,1,0,0:0:0:0:
281,192,9408,1,0,0:0:0:0:
332,192,9590,1,0,0:0:0:0:
435,192,9771,1,0,0:0:0:0:
76,192,9771,1,0,0:0:0:0:
384,192,9862,1,0,0:0:0:0:
179,192,9953,1,0,0:0:0:0:
332,192,9953,1,0,0:0:0:0:
76,192,10135,1,0,0:0:0:0:
332,192,10317,1,0,0:0:0:0:
76,192,10317,1,0,0:0:0:0:
179,192,10499,1,0,0:0:0:0:
281,192,10499,1,0,0:0:0:0:
384,192,10590,1,0,0:0:0:0:
486,192,10680,1,0,0:0:0:0:
25,192,10680,1,0,0:0:0:0:
230,192,10862,1,0,0:0:0:0:
332,192,11044,1,0,0:0:0:0:
76,192,11044,1,0,0:0:0:0:
128,192,11226,1,0,0:0:0:0:
230,192,11408,1,0,0:0:0:0:
486,192,11408,1,0,0:0:0:0:
179,192,11590,1,0,0:0:0:0:
179,192,11771,1,0,0:0:0:0:
435,192,11771,1,0,0:0:0:0:
230,192,11953,1,0,0:0:0:0:
384,192,12044,1,0,0:0:0:0:
25,192,12135,1,0,0:0:0:0:
332,192,12135,1,0,0:0:0:0:
384,192,12317,1,0,0:0:0:0:
179,192,12499,1,0,0:0:0:0:
230,192,12680,1,0,0:0:0:0:
486,192,12680,1,0,0:0:0:0:
128,192,12771,1,0,0:0:0:0:
25,192,12862,1,0,0:0:0:0:
281,192,12862,1,0,0:0:0:0:
486,192,13044,1,0,0:0:0:0:
435,192,13226,1,0,0:0:0:0:
128,192,13226,1,0,0:0:0:0:
179,192,13408,1,0,0:0:0:0:
332,192,13499,1,0,0:0:0:0:
230,192,13590,1,0,0:0:0:0:
25,192,13590,1,0,0:0:0:0:
332,192,13771,1,0,0:0:0:0:
25,192,13953,1,0,0:0:0:0:
486,192,13953,1,0,0:0:0:0:
384,192,14135,1,0,0:0:0:0:
332,192,14226,1,0,0:0:0:0:
76,192,14317,1,0,0:0:0:0:
281,192,14317,1,0,0:0:0:0:
128,192,14499,1,0,0:0:0:0:
179,192,14590,1,0,0:0:0:0:
435,192,14680,1,0,0:0:0:0:
230,192,14680,1,0,0:0:0:0:
384,192,14862,1,0,0:0:0:0:
76,192,14953,1,0,0:0:0:0:
179,192,15044,1,0,0:0:0:0:
332,192,15044,1,0,0:0:0:0:
128,192,15226,1,0,0:0:0:0:
435,192,15408,1,0,0:0:0:0:
230,192,15499,1,0,0:0:0:0:
230,192,15680,1,0,0:0:0:0:
25,192,15771,1,0,0:0:0:0:
486,192,15771,1,0,0:0:0:0:
435,192,15862,1,0,0:0:0:0:
384,192,15953,1,0,0:0:0:0:
332,192,16044,1,0,0:0:0:0:
281,192,16135,1,0,0:0:0:0:
76,192,16135,1,0,0:0:0:0:
179,192,16135,1,0,0:0:0:0:
384,192,16317,1,0,0:0:0:0:
281,192,16408,1,0,0:0:0:0:
128,192,16499,1,0,0:0:0:0:
486,192,16499,1,0,0:0:0:0:
179,192,16590,1,0,0:0:0:0:
230,192,16680,1,0,0:0:0:0:
281,192,16771,1,0,0:0:0:0:
25,192,16862,1,0,0:0:0:0:
332,192,16862,1,0,0:0:0:0:
128,192,17044,1,0,0:0:0:0:
486,192,17135,1,0,0:0:0:0:
384,192,17226,1,0,0:0:0:0:
230,192,17226,1,0,0:0:0:0:
179,192,17408,1,0,0:0:0:0:
332,192,17590,1,0,0:0:0:0:
179,192,17590,1,0,0:0:0:0:
435,192,17771,1,0,0:0:0:0:
128,192,17862,1,0,0:0:0:0:
25,192,17953,1,0,0:0:0:0:
281,192,17953,1,0,0:0:0:0:
435,192,18135,1,0,0:0:0:0:
128,192,18226,1,0,0:0:0:0:
281,192,18317,1,0,0:0:0:0:
435,192,18499,1,0,0:0:0:0:
128,192,18499,1,0,0:0:0:0:
25,192,18590,1,0,0:0:0:0:
179,192,18680,1,0,0:0:0:0:
332,192,18680,1,0,0:0:0:0:
76,192,18862,1,0,0:0:0:0:
435,192,18862,1,0,0:0:0:0:
486,192,19044,1,0,0:0:0:0:
230,192,19044,1,0,0:0:0:0:
332,192,19044,1,0,0:0:0:0:
128,192,19226,1,0,0:0:0:0:
230,192,19317,1,0,0:0:0:0:
25,192,19408,1,0,0:0:0:0:
435,192,19408,1,0,0:0:0:0:
384,192,19499,1,0,0:0:0:0:
332,192,19590,1,0,0:0:0:0:
281,192,19680,1,0,0:0:0:0:
230,192,19771,1,0,0:0:0:0:
128,192,19771,1,0,0:0:0:0:
486,192,19953,1,0,0:0:0:0:
179,192,20044,1,0,0:0:0:0:
384,192,20135,1,0,0:0:0:0:
281,192,20317,1,0,0:0:0:0:
128,192,20317,1,0,0:0:0:0:
435,192,20499,1,0,0:0:0:0:
128,192,20499,1,0,0:0:0:0:
281,192,20680,1,0,0:0:0:0:
76,192,20771,1,0,0:0:0:0:
486,192,20862,1,0,0:0:0:0:
179,192,20862,1,0,0:0:0:0:
332,192,21044,1,0,0:0:0:0:
128,192,21135,1,0,0:0:0:0:
281,192,21226,1,0,0:0:0:0:
435,192,21317,1,0,0:0:0:0:
179,192,21408,1,0,0:0:0:0:
332,192,21499,1,0,0:0:0:0:
76,192,21590,1,0,0:0:0:0:
25,192,21590,1,0,0:0:0:0:
435,192,21680,1,0,0:0:0:0:
179,192,21771,1,0,0:0:0:0:
332,192,21862,1,0,0:0:0:0:
230,192,21953,1,0,0:0:0:0:
128,192,21953,1,0,0:0:0:0:
76,192,21953,1,0,0:0:0:0:
281,192,22135,1,0,0:0:0:0:
384,192,22135,1,0,0:0:0:0:
435,192,22135,1,0,0:0:0:0:
76,192,22317,1,0,0:0:0:0:
179,192,22317,1,0,0:0:0:0:
25,192,22317,1,0,0:0:0:0:
486,192,22499,1,0,0:0:0:0:
332,192,22499,1,0,0:0:0:0:
435,192,22499,1,0,0:0:0:0:
179,192,22680,1,0,0:0:0:0:
384,192,22680,1,0,0:0:0:0:
281,192,22862,1,0,0:0:0:0:
128,192,22953,1,0,0:0:0:0:
25,192,23044,1,0,0:0:0:0:
332,192,23044,1,0,0:0:0:0:
435,192,23226,1,0,0:0:0:0:
230,192,23317,1,0,0:0:0:0:
76,192,23408,1,0,0:0:0:0:
435,192,23408,1,0,0:0:0:0:
332,192,23408,1,0,0:0:0:0:
281,192,23590,1,0,0:0:0:0:
128,192,23680,1,0,0:0:0:0:
486,192,23771,1,0,0:0:0:0:
179,192,23771,1,0,0:0:0:0:
281,192,23953,1,0,0:0:0:0:
128,192,24044,1,0,0:0:0:0:
332,192,24135,1,0,0:0:0:0:
281,192,24317,1,0,0:0:0:0:
25,192,24317,1,0,0:0:0:0:
384,192,24408,1,0,0:0:0:0:
486,192,24499,1,0,0:0:0:0:
230,192,24499,1,0,0:0:0:0:
25,192,24680,1,0,0:0:0:0:
332,192,24680,1,0,0:0:0:0:
76,192,24862,1,0,0:0:0:0:
384,192,24862,1,0,0:0:0:0:
230,192,24862,1,0,0:0:0:0:
332,192,25044,1,0,0:0:0:0:
179,192,25135,1,0,0:0:0:0:
281,192,25226,1,0,0:0:0:0:
486,192,25226,1,0,0:0:0:0:
281,192,25408,1,0,0:0:0:0:
179,192,25499,1,0,0:0:0:0:
486,192,25590,1,0,0:0:0:0:
76,192,25590,1,0,0:0:0:0:
332,192,25590,1,0,0:0:0:0:
128,192,25771,1,0,0:0:0:0:
179,192,25862,1,0,0:0:0:0:
435,192,25953,1,0,0:0:0:0:
230,192,25953,1,0,0:0:0:0:
384,192,26135,1,0,0:0:0:0:
332,192,26226,1,0,0:0:0:0:
128,192,26317,1,0,0:0:0:0:
281,192,26317,1,0,0:0:0:0:
25,192,26499,1,0,0:0:0:0:
128,192,26590,1,0,0:0:0:0:
230,192,26680,1,0,0:0:0:0:
384,192,26680,1,0,0:0:0:0:
486,192,26862,1,0,0:0:0:0:
384,192,26953,1,0,0:0:0:0:
281,192,27044,1,0,0:0:0:0:
128,192,27044,1,0,0:0:0:0:
128,192,27226,5,0,0:0:0:0:
281,192,27226,1,0,0:0:0:0:
179,192,27408,1,0,0:0:0:0:
332,192,27408,1,0,0:0:0:0:
230,192,27590,1,0,0:0:0:0:
384,192,27590,1,0,0:0:0:0:
25,192,27771,1,0,0:0:0:0:
435,192,27771,1,0,0:0:0:0:
128,192,27862,1,0,0:0:0:0:
230,192,27953,1,0,0:0:0:0:
128,192,28044,1,0,0:0:0:0:
25,192,28135,1,0,0:0:0:0:
486,192,28135,1,0,0:0:0:0:
332,192,28317,1,0,0:0:0:0:
179,192,28499,1,0,0:0:0:0:
76,192,28499,1,0,0:0:0:0:
435,192,28590,1,0,0:0:0:0:
384,192,28680,1,0,0:0:0:0:
332,192,28771,1,0,0:0:0:0:
25,192,28862,1,0,0:0:0:0:
128,192,28862,1,0,0:0:0:0:
230,192,28953,1,0,0:0:0:0:
332,192,29044,1,0,0:0:0:0:
435,192,29135,1,0,0:0:0:0:
76,192,29226,1,0,0:0:0:0:
179,192,29226,1,0,0:0:0:0:
332,192,29317,1,0,0:0:0:0:
281,192,29408,1,0,0:0:0:0:
230,192,29499,1,0,0:0:0:0:
230,192,29680,1,0,0:0:0:0:
281,192,29771,1,0,0:0:0:0:
332,192,29862,1,0,0:0:0:0:
384,192,29953,1,0,0:0:0:0:
76,192,29953,1,0,0:0:0:0:
128,192,30044,1,0,0:0:0:0:
384,192,30135,1,0,0:0:0:0:
179,192,30226,1,0,0:0:0:0:
486,192,30317,1,0,0:0:0:0:
230,192,30317,1,0,0:0:0:0:
384,192,30408,1,0,0:0:0:0:
281,192,30499,1,0,0:0:0:0:
179,192,30590,1,0,0:0:0:0:
76,192,30680,1,0,0:0:0:0:
332,192,30680,1,0,0:0:0:0:
128,192,30862,1,0,0:0:0:0:
384,192,30862,1,0,0:0:0:0:
179,192,31044,1,0,0:0:0:0:
435,192,31044,1,0,0:0:0:0:
332,192,31226,1,0,0:0:0:0:
230,192,31226,1,0,0:0:0:0:
281,192,31317,1,0,0:0:0:0:
384,192,31408,1,0,0:0:0:0:
128,192,31408,1,0,0:0:0:0:
179,192,31590,1,0,0:0:0:0:
435,192,31590,1,0,0:0:0:0:
76,192,31771,1,0,0:0:0:0:
281,192,31771,1,0,0:0:0:0:
128,192,31862,1,0,0:0:0:0:
179,192,31953,1,0,0:0:0:0:
76,192,32044,1,0,0:0:0:0:
435,192,32135,1,0,0:0:0:0:
179,192,32135,1,0,0:0:0:0:
384,192,32317,1,0,0:0:0:0:
128,192,32317,1,0,0:0:0:0:
332,192,32499,1,0,0:0:0:0:
76,192,32499,1,0,0:0:0:0:
179,192,32680,1,0,0:0:0:0:
281,192,32680,1,0,0:0:0:0:
230,192,32771,1,0,0:0:0:0:
128,192,32862,1,0,0:0:0:0:
384,192,32862,1,0,0:0:0:0:
332,192,33044,1,0,0:0:0:0:
76,192,33044,1,0,0:0:0:0:
384,192,33135,1,0,0:0:0:0:
435,192,33226,1,0,0:0:0:0:
179,192,33226,1,0,0:0:0:0:
281,192,33317,1,0,0:0:0:0:
76,192,33408,1,0,0:0:0:0:
332,192,33499,1,0,0:0:0:0:
230,192,33590,1,0,0:0:0:0:
128,192,33590,1,0,0:0:0:0:
332,192,33680,1,0,0:0:0:0:
435,192,33771,1,0,0:0:0:0:
230,192,33862,1,0,0:0:0:0:
332,192,33953,1,0,0:0:0:0:
25,192,33953,1,0,0:0:0:0:
435,192,34044,1,0,0:0:0:0:
230,192,34135,1,0,0:0:0:0:
332,192,34226,1,0,0:0:0:0:
435,192,34317,1,0,0:0:0:0:
179,192,34317,1,0,0:0:0:0:
76,192,34408,1,0,0:0:0:0:
435,192,34499,1,0,0:0:0:0:
179,192,34590,1,0,0:0:0:0:
230,192,34680,1,0,0:0:0:0:
384,192,34680,1,0,0:0:0:0:
281,192,34771,1,0,0:0:0:0:
230,192,34862,1,0,0:0:0:0:
128,192,34953,1,0,0:0:0:0:
281,192,35044,1,0,0:0:0:0:
384,192,35044,1,0,0:0:0:0:
179,192,35135,1,0,0:0:0:0:
76,192,35226,1,0,0:0:0:0:
281,192,35317,1,0,0:0:0:0:
486,192,35408,1,0,0:0:0:0:
179,192,35408,1,0,0:0:0:0:
76,192,35499,1,0,0:0:0:0:
281,192,35590,1,0,0:0:0:0:
179,192,35680,1,0,0:0:0:0:
76,192,35771,1,0,0:0:0:0:
435,192,35771,1,0,0:0:0:0:
332,192,35862,1,0,0:0:0:0:
230,192,35953,1,0,0:0:0:0:
332,192,36044,1,0,0:0:0:0:
435,192,36135,1,0,0:0:0:0:
179,192,36135,1,0,0:0:0:0:
76,192,36226,1,0,0:0:0:0:
435,192,36317,1,0,0:0:0:0:
332,192,36408,1,0,0:0:0:0:
179,192,36499,1,0,0:0:0:0:
25,192,36499,1,0,0:0:0:0:
281,192,36590,1,0,0:0:0:0:
435,192,36680,1,0,0:0:0:0:
179,192,36771,1,0,0:0:0:0:
25,192,36862,1,0,0:0:0:0:
281,192,36862,1,0,0:0:0:0:
435,192,36953,1,0,0:0:0:0:
179,192,37044,1,0,0:0:0:0:
281,192,37135,1,0,0:0:0:0:
486,192,37226,1,0,0:0:0:0:
332,192,37226,1,0,0:0:0:0:
128,192,37317,1,0,0:0:0:0:
25,192,37408,1,0,0:0:0:0:
332,192,37499,1,0,0:0:0:0:
486,192,37590,1,0,0:0:0:0:
128,192,37590,1,0,0:0:0:0:
25,192,37680,1,0,0:0:0:0:
435,192,37771,1,0,0:0:0:0:
332,192,37771,1,0,0:0:0:0:
76,192,37862,1,0,0:0:0:0:
179,192,37862,1,0,0:0:0:0:
332,192,37953,1,0,0:0:0:0:
435,192,37953,1,0,0:0:0:0:
128,192,38226,1,0,0:0:0:0:
230,192,38226,1,0,0:0:0:0:
384,192,38499,1,0,0:0:0:0:
281,192,38499,1,0,0:0:0:0:
128,192,38680,1,0,0:0:0:0:
230,192,38680,1,0,0:0:0:0:
384,192,38862,1,0,0:0:0:0:
384,192,38953,1,0,0:0:0:0:
179,192,39044,1,0,0:0:0:0:
281,192,39135,1,0,0:0:0:0:
384,192,39226,1,0,0:0:0:0:
230,192,39317,1,0,0:0:0:0:
25,192,39408,1,0,0:0:0:0:
332,192,39408,1,0,0:0:0:0:
128,192,39499,1,0,0:0:0:0:
230,192,39590,1,0,0:0:0:0:
128,192,39680,1,0,0:0:0:0:
25,192,39771,1,0,0:0:0:0:
486,192,39771,1,0,0:0:0:0:
281,192,39953,1,0,0:0:0:0:
332,192,40135,1,0,0:0:0:0:
435,192,40135,1,0,0:0:0:0:
76,192,40226,1,0,0:0:0:0:
128,192,40317,1,0,0:0:0:0:
179,192,40408,1,0,0:0:0:0:
384,192,40499,1,0,0:0:0:0:
486,192,40499,1,0,0:0:0:0:
281,192,40590,1,0,0:0:0:0:
179,192,40680,1,0,0:0:0:0:
76,192,40771,1,0,0:0:0:0:
384,192,40862,1,0,0:0:0:0:
230,192,40862,1,0,0:0:0:0:
332,192,40953,1,0,0:0:0:0:
281,192,41044,1,0,0:0:0:0:
230,192,41135,1,0,0:0:0:0:
230,192,41317,1,0,0:0:0:0:
281,192,41408,1,0,0:0:0:0:
332,192,41499,1,0,0:0:0:0:
384,192,41590,1,0,0:0:0:0:
76,192,41590,1,0,0:0:0:0:
128,192,41680,1,0,0:0:0:0:
384,192,41771,1,0,0:0:0:0:
179,192,41862,1,0,0:0:0:0:
230,192,41953,1,0,0:0:0:0:
384,192,42044,1,0,0:0:0:0:
281,192,42135,1,0,0:0:0:0:
179,192,42226,1,0,0:0:0:0:
76,192,42317,1,0,0:0:0:0:
332,192,42317,1,0,0:0:0:0:
128,192,42499,1,0,0:0:0:0:
384,192,42499,1,0,0:0:0:0:
179,192,42680,1,0,0:0:0:0:
435,192,42680,1,0,0:0:0:0:
25,192,42862,1,0,0:0:0:0:
332,192,42862,1,0,0:0:0:0:
384,192,42953,1,0,0:0:0:0:
435,192,43044,1,0,0:0:0:0:
128,192,43044,1,0,0:0:0:0:
230,192,43226,1,0,0:0:0:0:
486,192,43226,1,0,0:0:0:0:
76,192,43408,1,0,0:0:0:0:
281,192,43408,1,0,0:0:0:0:
128,192,43499,1,0,0:0:0:0:
179,192,43590,1,0,0:0:0:0:
76,192,43680,1,0,0:0:0:0:
435,192,43771,1,0,0:0:0:0:
179,192,43771,1,0,0:0:0:0:
384,192,43953,1,0,0:0:0:0:
128,192,43953,1,0,0:0:0:0:
332,192,44135,1,0,0:0:0:0:
76,192,44135,1,0,0:0:0:0:
435,192,44317,1,0,0:0:0:0:
179,192,44317,1,0,0:0:0:0:
128,192,44408,1,0,0:0:0:0:
76,192,44499,1,0,0:0:0:0:
384,192,44499,1,0,0:0:0:0:
332,192,44680,1,0,0:0:0:0:
25,192,44680,1,0,0:0:0:0:
435,192,44862,1,0,0:0:0:0:
179,192,44862,1,0,0:0:0:0:
281,192,44953,1,0,0:0:0:0:
76,192,45044,1,0,0:0:0:0:
332,192,45135,1,0,0:0:0:0:
230,192,45226,1,0,0:0:0:0:
128,192,45226,1,0,0:0:0:0:
332,192,45317,1,0,0:0:0:0:
435,192,45408,1,0,0:0:0:0:
230,192,45499,1,0,0:0:0:0:
332,192,45590,1,0,0:0:0:0:
25,192,45590,1,0,0:0:0:0:
435,192,45680,1,0,0:0:0:0:
230,192,45771,1,0,0:0:0:0:
332,192,45862,1,0,0:0:0:0:
435,192,45953,1,0,0:0:0:0:
179,192,45953,1,0,0:0:0:0:
76,192,46044,1,0,0:0:0:0:
435,192,46135,1,0,0:0:0:0:
179,192,46226,1,0,0:0:0:0:
230,192,46317,1,0,0:0:0:0:
384,192,46317,1,0,0:0:0:0:
281,192,46408,1,0,0:0:0:0:
230,192,46499,1,0,0:0:0:0:
128,192,46590,1,0,0:0:0:0:
281,192,46680,1,0,0:0:0:0:
435,192,46680,1,0,0:0:0:0:
179,192,46771,1,0,0:0:0:0:
76,192,46862,1,0,0:0:0:0:
281,192,46953,1,0,0:0:0:0:
435,192,47044,1,0,0:0:0:0:
179,192,47044,1,0,0:0:0:0:
76,192,47135,1,0,0:0:0:0:
281,192,47226,1,0,0:0:0:0:
179,192,47317,1,0,0:0:0:0:
76,192,47408,1,0,0:0:0:0:
435,192,47408,1,0,0:0:0:0:
332,192,47499,1,0,0:0:0:0:
230,192,47590,1,0,0:0:0:0:
332,192,47680,1,0,0:0:0:0:
435,192,47771,1,0,0:0:0:0:
179,192,47771,1,0,0:0:0:0:
128,192,47862,1,0,0:0:0:0:
384,192,47953,1,0,0:0:0:0:
281,192,48044,1,0,0:0:0:0:
25,192,48135,1,0,0:0:0:0:
179,192,48135,1,0,0:0:0:0:
384,192,48226,1,0,0:0:0:0:
486,192,48317,1,0,0:0:0:0:
179,192,48408,1,0,0:0:0:0:
25,192,48499,1,0,0:0:0:0:
384,192,48499,1,0,0:0:0:0:
486,192,48590,1,0,0:0:0:0:
332,192,48680,1,0,0:0:0:0:
230,192,48771,1,0,0:0:0:0:
128,192,48862,1,0,0:0:0:0:
435,192,48862,1,0,0:0:0:0:
384,192,48923,1,0,0:0:0:0:
332,192,48983,1,0,0:0:0:0:
281,192,49044,1,0,0:0:0:0:
384,192,49226,1,0,0:0:0:0:
230,192,49226,1,0,0:0:0:0:
179,192,49286,1,0,0:0:0:0:
128,192,49347,1,0,0:0:0:0:
76,192,49408,1,0,0:0:0:0:
332,192,49590,1,0,0:0:0:0:
435,192,49590,1,0,0:0:0:0:
128,192,49771,1,0,0:0:0:0:
281,192,49862,1,0,0:0:0:0:
384,192,49862,1,0,0:0:0:0:
76,192,50044,1,0,0:0:0:0:
332,192,50135,1,0,0:0:0:0:
230,192,50135,1,0,0:0:0:0:
179,192,50317,1,0,0:0:0:0:
281,192,50317,1,0,0:0:0:0:
179,192,50862,1,0,0:0:0:0:
281,192,50953,1,0,0:0:0:0:
384,192,51044,1,0,0:0:0:0:
384,192,51317,1,0,0:0:0:0:
384,192,51408,1,0,0:0:0:0:
128,192,51499,1,0,0:0:0:0:
384,192,51590,1,0,0:0:0:0:
230,192,51680,1,0,0:0:0:0:
384,192,51771,1,0,0:0:0:0:
332,192,51953,1,0,0:0:0:0:
179,192,52135,1,0,0:0:0:0:
332,192,52317,1,0,0:0:0:0:
128,192,52499,1,0,0:0:0:0:
128,192,52771,1,0,0:0:0:0:
128,192,52862,1,0,0:0:0:0:
384,192,52953,1,0,0:0:0:0:
128,192,53044,1,0,0:0:0:0:
332,192,53135,1,0,0:0:0:0:
128,192,53226,1,0,0:0:0:0:
230,192,53408,1,0,0:0:0:0:
332,192,53590,1,0,0:0:0:0:
435,192,53771,1,0,0:0:0:0:
25,192,53953,1,0,0:0:0:0:
128,192,54135,1,0,0:0:0:0:
179,192,54226,1,0,0:0:0:0:
230,192,54317,1,0,0:0:0:0:
332,192,54499,1,0,0:0:0:0:
384,192,54590,1,0,0:0:0:0:
435,192,54680,1,0,0:0:0:0:
332,192,54862,1,0,0:0:0:0:
230,192,55044,1,0,0:0:0:0:
435,192,55226,1,0,0:0:0:0:
435,192,55408,1,0,0:0:0:0:
332,192,55680,1,0,0:0:0:0:
179,192,55953,1,0,0:0:0:0:
332,192,56135,1,0,0:0:0:0:
76,192,56590,1,0,0:0:0:0:
128,192,56680,1,0,0:0:0:0:
179,192,56771,1,0,0:0:0:0:
230,192,56862,1,0,0:0:0:0:
281,192,57135,1,0,0:0:0:0:
76,192,57226,1,0,0:0:0:0:
128,192,57408,1,0,0:0:0:0:
332,192,57499,1,0,0:0:0:0:
128,192,57590,1,0,0:0:0:0:
179,192,57771,1,0,0:0:0:0:
230,192,57953,1,0,0:0:0:0:
332,192,58135,1,0,0:0:0:0:
230,192,58317,1,0,0:0:0:0:
332,192,58408,1,0,0:0:0:0:
230,192,58499,1,0,0:0:0:0:
281,192,58590,1,0,0:0:0:0:
332,192,58680,1,0,0:0:0:0:
435,192,58862,1,0,0:0:0:0:
179,192,59044,1,0,0:0:0:0:
332,192,59226,1,0,0:0:0:0:
281,192,59317,1,0,0:0:0:0:
230,192,59408,1,0,0:0:0:0:
332,192,59590,1,0,0:0:0:0:
384,192,59771,1,0,0:0:0:0:
128,192,59953,1,0,0:0:0:0:
128,192,60044,1,0,0:0:0:0:
281,192,60135,1,0,0:0:0:0:
179,192,60317,1,0,0:0:0:0:
179,192,60408,1,0,0:0:0:0:
384,192,60499,1,0,0:0:0:0:
281,192,60680,1,0,0:0:0:0:
281,192,60771,1,0,0:0:0:0:
76,192,60862,1,0,0:0:0:0:
281,192,61044,1,0,0:0:0:0:
281,192,61135,1,0,0:0:0:0:
128,192,61226,1,0,0:0:0:0:
332,192,61499,1,0,0:0:0:0:
230,192,61590,1,0,0:0:0:0:
332,192,61771,1,0,0:0:0:0:
128,192,62044,1,0,0:0:0:0:
128,192,62226,1,0,0:0:0:0:
435,192,62317,1,0,0:0:0:0:
384,192,62408,1,0,0:0:0:0:
332,192,62499,1,0,0:0:0:0:
281,192,62590,1,0,0:0:0:0:
230,192,62680,1,0,0:0:0:0:
25,192,62680,1,0,0:0:0:0:
486,192,62862,1,0,0:0:0:0:
281,192,62953,1,0,0:0:0:0:
128,192,63044,1,0,0:0:0:0:
384,192,63044,1,0,0:0:0:0:
179,192,63226,1,0,0:0:0:0:
281,192,63317,1,0,0:0:0:0:
25,192,63408,1,0,0:0:0:0:
435,192,63408,1,0,0:0:0:0:
281,192,63590,1,0,0:0:0:0:
128,192,63680,1,0,0:0:0:0:
486,192,63771,1,0,0:0:0:0:
230,192,63771,1,0,0:0:0:0:
179,192,63953,1,0,0:0:0:0:
332,192,63953,1,0,0:0:0:0:
128,192,64135,1,0,0:0:0:0:
281,192,64135,1,0,0:0:0:0:
332,192,64317,1,0,0:0:0:0:
179,192,64408,1,0,0:0:0:0:
25,192,64499,1,0,0:0:0:0:
281,192,64499,1,0,0:0:0:0:
435,192,64680,1,0,0:0:0:0:
179,192,64680,1,0,0:0:0:0:
281,192,64862,1,0,0:0:0:0:
25,192,64953,1,0,0:0:0:0:
435,192,65044,1,0,0:0:0:0:
76,192,65135,1,0,0:0:0:0:
128,192,65226,1,0,0:0:0:0:
332,192,65226,1,0,0:0:0:0:
179,192,65317,1,0,0:0:0:0:
435,192,65408,1,0,0:0:0:0:
230,192,65408,1,0,0:0:0:0:
179,192,65499,1,0,0:0:0:0:
281,192,65590,1,0,0:0:0:0:
486,192,65590,1,0,0:0:0:0:
25,192,65771,1,0,0:0:0:0:
230,192,65862,1,0,0:0:0:0:
384,192,65953,1,0,0:0:0:0:
128,192,65953,1,0,0:0:0:0:
281,192,66135,1,0,0:0:0:0:
179,192,66226,1,0,0:0:0:0:
486,192,66317,1,0,0:0:0:0:
76,192,66317,1,0,0:0:0:0:
230,192,66499,1,0,0:0:0:0:
332,192,66590,1,0,0:0:0:0:
128,192,66680,1,0,0:0:0:0:
486,192,66680,1,0,0:0:0:0:
230,192,66862,1,0,0:0:0:0:
384,192,66862,1,0,0:0:0:0:
435,192,67044,1,0,0:0:0:0:
128,192,67044,1,0,0:0:0:0:
281,192,67226,1,0,0:0:0:0:
76,192,67317,1,0,0:0:0:0:
384,192,67317,1,0,0:0:0:0:
486,192,67408,1,0,0:0:0:0:
179,192,67408,1,0,0:0:0:0:
332,192,67590,1,0,0:0:0:0:
179,192,67680,1,0,0:0:0:0:
281,192,67771,1,0,0:0:0:0:
486,192,67771,1,0,0:0:0:0:
76,192,67953,1,0,0:0:0:0:
179,192,68044,1,0,0:0:0:0:
25,192,68135,1,0,0:0:0:0:
281,192,68135,1,0,0:0:0:0:
486,192,68226,1,0,0:0:0:0:
384,192,68317,1,0,0:0:0:0:
281,192,68408,1,0,0:0:0:0:
384,192,68499,1,0,0:0:0:0:
128,192,68499,1,0,0:0:0:0:
230,192,68680,1,0,0:0:0:0:
332,192,68771,1,0,0:0:0:0:
128,192,68862,1,0,0:0:0:0:
435,192,68862,1,0,0:0:0:0:
281,192,68953,1,0,0:0:0:0:
76,192,69044,1,0,0:0:0:0:
230,192,69135,1,0,0:0:0:0:
179,192,69226,1,0,0:0:0:0:
384,192,69226,1,0,0:0:0:0:
281,192,69408,1,0,0:0:0:0:
128,192,69499,1,0,0:0:0:0:
25,192,69590,1,0,0:0:0:0:
332,192,69590,1,0,0:0:0:0:
435,192,69771,1,0,0:0:0:0:
179,192,69771,1,0,0:0:0:0:
76,192,69953,1,0,0:0:0:0:
332,192,69953,1,0,0:0:0:0:
281,192,70135,1,0,0:0:0:0:
128,192,70226,1,0,0:0:0:0:
486,192,70317,1,0,0:0:0:0:
179,192,70317,1,0,0:0:0:0:
332,192,70408,1,0,0:0:0:0:
128,192,70499,1,0,0:0:0:0:
230,192,70590,1,0,0:0:0:0:
332,192,70680,1,0,0:0:0:0:
486,192,70680,1,0,0:0:0:0:
179,192,70862,1,0,0:0:0:0:
76,192,70862,1,0,0:0:0:0:
230,192,70953,1,0,0:0:0:0:
384,192,71044,1,0,0:0:0:0:
281,192,71044,1,0,0:0:0:0:
25,192,71226,1,0,0:0:0:0:
128,192,71317,1,0,0:0:0:0:
384,192,71408,1,0,0:0:0:0:
230,192,71408,1,0,0:0:0:0:
76,192,71499,1,0,0:0:0:0:
179,192,71590,1,0,0:0:0:0:
281,192,71680,1,0,0:0:0:0:
486,192,71771,1,0,0:0:0:0:
128,192,71771,1,0,0:0:0:0:
332,192,71862,1,0,0:0:0:0:
179,192,71953,1,0,0:0:0:0:
486,192,72135,1,0,0:0:0:0:
25,192,72135,1,0,0:0:0:0:
384,192,72226,1,0,0:0:0:0:
281,192,72317,1,0,0:0:0:0:
435,192,72408,1,0,0:0:0:0:
332,192,72499,1,0,0:0:0:0:
25,192,72499,1,0,0:0:0:0:
128,192,72590,1,0,0:0:0:0:
230,192,72680,1,0,0:0:0:0:
76,192,72862,1,0,0:0:0:0:
281,192,72862,1,0,0:0:0:0:
128,192,72923,1,0,0:0:0:0:
179,192,72983,1,0,0:0:0:0:
230,192,73044,1,0,0:0:0:0:
281,192,73226,1,0,0:0:0:0:
25,192,73226,1,0,0:0:0:0:
332,192,73286,1,0,0:0:0:0:
384,192,73347,1,0,0:0:0:0:
435,192,73408,1,0,0:0:0:0:
486,192,73590,1,0,0:0:0:0:
230,192,73590,1,0,0:0:0:0:
486,192,73771,1,0,0:0:0:0:
230,192,73771,1,0,0:0:0:0:
179,192,73953,1,0,0:0:0:0:
435,192,73953,1,0,0:0:0:0:
384,192,74135,1,0,0:0:0:0:
128,192,74135,1,0,0:0:0:0:
25,192,74317,1,0,0:0:0:0:
435,192,74317,1,0,0:0:0:0:
128,192,74408,1,0,0:0:0:0:
230,192,74499,1,0,0:0:0:0:
128,192,74590,1,0,0:0:0:0:
25,192,74680,1,0,0:0:0:0:
486,192,74680,1,0,0:0:0:0:
332,192,74862,1,0,0:0:0:0:
76,192,75044,1,0,0:0:0:0:
230,192,75044,1,0,0:0:0:0:
281,192,75135,1,0,0:0:0:0:
332,192,75226,1,0,0:0:0:0:
384,192,75317,1,0,0:0:0:0:
435,192,75408,1,0,0:0:0:0:
128,192,75408,1,0,0:0:0:0:
230,192,75499,1,0,0:0:0:0:
332,192,75590,1,0,0:0:0:0:
76,192,75680,1,0,0:0:0:0:
384,192,75771,1,0,0:0:0:0:
179,192,75771,1,0,0:0:0:0:
332,192,75862,1,0,0:0:0:0:
281,192,75953,1,0,0:0:0:0:
230,192,76044,1,0,0:0:0:0:
230,192,76226,1,0,0:0:0:0:
281,192,76317,1,0,0:0:0:0:
332,192,76408,1,0,0:0:0:0:
384,192,76499,1,0,0:0:0:0:
76,192,76499,1,0,0:0:0:0:
128,192,76590,1,0,0:0:0:0:
384,192,76680,1,0,0:0:0:0:
179,192,76771,1,0,0:0:0:0:
486,192,76862,1,0,0:0:0:0:
230,192,76862,1,0,0:0:0:0:
384,192,76953,1,0,0:0:0:0:
281,192,77044,1,0,0:0:0:0:
179,192,77135,1,0,0:0:0:0:
76,192,77226,1,0,0:0:0:0:
128,192,77226,1,0,0:0:0:0:
230,192,77408,1,0,0:0:0:0:
281,192,77408,1,0,0:0:0:0:
435,192,77590,1,0,0:0:0:0:
384,192,77590,1,0,0:0:0:0:
76,192,77771,1,0,0:0:0:0:
128,192,77771,1,0,0:0:0:0:
332,192,77862,1,0,0:0:0:0:
230,192,77953,1,0,0:0:0:0:
281,192,77953,1,0,0:0:0:0:
435,192,78135,1,0,0:0:0:0:
384,192,78135,1,0,0:0:0:0:
76,192,78317,1,0,0:0:0:0:
281,192,78317,1,0,0:0:0:0:
128,192,78408,1,0,0:0:0:0:
179,192,78499,1,0,0:0:0:0:
76,192,78590,1,0,0:0:0:0:
435,192,78680,1,0,0:0:0:0:
384,192,78680,1,0,0:0:0:0:
281,192,78862,1,0,0:0:0:0:
230,192,78862,1,0,0:0:0:0:
128,192,79044,1,0,0:0:0:0:
76,192,79044,1,0,0:0:0:0:
384,192,79226,1,0,0:0:0:0:
435,192,79226,1,0,0:0:0:0:
179,192,79317,1,0,0:0:0:0:
281,192,79408,1,0,0:0:0:0:
230,192,79408,1,0,0:0:0:0:
76,192,79590,1,0,0:0:0:0:
435,192,79590,1,0,0:0:0:0:
332,192,79680,1,0,0:0:0:0:
25,192,79771,1,0,0:0:0:0:
486,192,79771,1,0,0:0:0:0:
128,192,79862,1,0,0:0:0:0:
230,192,79953,1,0,0:0:0:0:
384,192,80044,1,0,0:0:0:0:
230,192,80135,1,0,0:0:0:0:
128,192,80135,1,0,0:0:0:0:
332,192,80226,1,0,0:0:0:0:
435,192,80317,1,0,0:0:0:0:
230,192,80408,1,0,0:0:0:0:
332,192,80499,1,0,0:0:0:0:
25,192,80499,1,0,0:0:0:0:
435,192,80590,1,0,0:0:0:0:
230,192,80680,1,0,0:0:0:0:
332,192,80771,1,0,0:0:0:0:
435,192,80862,1,0,0:0:0:0:
179,192,80862,1,0,0:0:0:0:
76,192,80953,1,0,0:0:0:0:
435,192,81044,1,0,0:0:0:0:
179,192,81135,1,0,0:0:0:0:
230,192,81226,1,0,0:0:0:0:
384,192,81226,1,0,0:0:0:0:
281,192,81317,1,0,0:0:0:0:
230,192,81408,1,0,0:0:0:0:
128,192,81499,1,0,0:0:0:0:
281,192,81590,1,0,0:0:0:0:
384,192,81590,1,0,0:0:0:0:
179,192,81680,1,0,0:0:0:0:
76,192,81771,1,0,0:0:0:0:
281,192,81862,1,0,0:0:0:0:
486,192,81953,1,0,0:0:0:0:
179,192,81953,1,0,0:0:0:0:
76,192,82044,1,0,0:0:0:0:
281,192,82135,1,0,0:0:0:0:
179,192,82226,1,0,0:0:0:0:
76,192,82317,1,0,0:0:0:0:
435,192,82317,1,0,0:0:0:0:
332,192,82408,1,0,0:0:0:0:
230,192,82499,1,0,0:0:0:0:
332,192,82590,1,0,0:0:0:0:
435,192,82680,1,0,0:0:0:0:
179,192,82680,1,0,0:0:0:0:
76,192,82771,1,0,0:0:0:0:
435,192,82862,1,0,0:0:0:0:
332,192,82953,1,0,0:0:0:0:
179,192,83044,1,0,0:0:0:0:
25,192,83044,1,0,0:0:0:0:
281,192,83135,1,0,0:0:0:0:
435,192,83226,1,0,0:0:0:0:
179,192,83317,1,0,0:0:0:0:
25,192,83408,1,0,0:0:0:0:
281,192,83408,1,0,0:0:0:0:
435,192,83499,1,0,0:0:0:0:
179,192,83590,1,0,0:0:0:0:
281,192,83680,1,0,0:0:0:0:
486,192,83771,1,0,0:0:0:0:
332,192,83771,1,0,0:0:0:0:
128,192,83862,1,0,0:0:0:0:
25,192,83953,1,0,0:0:0:0:
332,192,84044,1,0,0:0:0:0:
486,192,84135,1,0,0:0:0:0:
128,192,84135,1,0,0:0:0:0:
25,192,84226,1,0,0:0:0:0:
435,192,84317,1,0,0:0:0:0:
332,192,84317,1,0,0:0:0:0:
76,192,84408,1,0,0:0:0:0:
179,192,84408,1,0,0:0:0:0:
332,192,84499,1,0,0:0:0:0:
435,192,84499,1,0,0:0:0:0:
128,192,84771,1,0,0:0:0:0:
230,192,84771,1,0,0:0:0:0:
384,192,85044,1,0,0:0:0:0:
281,192,85044,1,0,0:0:0:0:
128,192,85226,1,0,0:0:0:0:
230,192,85226,1,0,0:0:0:0:
384,192,85408,1,0,0:0:0:0:
384,192,85499,1,0,0:0:0:0:
179,192,85590,1,0,0:0:0:0:
281,192,85680,1,0,0:0:0:0:
384,192,85771,1,0,0:0:0:0:
230,192,85862,1,0,0:0:0:0:
25,192,85953,1,0,0:0:0:0:
332,192,85953,1,0,0:0:0:0:
128,192,86044,1,0,0:0:0:0:
230,192,86135,1,0,0:0:0:0:
128,192,86226,1,0,0:0:0:0:
25,192,86317,1,0,0:0:0:0:
486,192,86317,1,0,0:0:0:0:
281,192,86499,1,0,0:0:0:0:
332,192,86680,1,0,0:0:0:0:
435,192,86680,1,0,0:0:0:0:
76,192,86771,1,0,0:0:0:0:
128,192,86862,1,0,0:0:0:0:
179,192,86953,1,0,0:0:0:0:
384,192,87044,1,0,0:0:0:0:
486,192,87044,1,0,0:0:0:0:
281,192,87135,1,0,0:0:0:0:
179,192,87226,1,0,0:0:0:0:
76,192,87317,1,0,0:0:0:0:
384,192,87408,1,0,0:0:0:0:
230,192,87408,1,0,0:0:0:0:
332,192,87499,1,0,0:0:0:0:
281,192,87590,1,0,0:0:0:0:
230,192,87680,1,0,0:0:0:0:
230,192,87862,1,0,0:0:0:0:
281,192,87953,1,0,0:0:0:0:
332,192,88044,1,0,0:0:0:0:
384,192,88135,1,0,0:0:0:0:
76,192,88135,1,0,0:0:0:0:
128,192,88226,1,0,0:0:0:0:
384,192,88317,1,0,0:0:0:0:
179,192,88408,1,0,0:0:0:0:
230,192,88499,1,0,0:0:0:0:
384,192,88590,1,0,0:0:0:0:
281,192,88680,1,0,0:0:0:0:
179,192,88771,1,0,0:0:0:0:
76,192,88862,1,0,0:0:0:0:
332,192,88862,1,0,0:0:0:0:
128,192,89044,1,0,0:0:0:0:
384,192,89044,1,0,0:0:0:0:
179,192,89226,1,0,0:0:0:0:
435,192,89226,1,0,0:0:0:0:
332,192,89408,1,0,0:0:0:0:
76,192,89408,1,0,0:0:0:0:
435,192,89499,1,0,0:0:0:0:
128,192,89590,1,0,0:0:0:0:
230,192,89590,1,0,0:0:0:0:
281,192,89771,1,0,0:0:0:0:
384,192,89771,1,0,0:0:0:0:
486,192,89953,1,0,0:0:0:0:
76,192,89953,1,0,0:0:0:0:
128,192,90044,1,0,0:0:0:0:
179,192,90135,1,0,0:0:0:0:
230,192,90226,1,0,0:0:0:0:
435,192,90317,1,0,0:0:0:0:
179,192,90317,1,0,0:0:0:0:
384,192,90499,1,0,0:0:0:0:
128,192,90499,1,0,0:0:0:0:
332,192,90680,1,0,0:0:0:0:
76,192,90680,1,0,0:0:0:0:
281,192,90862,1,0,0:0:0:0:
230,192,90862,1,0,0:0:0:0:
128,192,90953,1,0,0:0:0:0:
332,192,91044,1,0,0:0:0:0:
435,192,91044,1,0,0:0:0:0:
179,192,91226,1,0,0:0:0:0:
76,192,91226,1,0,0:0:0:0:
486,192,91408,1,0,0:0:0:0:
25,192,91408,1,0,0:0:0:0:
435,192,91499,1,0,0:0:0:0:
384,192,91590,1,0,0:0:0:0:
332,192,91680,1,0,0:0:0:0:
230,192,91771,1,0,0:0:0:0:
128,192,91771,1,0,0:0:0:0:
332,192,91862,1,0,0:0:0:0:
435,192,91953,1,0,0:0:0:0:
230,192,92044,1,0,0:0:0:0:
332,192,92135,1,0,0:0:0:0:
25,192,92135,1,0,0:0:0:0:
435,192,92226,1,0,0:0:0:0:
230,192,92317,1,0,0:0:0:0:
332,192,92408,1,0,0:0:0:0:
435,192,92499,1,0,0:0:0:0:
179,192,92499,1,0,0:0:0:0:
76,192,92590,1,0,0:0:0:0:
435,192,92680,1,0,0:0:0:0:
179,192,92771,1,0,0:0:0:0:
230,192,92862,1,0,0:0:0:0:
384,192,92862,1,0,0:0:0:0:
281,192,92953,1,0,0:0:0:0:
230,192,93044,1,0,0:0:0:0:
128,192,93135,1,0,0:0:0:0:
281,192,93226,1,0,0:0:0:0:
435,192,93226,1,0,0:0:0:0:
179,192,93317,1,0,0:0:0:0:
76,192,93408,1,0,0:0:0:0:
281,192,93499,1,0,0:0:0:0:
435,192,93590,1,0,0:0:0:0:
179,192,93590,1,0,0:0:0:0:
76,192,93680,1,0,0:0:0:0:
281,192,93771,1,0,0:0:0:0:
179,192,93862,1,0,0:0:0:0:
76,192,93953,1,0,0:0:0:0:
435,192,93953,1,0,0:0:0:0:
332,192,94044,1,0,0:0:0:0:
230,192,94135,1,0,0:0:0:0:
332,192,94226,1,0,0:0:0:0:
435,192,94317,1,0,0:0:0:0:
179,192,94317,1,0,0:0:0:0:
128,192,94408,1,0,0:0:0:0:
384,192,94499,1,0,0:0:0:0:
281,192,94590,1,0,0:0:0:0:
25,192,94680,1,0,0:0:0:0:
179,192,94680,1,0,0:0:0:0:
384,192,94771,1,0,0:0:0:0:
486,192,94862,1,0,0:0:0:0:
179,192,94953,1,0,0:0:0:0:
25,192,95044,1,0,0:0:0:0:
384,192,95044,1,0,0:0:0:0:
486,192,95135,1,0,0:0:0:0:
332,192,95226,1,0,0:0:0:0:
230,192,95317,1,0,0:0:0:0:
128,192,95408,1,0,0:0:0:0:
435,192,95408,1,0,0:0:0:0:
384,192,95468,1,0,0:0:0:0:
332,192,95529,1,0,0:0:0:0:
281,192,95590,1,0,0:0:0:0:
384,192,95771,1,0,0:0:0:0:
230,192,95771,1,0,0:0:0:0:
179,192,95832,1,0,0:0:0:0:
128,192,95893,1,0,0:0:0:0:
76,192,95953,1,0,0:0:0:0:
332,192,96135,1,0,0:0:0:0:
435,192,96135,1,0,0:0:0:0:
128,192,96317,1,0,0:0:0:0:
281,192,96408,1,0,0:0:0:0:
384,192,96408,1,0,0:0:0:0:
76,192,96590,1,0,0:0:0:0:
332,192,96680,1,0,0:0:0:0:
230,192,96680,1,0,0:0:0:0:
281,192,96862,1,0,0:0:0:0:
435,192,96862,1,0,0:0:0:0:
128,192,97044,1,0,0:0:0:0:
230,192,97135,1,0,0:0:0:0:
384,192,97135,1,0,0:0:0:0:
76,192,97317,1,0,0:0:0:0:
332,192,97408,1,0,0:0:0:0:
179,192,97408,1,0,0:0:0:0:
25,192,97590,1,0,0:0:0:0:
230,192,97590,1,0,0:0:0:0:
76,192,97771,1,0,0:0:0:0:
128,192,97862,1,0,0:0:0:0:
384,192,97953,1,0,0:0:0:0:
179,192,97953,1,0,0:0:0:0:
128,192,98135,1,0,0:0:0:0:
179,192,98226,1,0,0:0:0:0:
230,192,98317,1,0,0:0:0:0:
435,192,98317,1,0,0:0:0:0:
179,192,98499,1,0,0:0:0:0:
230,192,98590,1,0,0:0:0:0:
486,192,98680,1,0,0:0:0:0:
281,192,98680,1,0,0:0:0:0:
179,192,98771,1,0,0:0:0:0:
332,192,98862,1,0,0:0:0:0:
179,192,98953,1,0,0:0:0:0:
281,192,99044,1,0,0:0:0:0:
435,192,99044,1,0,0:0:0:0:
25,192,99044,1,0,0:0:0:0:
281,192,99317,1,0,0:0:0:0:
435,192,99317,1,0,0:0:0:0:
25,192,99317,1,0,0:0:0:0:
332,192,99590,1,0,0:0:0:0:
179,192,99590,1,0,0:0:0:0:
435,192,99771,1,0,0:0:0:0:
281,192,99771,1,0,0:0:0:0:
25,192,99771,1,0,0:0:0:0:
76,192,100317,1,0,0:0:0:0:
179,192,100408,1,0,0:0:0:0:
230,192,100499,1,0,0:0:0:0:
281,192,100499,1,0,0:0:0:0:
332,192,100680,1,0,0:0:0:0:
384,192,100862,1,0,0:0:0:0:
25,192,100862,1,0,0:0:0:0:
435,192,101044,1,0,0:0:0:0:
486,192,101226,1,0,0:0:0:0:
230,192,101226,1,0,0:0:0:0:
128,192,101408,1,0,0:0:0:0:
25,192,101590,1,0,0:0:0:0:
332,192,101590,1,0,0:0:0:0:
281,192,101771,1,0,0:0:0:0:
281,192,101953,1,0,0:0:0:0:
179,192,101953,1,0,0:0:0:0:
332,192,102044,1,0,0:0:0:0:
76,192,102135,1,0,0:0:0:0:
128,192,102226,1,0,0:0:0:0:
486,192,102317,1,0,0:0:0:0:
179,192,102317,1,0,0:0:0:0:
230,192,102499,1,0,0:0:0:0:
76,192,102680,1,0,0:0:0:0:
435,192,102862,1,0,0:0:0:0:
332,192,103044,1,0,0:0:0:0:
179,192,103044,1,0,0:0:0:0:
435,192,103226,1,0,0:0:0:0:
25,192,103408,1,0,0:0:0:0:
281,192,103408,1,0,0:0:0:0:
332,192,103590,1,0,0:0:0:0:
384,192,103680,1,0,0:0:0:0:
435,192,103771,1,0,0:0:0:0:
128,192,103771,1,0,0:0:0:0:
179,192,103953,1,0,0:0:0:0:
230,192,104135,1,0,0:0:0:0:
281,192,104135,1,0,0:0:0:0:
384,192,104317,1,0,0:0:0:0:
486,192,104499,1,0,0:0:0:0:
179,192,104499,1,0,0:0:0:0:
128,192,104680,1,0,0:0:0:0:
76,192,104862,1,0,0:0:0:0:
332,192,104862,1,0,0:0:0:0:
230,192,104953,1,0,0:0:0:0:
281,192,105044,1,0,0:0:0:0:
435,192,105226,1,0,0:0:0:0:
25,192,105226,1,0,0:0:0:0:
281,192,105408,1,0,0:0:0:0:
332,192,105590,1,0,0:0:0:0:
435,192,105771,1,0,0:0:0:0:
76,192,105771,1,0,0:0:0:0:
384,192,105862,1,0,0:0:0:0:
179,192,105953,1,0,0:0:0:0:
332,192,105953,1,0,0:0:0:0:
76,192,106135,1,0,0:0:0:0:
332,192,106317,1,0,0:0:0:0:
76,192,106317,1,0,0:0:0:0:
179,192,106499,1,0,0:0:0:0:
281,192,106499,1,0,0:0:0:0:
384,192,106590,1,0,0:0:0:0:
486,192,106680,1,0,0:0:0:0:
25,192,106680,1,0,0:0:0:0:
230,192,106862,1,0,0:0:0:0:
332,192,107044,1,0,0:0:0:0:
76,192,107044,1,0,0:0:0:0:
128,192,107226,1,0,0:0:0:0:
230,192,107408,1,0,0:0:0:0:
486,192,107408,1,0,0:0:0:0:
179,192,107590,1,0,0:0:0:0:
179,192,107771,1,0,0:0:0:0:
435,192,107771,1,0,0:0:0:0:
230,192,107953,1,0,0:0:0:0:
384,192,108044,1,0,0:0:0:0:
25,192,108135,1,0,0:0:0:0:
332,192,108135,1,0,0:0:0:0:
384,192,108317,1,0,0:0:0:0:
179,192,108499,1,0,0:0:0:0:
230,192,108680,1,0,0:0:0:0:
486,192,108680,1,0,0:0:0:0:
128,192,108771,1,0,0:0:0:0:
25,192,108862,1,0,0:0:0:0:
281,192,108862,1,0,0:0:0:0:
486,192,109044,1,0,0:0:0:0:
435,192,109226,1,0,0:0:0:0:
128,192,109226,1,0,0:0:0:0:
179,192,109408,1,0,0:0:0:0:
332,192,109499,1,0,0:0:0:0:
230,192,109590,1,0,0:0:0:0:
25,192,109590,1,0,0:0:0:0:
332,192,109771,1,0,0:0:0:0:
25,192,109953,1,0,0:0:0:0:
486,192,109953,1,0,0:0:0:0:
384,192,110135,1,0,0:0:0:0:
332,192,110226,1,0,0:0:0:0:
76,192,110317,1,0,0:0:0:0:
281,192,110317,1,0,0:0:0:0:
128,192,110499,1,0,0:0:0:0:
179,192,110590,1,0,0:0:0:0:
435,192,110680,1,0,0:0:0:0:
230,192,110680,1,0,0:0:0:0:
384,192,110862,1,0,0:0:0:0:
76,192,110953,1,0,0:0:0:0:
179,192,111044,1,0,0:0:0:0:
332,192,111044,1,0,0:0:0:0:
128,192,111226,1,0,0:0:0:0:
435,192,111408,1,0,0:0:0:0:
230,192,111499,1,0,0:0:0:0:
230,192,111680,1,0,0:0:0:0:
25,192,111771,1,0,0:0:0:0:
486,192,111771,1,0,0:0:0:0:
384,192,111862,1,0,0:0:0:0:
281,192,111953,1,0,0:0:0:0:
179,192,112044,1,0,0:0:0:0:
486,192,112135,1,0,0:0:0:0:
76,192,112135,1,0,0:0:0:0:
435,192,112226,1,0,0:0:0:0:
384,192,112317,1,0,0:0:0:0:
332,192,112408,1,0,0:0:0:0:
76,192,112499,1,0,0:0:0:0:
179,192,112499,1,0,0:0:0:0:
384,192,112590,1,0,0:0:0:0:
230,192,112680,1,0,0:0:0:0:
435,192,112771,1,0,0:0:0:0:
25,192,112862,1,0,0:0:0:0:
281,192,112862,1,0,0:0:0:0:
76,192,112953,1,0,0:0:0:0:
128,192,113044,1,0,0:0:0:0:
179,192,113135,1,0,0:0:0:0:
435,192,113135,1,0,0:0:0:0:
281,192,113226,1,0,0:0:0:0:
230,192,113226,1,0,0:0:0:0:
332,192,113317,1,0,0:0:0:0:
384,192,113408,1,0,0:0:0:0:
128,192,113408,1,0,0:0:0:0:
486,192,113590,1,0,0:0:0:0:
128,192,113590,1,0,0:0:0:0:
384,192,113680,1,0,0:0:0:0:
281,192,113771,1,0,0:0:0:0:
76,192,113862,1,0,0:0:0:0:
179,192,113862,1,0,0:0:0:0:
486,192,113953,1,0,0:0:0:0:
230,192,113953,1,0,0:0:0:0:
384,192,114044,1,0,0:0:0:0:
281,192,114135,1,0,0:0:0:0:
179,192,114226,1,0,0:0:0:0:
486,192,114317,1,0,0:0:0:0:
76,192,114317,1,0,0:0:0:0:
384,192,114408,1,0,0:0:0:0:
281,192,114499,1,0,0:0:0:0:
230,192,114499,1,0,0:0:0:0:
384,192,114680,1,0,0:0:0:0:
128,192,114680,1,0,0:0:0:0:
230,192,114862,1,0,0:0:0:0:
281,192,114862,1,0,0:0:0:0:
25,192,115044,1,0,0:0:0:0:
435,192,115044,1,0,0:0:0:0:
76,192,115135,1,0,0:0:0:0:
128,192,115226,1,0,0:0:0:0:
179,192,115317,1,0,0:0:0:0:
435,192,115408,1,0,0:0:0:0:
332,192,115408,1,0,0:0:0:0:
128,192,115499,1,0,0:0:0:0:
281,192,115590,1,0,0:0:0:0:
76,192,115680,1,0,0:0:0:0:
486,192,115771,1,0,0:0:0:0:
230,192,115771,1,0,0:0:0:0:
435,192,115862,1,0,0:0:0:0:
384,192,115953,1,0,0:0:0:0:
332,192,116044,1,0,0:0:0:0:
76,192,116044,1,0,0:0:0:0:
230,192,116135,1,0,0:0:0:0:
281,192,116135,1,0,0:0:0:0:
179,192,116226,1,0,0:0:0:0:
128,192,116317,1,0,0:0:0:0:
384,192,116317,1,0,0:0:0:0:
25,192,116499,1,0,0:0:0:0:
384,192,116499,1,0,0:0:0:0:
128,192,116590,1,0,0:0:0:0:
230,192,116680,1,0,0:0:0:0:
435,192,116771,1,0,0:0:0:0:
332,192,116771,1,0,0:0:0:0:
25,192,116862,1,0,0:0:0:0:
281,192,116862,1,0,0:0:0:0:
128,192,116953,1,0,0:0:0:0:
230,192,117044,1,0,0:0:0:0:
332,192,117135,1,0,0:0:0:0:
435,192,117226,1,0,0:0:0:0:
25,192,117226,1,0,0:0:0:0:
384,192,117317,1,0,0:0:0:0:
128,192,117408,1,0,0:0:0:0:
332,192,117499,1,0,0:0:0:0:
230,192,117590,1,0,0:0:0:0:
281,192,117590,1,0,0:0:0:0:
384,192,117680,1,0,0:0:0:0:
179,192,117771,1,0,0:0:0:0:
384,192,117862,1,0,0:0:0:0:
281,192,117953,1,0,0:0:0:0:
128,192,117953,1,0,0:0:0:0:
76,192,117953,1,0,0:0:0:0:
179,192,118135,1,0,0:0:0:0:
128,192,118135,1,0,0:0:0:0:
332,192,118135,1,0,0:0:0:0:
384,192,118317,1,0,0:0:0:0:
230,192,118317,1,0,0:0:0:0:
179,192,118317,1,0,0:0:0:0:
25,192,118499,1,0,0:0:0:0:
281,192,118499,1,0,0:0:0:0:
486,192,118499,1,0,0:0:0:0:
332,192,118680,1,0,0:0:0:0:
76,192,118680,1,0,0:0:0:0:
128,192,118771,1,0,0:0:0:0:
179,192,118862,1,0,0:0:0:0:
230,192,118953,1,0,0:0:0:0:
486,192,118953,1,0,0:0:0:0:
76,192,119044,1,0,0:0:0:0:
332,192,119044,1,0,0:0:0:0:
128,192,119135,1,0,0:0:0:0:
179,192,119226,1,0,0:0:0:0:
384,192,119226,1,0,0:0:0:0:
384,192,119408,1,0,0:0:0:0:
179,192,119408,1,0,0:0:0:0:
281,192,119499,1,0,0:0:0:0:
179,192,119590,1,0,0:0:0:0:
76,192,119680,1,0,0:0:0:0:
230,192,119680,1,0,0:0:0:0:
384,192,119771,1,0,0:0:0:0:
486,192,119771,1,0,0:0:0:0:
281,192,119862,1,0,0:0:0:0:
179,192,119953,1,0,0:0:0:0:
332,192,119953,1,0,0:0:0:0:
76,192,120044,1,0,0:0:0:0:
384,192,120135,1,0,0:0:0:0:
281,192,120226,1,0,0:0:0:0:
179,192,120317,1,0,0:0:0:0:
76,192,120408,1,0,0:0:0:0:
230,192,120408,1,0,0:0:0:0:
435,192,120499,1,0,0:0:0:0:
281,192,120499,1,0,0:0:0:0:
25,192,120680,1,0,0:0:0:0:
179,192,120680,1,0,0:0:0:0:
435,192,120862,1,0,0:0:0:0:
230,192,120862,1,0,0:0:0:0:
384,192,120953,1,0,0:0:0:0:
332,192,121044,1,0,0:0:0:0:
179,192,121135,1,0,0:0:0:0:
281,192,121135,1,0,0:0:0:0:
486,192,121226,1,0,0:0:0:0:
76,192,121226,1,0,0:0:0:0:
384,192,121317,1,0,0:0:0:0:
281,192,121408,1,0,0:0:0:0:
179,192,121499,1,0,0:0:0:0:
332,192,121499,1,0,0:0:0:0:
76,192,121590,1,0,0:0:0:0:
435,192,121590,1,0,0:0:0:0:
128,192,121680,1,0,0:0:0:0:
179,192,121771,1,0,0:0:0:0:
230,192,121862,1,0,0:0:0:0:
435,192,121862,1,0,0:0:0:0:
25,192,121953,1,0,0:0:0:0:
281,192,121953,1,0,0:0:0:0:
128,192,122135,1,0,0:0:0:0:
179,192,122135,1,0,0:0:0:0:
281,192,122226,1,0,0:0:0:0:
332,192,122226,1,0,0:0:0:0:
435,192,122317,1,0,0:0:0:0:
230,192,122317,1,0,0:0:0:0:
384,192,122408,1,0,0:0:0:0:
332,192,122499,1,0,0:0:0:0:
179,192,122590,1,0,0:0:0:0:
281,192,122590,1,0,0:0:0:0:
486,192,122680,1,0,0:0:0:0:
76,192,122680,1,0,0:0:0:0:
384,192,122771,1,0,0:0:0:0:
281,192,122862,1,0,0:0:0:0:
179,192,122953,1,0,0:0:0:0:
332,192,122953,1,0,0:0:0:0:
76,192,123044,1,0,0:0:0:0:
435,192,123044,1,0,0:0:0:0:
128,192,123135,1,0,0:0:0:0:
179,192,123226,1,0,0:0:0:0:
230,192,123317,1,0,0:0:0:0:
435,192,123317,1,0,0:0:0:0:
25,192,123408,1,0,0:0:0:0:
281,192,123408,1,0,0:0:0:0:
128,192,123590,1,0,0:0:0:0:
179,192,123590,1,0,0:0:0:0:
281,192,123680,1,0,0:0:0:0:
332,192,123680,1,0,0:0:0:0:
435,192,123771,1,0,0:0:0:0:
230,192,123771,1,0,0:0:0:0:
384,192,123862,1,0,0:0:0:0:
332,192,123953,1,0,0:0:0:0:
281,192,124044,1,0,0:0:0:0:
76,192,124135,1,0,0:0:0:0:
128,192,124135,1,0,0:0:0:0:
435,192,124226,1,0,0:0:0:0:
384,192,124226,1,0,0:0:0:0:
76,192,124317,1,0,0:0:0:0:
128,192,124317,1,0,0:0:0:0:
179,192,124408,1,0,0:0:0:0:
332,192,124408,1,0,0:0:0:0:
486,192,124499,5,0,0:0:0:0:
25,192,124499,1,0,0:0:0:0:
435,192,124559,1,0,0:0:0:0:
384,192,124620,1,0,0:0:0:0:
332,192,124680,1,0,0:0:0:0:
179,192,124680,1,0,0:0:0:0:
128,192,124741,1,0,0:0:0:0:
76,192,124802,1,0,0:0:0:0:
25,192,124862,1,0,0:0:0:0:
281,192,124862,1,0,0:0:0:0:
332,192,124923,1,0,0:0:0:0:
384,192,124983,1,0,0:0:0:0:
435,192,125044,1,0,0:0:0:0:
76,192,125044,1,0,0:0:0:0:
128,192,125105,1,0,0:0:0:0:
179,192,125165,1,0,0:0:0:0:
230,192,125226,1,0,0:0:0:0:
486,192,125226,1,0,0:0:0:0:
76,192,125408,1,0,0:0:0:0:
435,192,125499,1,0,0:0:0:0:
179,192,125499,1,0,0:0:0:0:
281,192,125680,1,0,0:0:0:0:
384,192,125771,1,0,0:0:0:0:
128,192,125771,1,0,0:0:0:0:
25,192,125953,1,0,0:0:0:0:
281,192,125953,1,0,0:0:0:0:
230,192,125953,1,0,0:0:0:0:
486,192,125953,1,0,0:0:0:0:
