osu file format v14

[General]
AudioFilename: audio.mp3
AudioLeadIn: 0
PreviewTime: 4499
Countdown: 0
SampleSet: Normal
StackLeniency: 0.7
Mode: 3
LetterboxInBreaks: 0
SpecialStyle: 0
WidescreenStoryboard: 1

[Editor]
DistanceSpacing: 1.3
BeatDivisor: 2
GridSize: 8
TimelineZoom: 1.699999

[Metadata]
Title:Mad Piano Party
TitleUnicode:Mad Piano Party
Artist:Plum
ArtistUnicode:Plum
Creator:[Sick]Catcat
Version:Monotonous Solo / Easy
Source:
Tags:FA Featured artist Melodic plumwriter Piano Instrumental Classical Melody From Sky MPG MG Mappers' Guild electronic 피아노 four hands performance 연탄곡 검은악보 black sheet music rice minijack
BeatmapID:3594076
BeatmapSetID:1756251

[Difficulty]
HPDrainRate:6
CircleSize:10
OverallDifficulty:6
ApproachRate:5
SliderMultiplier:1.4
SliderTickRate:1

[Events]
//Background and Video events
0,0,"MPP.jpg",0,0
//Break Periods
//Storyboard Layer 0 (Background)
//Storyboard Layer 1 (Fail)
//Storyboard Layer 2 (Pass)
//Storyboard Layer 3 (Foreground)
//Storyboard Layer 4 (Overlay)
//Storyboard Sound Samples

[TimingPoints]
1590,363.636363636364,4,1,1,35,1,0

[HitObjects]
486,192,1590,5,0,0:0:0:0:
25,192,1953,1,0,0:0:0:0:
486,192,2317,1,0,0:0:0:0:
25,192,2680,1,0,0:0:0:0:
486,192,3044,1,0,0:0:0:0:
25,192,3408,1,0,0:0:0:0:
486,192,3771,1,0,0:0:0:0:
25,192,4135,1,0,0:0:0:0:
435,192,4499,1,0,0:0:0:0:
384,192,4862,1,0,0:0:0:0:
332,192,5226,1,0,0:0:0:0:
281,192,5590,1,0,0:0:0:0:
76,192,5953,1,0,0:0:0:0:
128,192,6317,1,0,0:0:0:0:
179,192,6680,1,0,0:0:0:0:
230,192,7044,1,0,0:0:0:0:
384,192,7408,1,0,0:0:0:0:
332,192,7771,1,0,0:0:0:0:
281,192,8135,1,0,0:0:0:0:
230,192,8499,1,0,0:0:0:0:
128,192,8862,1,0,0:0:0:0:
179,192,9226,1,0,0:0:0:0:
230,192,9590,1,0,0:0:0:0:
281,192,9953,1,0,0:0:0:0:
332,192,10317,1,0,0:0:0:0:
179,192,10680,1,0,0:0:0:0:
384,192,11044,1,0,0:0:0:0:
128,192,11408,1,0,0:0:0:0:
435,192,11771,1,0,0:0:0:0:
76,192,12135,1,0,0:0:0:0:
435,192,12499,1,0,0:0:0:0:
76,192,12862,1,0,0:0:0:0:
281,192,13226,1,0,0:0:0:0:
230,192,13590,1,0,0:0:0:0:
384,192,13953,1,0,0:0:0:0:
128,192,14317,1,0,0:0:0:0:
332,192,14680,1,0,0:0:0:0:
179,192,15044,1,0,0:0:0:0:
332,192,15408,1,0,0:0:0:0:
435,192,16135,1,0,0:0:0:0:
76,192,16499,1,0,0:0:0:0:
332,192,16862,1,0,0:0:0:0:
179,192,17226,1,0,0:0:0:0:
435,192,17590,1,0,0:0:0:0:
76,192,17953,1,0,0:0:0:0:
384,192,18317,1,0,0:0:0:0:
128,192,18680,1,0,0:0:0:0:
435,192,19044,1,0,0:0:0:0:
332,192,19408,1,0,0:0:0:0:
230,192,19771,1,0,0:0:0:0:
128,192,20135,1,0,0:0:0:0:
76,192,20499,1,0,0:0:0:0:
179,192,20862,1,0,0:0:0:0:
281,192,21226,1,0,0:0:0:0:
384,192,21590,1,0,0:0:0:0:
25,192,21953,1,0,0:0:0:0:
76,192,22317,1,0,0:0:0:0:
128,192,22680,1,0,0:0:0:0:
179,192,23044,1,0,0:0:0:0:
332,192,23408,1,0,0:0:0:0:
384,192,23771,1,0,0:0:0:0:
435,192,24135,1,0,0:0:0:0:
486,192,24499,1,0,0:0:0:0:
281,192,24862,1,0,0:0:0:0:
128,192,25226,1,0,0:0:0:0:
384,192,25590,1,0,0:0:0:0:
230,192,25953,1,0,0:0:0:0:
332,192,26317,1,0,0:0:0:0:
179,192,26680,1,0,0:0:0:0:
332,192,27044,1,0,0:0:0:0:
281,192,27771,1,0,0:0:0:0:
230,192,27953,1,0,0:0:0:0:
179,192,28135,1,0,0:0:0:0:
384,192,28499,1,0,0:0:0:0:
332,192,28680,1,0,0:0:0:0:
281,192,28862,1,0,0:0:0:0:
76,192,29226,1,0,0:0:0:0:
128,192,29408,1,0,0:0:0:0:
179,192,29590,1,0,0:0:0:0:
332,192,29953,1,0,0:0:0:0:
384,192,30135,1,0,0:0:0:0:
435,192,30317,1,0,0:0:0:0:
76,192,30680,1,0,0:0:0:0:
384,192,30862,1,0,0:0:0:0:
179,192,31044,1,0,0:0:0:0:
384,192,31408,1,0,0:0:0:0:
179,192,31590,1,0,0:0:0:0:
128,192,32135,1,0,0:0:0:0:
435,192,32317,1,0,0:0:0:0:
230,192,32499,1,0,0:0:0:0:
435,192,32862,1,0,0:0:0:0:
230,192,33044,1,0,0:0:0:0:
25,192,33590,1,0,0:0:0:0:
486,192,33953,1,0,0:0:0:0:
25,192,34317,1,0,0:0:0:0:
486,192,34680,1,0,0:0:0:0:
76,192,35044,1,0,0:0:0:0:
435,192,35408,1,0,0:0:0:0:
76,192,35771,1,0,0:0:0:0:
435,192,36135,1,0,0:0:0:0:
128,192,36499,1,0,0:0:0:0:
384,192,36862,1,0,0:0:0:0:
128,192,37226,1,0,0:0:0:0:
384,192,37590,1,0,0:0:0:0:
179,192,37771,1,0,0:0:0:0:
332,192,37953,1,0,0:0:0:0:
281,192,38226,1,0,0:0:0:0:
230,192,38499,1,0,0:0:0:0:
281,192,38680,1,0,0:0:0:0:
230,192,39408,1,0,0:0:0:0:
281,192,39590,1,0,0:0:0:0:
332,192,39771,1,0,0:0:0:0:
128,192,40135,1,0,0:0:0:0:
179,192,40317,1,0,0:0:0:0:
230,192,40499,1,0,0:0:0:0:
435,192,40862,1,0,0:0:0:0:
384,192,41044,1,0,0:0:0:0:
332,192,41226,1,0,0:0:0:0:
179,192,41590,1,0,0:0:0:0:
128,192,41771,1,0,0:0:0:0:
76,192,41953,1,0,0:0:0:0:
435,192,42317,1,0,0:0:0:0:
128,192,42499,1,0,0:0:0:0:
332,192,42680,1,0,0:0:0:0:
76,192,43044,1,0,0:0:0:0:
281,192,43226,1,0,0:0:0:0:
486,192,43771,1,0,0:0:0:0:
128,192,43953,1,0,0:0:0:0:
384,192,44135,1,0,0:0:0:0:
25,192,44499,1,0,0:0:0:0:
281,192,44680,1,0,0:0:0:0:
281,192,45226,1,0,0:0:0:0:
230,192,45590,1,0,0:0:0:0:
281,192,45953,1,0,0:0:0:0:
230,192,46317,1,0,0:0:0:0:
332,192,46680,1,0,0:0:0:0:
179,192,47044,1,0,0:0:0:0:
332,192,47408,1,0,0:0:0:0:
179,192,47771,1,0,0:0:0:0:
384,192,48135,1,0,0:0:0:0:
128,192,48499,1,0,0:0:0:0:
384,192,48862,1,0,0:0:0:0:
128,192,49226,1,0,0:0:0:0:
332,192,49408,1,0,0:0:0:0:
179,192,49590,1,0,0:0:0:0:
332,192,49862,1,0,0:0:0:0:
179,192,50135,1,0,0:0:0:0:
230,192,50317,1,0,0:0:0:0:
281,192,50317,1,0,0:0:0:0:
435,192,51044,1,0,0:0:0:0:
76,192,51408,1,0,0:0:0:0:
435,192,51771,1,0,0:0:0:0:
76,192,52135,1,0,0:0:0:0:
384,192,52499,1,0,0:0:0:0:
128,192,52862,1,0,0:0:0:0:
384,192,53226,1,0,0:0:0:0:
128,192,53590,1,0,0:0:0:0:
332,192,53953,1,0,0:0:0:0:
179,192,54317,1,0,0:0:0:0:
486,192,54680,1,0,0:0:0:0:
25,192,55044,1,0,0:0:0:0:
384,192,55408,1,0,0:0:0:0:
128,192,55771,1,0,0:0:0:0:
384,192,56135,1,0,0:0:0:0:
128,192,56499,1,0,0:0:0:0:
281,192,56862,1,0,0:0:0:0:
230,192,57226,1,0,0:0:0:0:
281,192,57590,1,0,0:0:0:0:
230,192,57953,1,0,0:0:0:0:
332,192,58317,1,0,0:0:0:0:
179,192,58680,1,0,0:0:0:0:
332,192,59044,1,0,0:0:0:0:
179,192,59408,1,0,0:0:0:0:
435,192,59771,1,0,0:0:0:0:
435,192,60135,1,0,0:0:0:0:
76,192,60499,1,0,0:0:0:0:
76,192,60862,1,0,0:0:0:0:
281,192,61226,1,0,0:0:0:0:
25,192,61590,1,0,0:0:0:0:
486,192,61953,1,0,0:0:0:0:
230,192,62317,1,0,0:0:0:0:
281,192,62499,1,0,0:0:0:0:
128,192,62680,1,0,0:0:0:0:
230,192,63044,1,0,0:0:0:0:
281,192,63408,1,0,0:0:0:0:
384,192,63771,1,0,0:0:0:0:
76,192,64135,1,0,0:0:0:0:
179,192,64499,1,0,0:0:0:0:
332,192,64862,1,0,0:0:0:0:
435,192,65226,1,0,0:0:0:0:
25,192,65590,1,0,0:0:0:0:
128,192,65953,1,0,0:0:0:0:
230,192,66317,1,0,0:0:0:0:
332,192,66680,1,0,0:0:0:0:
486,192,67044,1,0,0:0:0:0:
384,192,67408,1,0,0:0:0:0:
281,192,67771,1,0,0:0:0:0:
179,192,68135,1,0,0:0:0:0:
332,192,68499,1,0,0:0:0:0:
128,192,68862,1,0,0:0:0:0:
332,192,69226,1,0,0:0:0:0:
128,192,69590,1,0,0:0:0:0:
384,192,69953,1,0,0:0:0:0:
179,192,70317,1,0,0:0:0:0:
384,192,70680,1,0,0:0:0:0:
179,192,71044,1,0,0:0:0:0:
384,192,71408,1,0,0:0:0:0:
332,192,71590,1,0,0:0:0:0:
281,192,71771,1,0,0:0:0:0:
230,192,72135,1,0,0:0:0:0:
179,192,72317,1,0,0:0:0:0:
128,192,72499,1,0,0:0:0:0:
486,192,72862,1,0,0:0:0:0:
384,192,73226,1,0,0:0:0:0:
281,192,73408,1,0,0:0:0:0:
128,192,73590,1,0,0:0:0:0:
128,192,73771,1,0,0:0:0:0:
332,192,73953,1,0,0:0:0:0:
230,192,74317,1,0,0:0:0:0:
179,192,74499,1,0,0:0:0:0:
128,192,74680,1,0,0:0:0:0:
384,192,75044,1,0,0:0:0:0:
332,192,75226,1,0,0:0:0:0:
281,192,75408,1,0,0:0:0:0:
128,192,75771,1,0,0:0:0:0:
230,192,75953,1,0,0:0:0:0:
332,192,76135,1,0,0:0:0:0:
179,192,76499,1,0,0:0:0:0:
281,192,76680,1,0,0:0:0:0:
384,192,76862,1,0,0:0:0:0:
230,192,77226,1,0,0:0:0:0:
230,192,77408,1,0,0:0:0:0:
281,192,77590,1,0,0:0:0:0:
230,192,77953,1,0,0:0:0:0:
281,192,78135,1,0,0:0:0:0:
128,192,78680,1,0,0:0:0:0:
128,192,78862,1,0,0:0:0:0:
384,192,79044,1,0,0:0:0:0:
128,192,79408,1,0,0:0:0:0:
384,192,79590,1,0,0:0:0:0:
281,192,80135,1,0,0:0:0:0:
128,192,80499,1,0,0:0:0:0:
281,192,80862,1,0,0:0:0:0:
128,192,81226,1,0,0:0:0:0:
332,192,81590,1,0,0:0:0:0:
179,192,81953,1,0,0:0:0:0:
332,192,82317,1,0,0:0:0:0:
179,192,82680,1,0,0:0:0:0:
384,192,83044,1,0,0:0:0:0:
230,192,83408,1,0,0:0:0:0:
384,192,83771,1,0,0:0:0:0:
230,192,84135,1,0,0:0:0:0:
435,192,84499,1,0,0:0:0:0:
76,192,84771,1,0,0:0:0:0:
384,192,85044,1,0,0:0:0:0:
128,192,85226,1,0,0:0:0:0:
230,192,85953,1,0,0:0:0:0:
281,192,86135,1,0,0:0:0:0:
332,192,86317,1,0,0:0:0:0:
128,192,86680,1,0,0:0:0:0:
179,192,86862,1,0,0:0:0:0:
230,192,87044,1,0,0:0:0:0:
435,192,87408,1,0,0:0:0:0:
384,192,87590,1,0,0:0:0:0:
332,192,87771,1,0,0:0:0:0:
179,192,88135,1,0,0:0:0:0:
128,192,88317,1,0,0:0:0:0:
76,192,88499,1,0,0:0:0:0:
435,192,88862,1,0,0:0:0:0:
128,192,89044,1,0,0:0:0:0:
332,192,89226,1,0,0:0:0:0:
179,192,89590,1,0,0:0:0:0:
76,192,89771,1,0,0:0:0:0:
76,192,90317,1,0,0:0:0:0:
384,192,90499,1,0,0:0:0:0:
179,192,90680,1,0,0:0:0:0:
332,192,91044,1,0,0:0:0:0:
435,192,91226,1,0,0:0:0:0:
281,192,91771,1,0,0:0:0:0:
230,192,92135,1,0,0:0:0:0:
281,192,92499,1,0,0:0:0:0:
230,192,92862,1,0,0:0:0:0:
332,192,93226,1,0,0:0:0:0:
179,192,93590,1,0,0:0:0:0:
332,192,93953,1,0,0:0:0:0:
179,192,94317,1,0,0:0:0:0:
384,192,94680,1,0,0:0:0:0:
128,192,95044,1,0,0:0:0:0:
384,192,95408,1,0,0:0:0:0:
128,192,95771,1,0,0:0:0:0:
332,192,95953,1,0,0:0:0:0:
179,192,96135,1,0,0:0:0:0:
332,192,96408,1,0,0:0:0:0:
179,192,96680,1,0,0:0:0:0:
384,192,96862,1,0,0:0:0:0:
128,192,97135,1,0,0:0:0:0:
384,192,97408,1,0,0:0:0:0:
179,192,97590,1,0,0:0:0:0:
230,192,97953,1,0,0:0:0:0:
281,192,98317,1,0,0:0:0:0:
332,192,98680,1,0,0:0:0:0:
384,192,99044,1,0,0:0:0:0:
128,192,99044,1,0,0:0:0:0:
384,192,99317,1,0,0:0:0:0:
128,192,99317,1,0,0:0:0:0:
230,192,99590,1,0,0:0:0:0:
281,192,99590,1,0,0:0:0:0:
384,192,99771,1,0,0:0:0:0:
128,192,99771,1,0,0:0:0:0:
25,192,100499,1,0,0:0:0:0:
76,192,100862,1,0,0:0:0:0:
128,192,101226,1,0,0:0:0:0:
179,192,101590,1,0,0:0:0:0:
486,192,101953,1,0,0:0:0:0:
435,192,102317,1,0,0:0:0:0:
384,192,102680,1,0,0:0:0:0:
332,192,103044,1,0,0:0:0:0:
128,192,103408,1,0,0:0:0:0:
179,192,103771,1,0,0:0:0:0:
230,192,104135,1,0,0:0:0:0:
281,192,104499,1,0,0:0:0:0:
384,192,104862,1,0,0:0:0:0:
332,192,105226,1,0,0:0:0:0:
281,192,105590,1,0,0:0:0:0:
230,192,105953,1,0,0:0:0:0:
179,192,106317,1,0,0:0:0:0:
332,192,106680,1,0,0:0:0:0:
128,192,107044,1,0,0:0:0:0:
384,192,107408,1,0,0:0:0:0:
76,192,107771,1,0,0:0:0:0:
435,192,108135,1,0,0:0:0:0:
76,192,108499,1,0,0:0:0:0:
435,192,108862,1,0,0:0:0:0:
230,192,109226,1,0,0:0:0:0:
281,192,109590,1,0,0:0:0:0:
128,192,109953,1,0,0:0:0:0:
384,192,110317,1,0,0:0:0:0:
179,192,110680,1,0,0:0:0:0:
332,192,111044,1,0,0:0:0:0:
179,192,111408,1,0,0:0:0:0:
128,192,112135,1,0,0:0:0:0:
179,192,112317,1,0,0:0:0:0:
230,192,112499,1,0,0:0:0:0:
281,192,112862,1,0,0:0:0:0:
332,192,113044,1,0,0:0:0:0:
384,192,113226,1,0,0:0:0:0:
179,192,113590,1,0,0:0:0:0:
128,192,113771,1,0,0:0:0:0:
76,192,113953,1,0,0:0:0:0:
435,192,114317,1,0,0:0:0:0:
384,192,114499,1,0,0:0:0:0:
332,192,114680,1,0,0:0:0:0:
128,192,115044,1,0,0:0:0:0:
384,192,115226,1,0,0:0:0:0:
179,192,115408,1,0,0:0:0:0:
384,192,115771,1,0,0:0:0:0:
128,192,115953,1,0,0:0:0:0:
332,192,116135,1,0,0:0:0:0:
486,192,116499,1,0,0:0:0:0:
384,192,116680,1,0,0:0:0:0:
281,192,116862,1,0,0:0:0:0:
25,192,117226,1,0,0:0:0:0:
128,192,117408,1,0,0:0:0:0:
230,192,117590,1,0,0:0:0:0:
384,192,117953,1,0,0:0:0:0:
332,192,118135,1,0,0:0:0:0:
281,192,118317,1,0,0:0:0:0:
230,192,118499,1,0,0:0:0:0:
179,192,118680,1,0,0:0:0:0:
332,192,119044,1,0,0:0:0:0:
179,192,119408,1,0,0:0:0:0:
230,192,119590,1,0,0:0:0:0:
281,192,119771,1,0,0:0:0:0:
230,192,120135,1,0,0:0:0:0:
281,192,120317,1,0,0:0:0:0:
332,192,120499,1,0,0:0:0:0:
435,192,120862,1,0,0:0:0:0:
384,192,121044,1,0,0:0:0:0:
332,192,121226,1,0,0:0:0:0:
179,192,121590,1,0,0:0:0:0:
128,192,121771,1,0,0:0:0:0:
76,192,121953,1,0,0:0:0:0:
435,192,122317,1,0,0:0:0:0:
384,192,122499,1,0,0:0:0:0:
332,192,122680,1,0,0:0:0:0:
179,192,123044,1,0,0:0:0:0:
128,192,123226,1,0,0:0:0:0:
76,192,123408,1,0,0:0:0:0:
230,192,123771,1,0,0:0:0:0:
281,192,123953,1,0,0:0:0:0:
332,192,124135,1,0,0:0:0:0:
281,192,124499,1,0,0:0:0:0:
230,192,124680,1,0,0:0:0:0:
179,192,124862,1,0,0:0:0:0:
128,192,125044,1,0,0:0:0:0:
76,192,125226,1,0,0:0:0:0:
384,192,125499,1,0,0:0:0:0:
128,192,125771,1,0,0:0:0:0:
486,192,125953,1,0,0:0:0:0:
