osu file format v14

[General]
AudioFilename: audio.mp3
AudioLeadIn: 0
PreviewTime: 56233
Countdown: 0
SampleSet: Normal
StackLeniency: 0.7
Mode: 1
LetterboxInBreaks: 0
WidescreenStoryboard: 0

[Editor]
Bookmarks: 14720,25098,35476,45855,56233,66611,76990,87368,92557,97747,108125,118503,119801,130179,140557,150611
DistanceSpacing: 1.3
BeatDivisor: 1
GridSize: 32
TimelineZoom: 2.1

[Metadata]
Title:Halloween Candystore
TitleUnicode:Halloween Candystore
Artist:Plum
ArtistUnicode:Plum
Creator:Eloxrad
Version:Spooky
Source:
Tags:Electronic Instrumental [r] ron artcore holiday 할로윈의 사탕가게 plumwriter double single melodic fa featured artist piano
BeatmapID:3580082
BeatmapSetID:1749963

[Difficulty]
HPDrainRate:6
CircleSize:5
OverallDifficulty:6
ApproachRate:5
SliderMultiplier:1.4
SliderTickRate:1

[Events]
//Background and Video events
0,0,"alchemy-stars-mobile-anime-games-moon-twintails-halloween-2021-anime.jpeg",0,100
//Break Periods
//Storyboard Layer 0 (Background)
//Storyboard Layer 1 (Fail)
//Storyboard Layer 2 (Pass)
//Storyboard Layer 3 (Foreground)
//Storyboard Layer 4 (Overlay)
//Storyboard Sound Samples

[TimingPoints]
14727,324.324324324324,4,1,0,70,1,0
14727,-133.33333,4,1,0,70,0,0
19915,-125.00371,4,1,0,80,0,0
20077,-125.60703,4,1,0,81,0,0
20401,-126.831314,4,1,0,82,0,0
20563,-127.45246,4,1,0,83,0,0
20725,-128.07971,4,1,0,83,0,0
21050,-129.35689,4,1,0,84,0,0
21131,-129.67918,4,1,0,85,0,0
21212,-130.00308,4,1,0,85,0,0
21374,-130.65575,4,1,0,86,0,0
21536,-131.31502,4,1,0,86,0,0
21698,-131.98097,4,1,0,87,0,0
21861,-132.65787,4,1,0,88,0,0
22023,-133.33755,4,1,0,88,0,0
22347,-133.30591,4,1,0,89,0,0
22428,-131.121,4,1,0,90,0,0
22509,-129.00656,4,1,0,90,0,0
22671,-124.97589,4,1,0,91,0,0
22996,-124.97589,4,1,0,92,0,0
23158,-124.97589,4,1,0,93,0,0
23320,-124.97589,4,1,0,93,0,0
23644,-124.978584,4,1,0,94,0,0
23725,-123.268,4,1,0,95,0,0
23807,-121.583336,4,1,0,95,0,0
23969,-118.386894,4,1,0,96,0,0
24131,-115.3542,4,1,0,96,0,0
24213,-113.41729,4,1,0,97,0,0
24293,-112.47302,4,1,0,97,0,0
24347,-111.54435,4,1,0,97,0,0
24401,-110.63088,4,1,0,97,0,0
24455,-109.732254,4,1,0,98,0,0
24617,-107.12188,4,1,0,98,0,0
24780,-104.61781,4,1,0,99,0,0
24834,-103.813866,4,1,0,99,0,0
24888,-103.02218,4,1,0,99,0,0
24942,-102.24248,4,1,0,99,0,0
24996,-101.47449,4,1,0,100,0,0
25050,-100.71794,4,1,0,100,0,0
25104,-99.9726,4,1,0,100,0,0
34834,-99.984604,4,1,0,100,0,0
34915,-98.75228,4,1,0,100,0,0
34996,-97.54997,4,1,0,100,0,0
35158,-95.2311,4,1,0,100,0,0
35212,-94.482445,4,1,0,100,0,0
35266,-93.745476,4,1,0,100,0,0
35320,-93.01992,4,1,0,100,0,0
35374,-92.3055,4,1,0,100,0,0
35428,-91.60197,4,1,0,100,0,0
35482,-90.90909,4,1,0,100,0,0
45861,-91.024185,4,1,0,100,0,0
46023,-94.70613,4,1,0,93,0,0
46104,-96.6611,4,1,0,89,0,0
46185,-98.698494,4,1,0,86,0,0
46347,-103.04228,4,1,0,79,0,0
46509,-107.78601,4,1,0,71,0,0
46671,-112.98761,4,1,0,64,0,0
46996,-125.09904,4,1,0,50,0,0
50888,-133.3242,4,1,0,55,0,0
50969,-132.58841,4,1,0,57,0,0
51050,-131.86069,4,1,0,59,0,0
51212,-130.42894,4,1,0,63,0,0
51293,-129.72469,4,1,0,65,0,0
51374,-129.02798,4,1,0,68,0,0
51536,-127.656784,4,1,0,72,0,0
51698,-126.31442,4,1,0,76,0,0
51861,-124.991974,4,1,0,80,0,0
54780,-125,4,1,0,80,0,0
54861,-123.28636,4,1,0,81,0,0
54942,-121.61909,4,1,0,82,0,0
55104,-118.416245,4,1,0,84,0,0
55185,-116.87726,4,1,0,86,0,0
55266,-115.37778,4,1,0,87,0,0
55347,-113.916275,4,1,0,88,0,0
55428,-112.491325,4,1,0,89,0,0
55509,-111.10159,4,1,0,90,0,0
55590,-109.89010989011,4,1,0,91,0,0
55754,-107.52688172043,4,1,0,93,0,0
55915,-104.60798,4,1,0,96,0,0
55969,-103.80302,4,1,0,96,0,0
56023,-103.010345,4,1,0,97,0,0
56077,-102.2297,4,1,0,98,0,0
56131,-101.460785,4,1,0,99,0,0
56185,-100.703354,4,1,0,99,0,0
56240,-99.95715,4,1,0,100,0,1
66618,-99.9845845359639,4,1,0,100,0,0
76347,-99.984604,4,1,0,100,0,0
76428,-98.75228,4,1,0,100,0,0
76509,-97.54997,4,1,0,100,0,0
76671,-95.2311,4,1,0,100,0,0
76725,-94.482445,4,1,0,100,0,0
76780,-93.73195,4,1,0,100,0,0
76834,-93.006584,4,1,0,100,0,0
76888,-92.29237,4,1,0,100,0,0
76942,-91.589035,4,1,0,100,0,0
76996,-90.896355,4,1,0,100,0,0
87375,-90.9803532606351,4,1,0,65,0,0
87537,-100.086234205146,4,1,0,65,0,0
92563,-100.002374385906,4,1,0,70,0,0
96455,-100.002365,4,1,0,70,0,0
96617,-98.76745,4,1,0,74,0,0
96780,-97.55533,4,1,0,78,0,0
96862,-96.76845,4,1,0,80,0,0
96942,-96.37976,4,1,0,81,0,0
96996,-95.99417,4,1,0,83,0,0
97050,-95.61166,4,1,0,84,0,0
97104,-95.23218,4,1,0,85,0,0
97266,-94.11161,4,1,0,89,0,0
97428,-93.017105,4,1,0,92,0,0
97482,-92.6579,4,1,0,94,0,0
97536,-92.30146,4,1,0,95,0,0
97590,-91.94777,4,1,0,96,0,0
97644,-91.596756,4,1,0,97,0,0
97698,-91.24842,4,1,0,99,0,0
97754,-90.896355,4,1,0,100,0,1
118510,-90.896355,4,1,0,100,0,0
118590,-92.47113,4,1,0,98,0,0
118671,-94.10143,4,1,0,95,0,0
118753,-95.811485,4,1,0,92,0,0
118834,-97.56281,4,1,0,90,0,0
118915,-99.379364,4,1,0,87,0,0
118996,-101.26485,4,1,0,85,0,0
119077,-103.22324,4,1,0,82,0,0
119158,-105.258896,4,1,0,80,0,0
119239,-107.37644,4,1,0,77,0,0
119320,-109.58095,4,1,0,75,0,0
119401,-111.87786,4,1,0,72,0,0
119482,-114.27313,4,1,0,70,0,0
119563,-116.77321,4,1,0,67,0,0
119644,-119.38514,4,1,0,65,0,0
119725,-122.11656,4,1,0,62,0,0
119807,-125.01205,4,1,0,75,0,0
129374,-124.97592,4,1,0,100,0,0
129455,-121.9283,4,1,0,100,0,0
129536,-119.02578,4,1,0,100,0,0
129617,-116.258224,4,1,0,100,0,0
129698,-113.616455,4,1,0,100,0,0
129861,-108.61914,4,1,0,100,0,0
129915,-107.06853,4,1,0,100,0,0
129969,-105.56155,4,1,0,100,0,0
130023,-104.0964,4,1,0,100,0,0
130077,-102.671364,4,1,0,100,0,0
130131,-101.28482,4,1,0,100,0,0
130185,-99.93523,4,1,0,100,0,0
140239,-100.00924,4,1,0,100,0,0
140320,-102.046906,4,1,0,100,0,0
140401,-104.16933,4,1,0,100,0,0
140482,-106.38193,4,1,0,100,0,0
140563,-108.690544,4,1,0,70,0,0
140725,-113.62203,4,1,0,70,0,0
141050,-125,4,1,0,70,0,0
145753,-111.116965887362,4,1,0,80,0,0
145915,-111.111111111111,4,1,0,81,0,0
146239,-111.111111111111,4,1,0,82,0,0
146401,-111.111111111111,4,1,0,83,0,0
146563,-111.111111111111,4,1,0,83,0,0
146888,-111.111111111111,4,1,0,85,0,0
146969,-111.111111111111,4,1,0,85,0,0
147050,-111.111111111111,4,1,0,85,0,0
147212,-111.111111111111,4,1,0,86,0,0
147374,-111.111111111111,4,1,0,87,0,0
147536,-111.111111111111,4,1,0,87,0,0
147698,-111.111111111111,4,1,0,88,0,0
147861,-111.111111111111,4,1,0,89,0,0
148185,-111.111111111111,4,1,0,90,0,0
148266,-111.111111111111,4,1,0,90,0,0
148347,-111.111111111111,4,1,0,91,0,0
148509,-111.111111111111,4,1,0,91,0,0
148834,-111.111111111111,4,1,0,93,0,0
148996,-111.111111111111,4,1,0,93,0,0
149158,-111.111111111111,4,1,0,94,0,0
149482,-111.10024,4,1,0,95,0,0
149563,-110.22628,4,1,0,95,0,0
149644,-109.36597,4,1,0,96,0,0
149807,-107.67479,4,1,0,96,0,0
149969,-106.04504,4,1,0,97,0,0
150051,-104.985664,4,1,0,98,0,0
150131,-104.463875,4,1,0,98,0,0
150185,-103.94725,4,1,0,98,0,0
150239,-103.4357,4,1,0,98,0,0
150293,-102.92917,4,1,0,99,0,0
150455,-101.4389,4,1,0,99,0,0
150617,-99.99119,4,1,0,100,0,0

[HitObjects]
256,192,14727,5,0,0:0:0:0:
256,192,14889,1,8,0:0:0:0:
256,192,15213,1,0,0:0:0:0:
256,192,15375,1,0,0:0:0:0:
256,192,15537,1,8,0:0:0:0:
256,192,15862,1,8,0:0:0:0:
256,192,15943,1,0,0:0:0:0:
256,192,16024,1,8,0:0:0:0:
256,192,16186,1,0,0:0:0:0:
256,192,16348,1,8,0:0:0:0:
256,192,16510,1,0,0:0:0:0:
64,64,16672,1,0,0:0:0:0:
448,64,16835,1,8,0:0:0:0:
256,192,17159,1,8,0:0:0:0:
256,192,17240,1,8,0:0:0:0:
256,192,17321,1,0,0:0:0:0:
256,192,17483,1,8,0:0:0:0:
256,192,17808,1,8,0:0:0:0:
256,192,17970,1,0,0:0:0:0:
256,192,18132,1,8,0:0:0:0:
448,64,18456,1,8,0:0:0:0:
64,64,18537,1,0,0:0:0:0:
448,64,18618,1,8,0:0:0:0:
256,192,18781,1,0,0:0:0:0:
256,192,18943,1,8,0:0:0:0:
448,64,19105,1,8,0:0:0:0:
256,192,19267,1,0,0:0:0:0:
256,192,19429,1,8,0:0:0:0:
256,192,19916,1,0,0:0:0:0:
256,192,20078,1,8,0:0:0:0:
256,192,20402,1,0,0:0:0:0:
256,192,20564,1,0,0:0:0:0:
256,192,20726,1,8,0:0:0:0:
448,64,21051,1,8,0:0:0:0:
64,64,21132,1,0,0:0:0:0:
448,64,21213,1,8,0:0:0:0:
256,192,21375,1,0,0:0:0:0:
256,192,21537,1,8,0:0:0:0:
256,192,21699,1,0,0:0:0:0:
256,192,21862,1,8,0:0:0:0:
256,192,22024,1,0,0:0:0:0:
256,192,22348,1,8,0:0:0:0:
256,192,22429,1,8,0:0:0:0:
256,192,22510,1,0,0:0:0:0:
256,192,22672,1,8,0:0:0:0:
256,192,22997,1,8,0:0:0:0:
256,192,23159,1,0,0:0:0:0:
256,192,23321,1,8,0:0:0:0:
256,192,23645,1,8,0:0:0:0:
256,192,23726,1,0,0:0:0:0:
256,192,23808,1,8,0:0:0:0:
256,192,23970,1,0,0:0:0:0:
256,192,24132,1,8,0:0:0:0:
256,192,24213,1,8,0:0:0:0:
256,192,24294,1,0,0:0:0:0:
256,192,24348,1,0,0:0:0:0:
256,192,24402,1,0,0:0:0:0:
256,192,24456,1,8,0:0:0:0:
256,192,24618,1,0,0:0:0:0:
256,192,24781,1,8,0:0:0:0:
256,192,24835,1,8,0:0:0:0:
256,192,24889,1,8,0:0:0:0:
256,192,24943,1,0,0:0:0:0:
256,192,24997,1,0,0:0:0:0:
256,192,25051,1,0,0:0:0:0:
256,192,25105,1,8,0:0:0:0:
256,192,25267,1,0,0:0:0:0:
256,192,25429,1,8,0:0:0:0:
64,64,25591,1,0,0:0:0:0:
64,64,25672,1,0,0:0:0:0:
256,192,25754,1,8,0:0:0:0:
256,192,25916,1,0,0:0:0:0:
256,192,26078,1,8,0:0:0:0:
256,192,26240,1,0,0:0:0:0:
256,192,26321,1,0,0:0:0:0:
256,192,26402,1,8,0:0:0:0:
256,192,26564,1,0,0:0:0:0:
256,192,26726,1,8,0:0:0:0:
256,192,26889,1,8,0:0:0:0:
256,192,27051,1,8,0:0:0:0:
256,192,27132,1,8,0:0:0:0:
256,192,27213,1,0,0:0:0:0:
256,192,27375,1,8,0:0:0:0:
256,192,27537,1,8,0:0:0:0:
256,192,27699,1,0,0:0:0:0:
256,192,27862,1,0,0:0:0:0:
256,192,28024,1,8,0:0:0:0:
256,192,28186,1,0,0:0:0:0:
256,192,28267,1,0,0:0:0:0:
256,192,28348,1,8,0:0:0:0:
256,192,28510,1,0,0:0:0:0:
256,192,28672,1,8,0:0:0:0:
256,192,28835,1,8,0:0:0:0:
256,192,28916,1,8,0:0:0:0:
256,192,28997,1,0,0:0:0:0:
256,192,29159,1,0,0:0:0:0:
256,192,29321,1,8,0:0:0:0:
256,192,29402,1,8,0:0:0:0:
256,192,29483,1,8,0:0:0:0:
256,192,29645,1,0,0:0:0:0:
256,192,29726,1,0,0:0:0:0:
256,192,29808,1,0,0:0:0:0:
64,64,29970,1,0,0:0:0:0:
256,192,30132,1,8,0:0:0:0:
256,192,30294,1,0,0:0:0:0:
256,192,30456,1,0,0:0:0:0:
256,192,30618,1,8,0:0:0:0:
256,192,30780,1,0,0:0:0:0:
256,192,30861,1,0,0:0:0:0:
256,192,30943,1,0,0:0:0:0:
256,192,31105,1,0,0:0:0:0:
256,192,31267,1,8,0:0:0:0:
256,192,31429,1,0,0:0:0:0:
256,192,31510,1,0,0:0:0:0:
256,192,31591,1,8,0:0:0:0:
256,192,31753,1,0,0:0:0:0:
256,192,31915,1,8,0:0:0:0:
448,64,31997,1,8,0:0:0:0:
256,192,32078,1,8,0:0:0:0:
256,192,32240,1,8,0:0:0:0:
256,192,32321,1,8,0:0:0:0:
256,192,32402,1,0,0:0:0:0:
256,192,32564,1,8,0:0:0:0:
256,192,32726,1,8,0:0:0:0:
256,192,32888,1,0,0:0:0:0:
256,192,33051,1,0,0:0:0:0:
256,192,33213,1,8,0:0:0:0:
448,64,33375,1,8,0:0:0:0:
448,64,33456,1,8,0:0:0:0:
64,64,33537,1,0,0:0:0:0:
256,192,33699,1,0,0:0:0:0:
256,192,33861,1,8,0:0:0:0:
256,192,34024,1,8,0:0:0:0:
256,192,34105,1,8,0:0:0:0:
256,192,34186,1,8,0:0:0:0:
256,192,34348,1,0,0:0:0:0:
256,192,34510,1,8,0:0:0:0:
256,192,34672,1,0,0:0:0:0:
256,192,34835,1,0,0:0:0:0:
256,192,34916,1,0,0:0:0:0:
256,192,34997,1,0,0:0:0:0:
256,192,35159,1,8,0:0:0:0:
256,192,35213,1,8,0:0:0:0:
256,192,35267,1,8,0:0:0:0:
256,192,35321,1,0,0:0:0:0:
256,192,35375,1,0,0:0:0:0:
256,192,35429,1,0,0:0:0:0:
256,192,35483,1,8,0:0:0:0:
256,192,35564,1,0,0:0:0:0:
256,192,35645,1,8,0:0:0:0:
256,192,35726,1,0,0:0:0:0:
256,192,35808,1,8,0:0:0:0:
256,192,35889,1,8,0:0:0:0:
256,192,35970,1,0,0:0:0:0:
256,192,36051,1,8,0:0:0:0:
256,192,36132,1,0,0:0:0:0:
256,192,36213,1,0,0:0:0:0:
256,192,36294,1,8,0:0:0:0:
256,192,36375,1,0,0:0:0:0:
256,192,36456,1,8,0:0:0:0:
256,192,36537,1,8,0:0:0:0:
256,192,36618,1,0,0:0:0:0:
256,192,36699,1,0,0:0:0:0:
256,192,36781,1,8,0:0:0:0:
256,192,36862,1,8,0:0:0:0:
256,192,36943,1,8,0:0:0:0:
256,192,37024,1,8,0:0:0:0:
256,192,37105,1,0,0:0:0:0:
256,192,37186,1,0,0:0:0:0:
256,192,37267,1,8,0:0:0:0:
256,192,37348,1,0,0:0:0:0:
256,192,37429,1,8,0:0:0:0:
256,192,37510,1,8,0:0:0:0:
256,192,37591,1,0,0:0:0:0:
256,192,37672,1,0,0:0:0:0:
256,192,37754,1,8,0:0:0:0:
256,192,37835,1,0,0:0:0:0:
256,192,37916,1,0,0:0:0:0:
256,192,37997,1,0,0:0:0:0:
256,192,38078,1,8,0:0:0:0:
256,192,38159,1,0,0:0:0:0:
256,192,38240,1,8,0:0:0:0:
256,192,38321,1,0,0:0:0:0:
256,192,38402,1,8,0:0:0:0:
256,192,38483,1,8,0:0:0:0:
256,192,38564,1,0,0:0:0:0:
256,192,38645,1,0,0:0:0:0:
256,192,38726,1,8,0:0:0:0:
256,192,38808,1,8,0:0:0:0:
256,192,38889,1,0,0:0:0:0:
256,192,38970,1,0,0:0:0:0:
256,192,39051,1,8,0:0:0:0:
256,192,39132,1,0,0:0:0:0:
256,192,39213,1,8,0:0:0:0:
256,192,39294,1,8,0:0:0:0:
256,192,39375,1,8,0:0:0:0:
256,192,39456,1,0,0:0:0:0:
256,192,39537,1,8,0:0:0:0:
256,192,39618,1,8,0:0:0:0:
256,192,39699,1,0,0:0:0:0:
256,192,39781,1,8,0:0:0:0:
256,192,39862,1,0,0:0:0:0:
256,192,39943,1,0,0:0:0:0:
256,192,40024,1,8,0:0:0:0:
256,192,40105,1,0,0:0:0:0:
256,192,40186,1,8,0:0:0:0:
256,192,40267,1,0,0:0:0:0:
256,192,40348,1,8,0:0:0:0:
256,192,40429,1,0,0:0:0:0:
256,192,40510,1,0,0:0:0:0:
256,192,40591,1,0,0:0:0:0:
256,192,40672,1,8,0:0:0:0:
256,192,40754,1,0,0:0:0:0:
256,192,40835,1,8,0:0:0:0:
256,192,40916,1,0,0:0:0:0:
256,192,40997,1,8,0:0:0:0:
256,192,41078,1,8,0:0:0:0:
256,192,41159,1,0,0:0:0:0:
256,192,41240,1,8,0:0:0:0:
256,192,41321,1,0,0:0:0:0:
256,192,41402,1,0,0:0:0:0:
256,192,41483,1,8,0:0:0:0:
256,192,41564,1,0,0:0:0:0:
256,192,41645,1,8,0:0:0:0:
256,192,41726,1,8,0:0:0:0:
256,192,41808,1,0,0:0:0:0:
256,192,41889,1,0,0:0:0:0:
256,192,41970,1,8,0:0:0:0:
256,192,42051,1,8,0:0:0:0:
256,192,42132,1,8,0:0:0:0:
256,192,42213,1,8,0:0:0:0:
256,192,42294,1,0,0:0:0:0:
256,192,42375,1,0,0:0:0:0:
256,192,42456,1,8,0:0:0:0:
256,192,42537,1,0,0:0:0:0:
256,192,42618,1,8,0:0:0:0:
256,192,42699,1,8,0:0:0:0:
256,192,42781,1,0,0:0:0:0:
256,192,42862,1,0,0:0:0:0:
256,192,42943,1,8,0:0:0:0:
256,192,43024,1,0,0:0:0:0:
256,192,43105,1,0,0:0:0:0:
256,192,43186,1,0,0:0:0:0:
256,192,43267,1,8,0:0:0:0:
256,192,43348,1,0,0:0:0:0:
256,192,43429,1,8,0:0:0:0:
256,192,43510,1,0,0:0:0:0:
256,192,43591,1,8,0:0:0:0:
256,192,43672,1,8,0:0:0:0:
256,192,43754,1,0,0:0:0:0:
256,192,43835,1,0,0:0:0:0:
256,192,43916,1,8,0:0:0:0:
256,192,43997,1,8,0:0:0:0:
256,192,44078,1,0,0:0:0:0:
256,192,44159,1,0,0:0:0:0:
256,192,44240,1,8,0:0:0:0:
256,192,44321,1,0,0:0:0:0:
256,192,44402,1,8,0:0:0:0:
256,192,44483,1,0,0:0:0:0:
256,192,44564,1,8,0:0:0:0:
256,192,44645,1,8,0:0:0:0:
256,192,44726,1,0,0:0:0:0:
256,192,44808,1,0,0:0:0:0:
256,192,44889,1,8,0:0:0:0:
256,192,44970,1,0,0:0:0:0:
256,192,45051,1,8,0:0:0:0:
256,192,45132,1,0,0:0:0:0:
256,192,45213,1,8,0:0:0:0:
256,192,45294,1,8,0:0:0:0:
256,192,45375,1,0,0:0:0:0:
256,192,45456,1,0,0:0:0:0:
256,192,45537,1,8,0:0:0:0:
256,192,45618,1,8,0:0:0:0:
256,192,45699,1,8,0:0:0:0:
256,192,45781,1,8,0:0:0:0:
256,192,45862,1,0,0:0:0:0:
256,192,46024,1,0,0:0:0:0:
256,192,46105,1,8,0:0:0:0:
256,192,46186,1,8,0:0:0:0:
256,192,46348,1,0,0:0:0:0:
256,192,46510,1,8,0:0:0:0:
256,192,46672,1,8,0:0:0:0:
256,192,46997,1,0,0:0:0:0:
256,192,47078,1,0,0:0:0:0:
256,192,47159,1,8,0:0:0:0:
256,192,47321,1,8,0:0:0:0:
256,192,47402,1,8,0:0:0:0:
256,192,47483,1,0,0:0:0:0:
256,192,47645,1,8,0:0:0:0:
256,192,47726,1,0,0:0:0:0:
256,192,47808,1,8,0:0:0:0:
256,192,47970,1,0,0:0:0:0:
256,192,48294,1,8,0:0:0:0:
256,192,48375,1,8,0:0:0:0:
256,192,48456,1,0,0:0:0:0:
256,192,48618,1,0,0:0:0:0:
256,192,48699,1,0,0:0:0:0:
256,192,48781,1,8,0:0:0:0:
256,192,48943,1,8,0:0:0:0:
256,192,49105,1,8,0:0:0:0:
256,192,49267,1,0,0:0:0:0:
256,192,49591,1,0,0:0:0:0:
256,192,49672,1,0,0:0:0:0:
256,192,49754,1,8,0:0:0:0:
256,192,49916,1,8,0:0:0:0:
256,192,49997,1,0,0:0:0:0:
256,192,50078,1,8,0:0:0:0:
256,192,50159,1,8,0:0:0:0:
256,192,50240,1,0,0:0:0:0:
256,192,50321,1,0,0:0:0:0:
256,192,50402,1,8,0:0:0:0:
256,192,50889,1,8,0:0:0:0:
256,192,50970,1,8,0:0:0:0:
256,192,51051,1,0,0:0:0:0:
256,192,51213,1,0,0:0:0:0:
256,192,51294,1,0,0:0:0:0:
256,192,51375,1,8,0:0:0:0:
256,192,51537,1,0,0:0:0:0:
256,192,51699,1,8,0:0:0:0:
256,192,51862,1,0,0:0:0:0:
256,192,52186,1,0,0:0:0:0:
256,192,52267,1,0,0:0:0:0:
256,192,52348,1,8,0:0:0:0:
256,192,52510,1,8,0:0:0:0:
256,192,52591,1,8,0:0:0:0:
256,192,52672,1,0,0:0:0:0:
256,192,52835,1,8,0:0:0:0:
256,192,52916,1,0,0:0:0:0:
256,192,52997,1,8,0:0:0:0:
256,192,53159,1,8,0:0:0:0:
256,192,53483,1,8,0:0:0:0:
256,192,53564,1,8,0:0:0:0:
256,192,53645,1,0,0:0:0:0:
256,192,53808,1,0,0:0:0:0:
256,192,53889,1,0,0:0:0:0:
256,192,53970,1,8,0:0:0:0:
256,192,54132,1,0,0:0:0:0:
256,192,54294,1,0,0:0:0:0:
256,192,54456,1,8,0:0:0:0:
256,192,54781,1,0,0:0:0:0:
256,192,54862,1,0,0:0:0:0:
256,192,54943,1,8,0:0:0:0:
256,192,55105,1,8,0:0:0:0:
256,192,55186,1,0,0:0:0:0:
256,192,55267,1,8,0:0:0:0:
256,192,55348,1,8,0:0:0:0:
256,192,55429,1,0,0:0:0:0:
256,192,55510,1,0,0:0:0:0:
256,192,55591,1,8,0:0:0:0:
174,216,55754,1,0,0:0:0:0:
256,192,55916,1,8,0:0:0:0:
256,192,55970,1,8,0:0:0:0:
256,192,56024,1,0,0:0:0:0:
256,192,56078,1,0,0:0:0:0:
256,192,56132,1,0,0:0:0:0:
256,192,56186,1,0,0:0:0:0:
256,192,56240,1,8,0:0:0:0:
256,192,56402,1,0,0:0:0:0:
256,192,56483,1,0,0:0:0:0:
256,192,56564,1,8,0:0:0:0:
256,192,56726,1,8,0:0:0:0:
256,192,56889,1,8,0:0:0:0:
256,192,57051,1,0,0:0:0:0:
256,192,57375,1,0,0:0:0:0:
256,192,57456,1,0,0:0:0:0:
256,192,57537,1,8,0:0:0:0:
256,192,57699,1,8,0:0:0:0:
256,192,57781,1,8,0:0:0:0:
256,192,57862,1,0,0:0:0:0:
256,192,58024,1,8,0:0:0:0:
256,192,58105,1,0,0:0:0:0:
256,192,58186,1,8,0:0:0:0:
256,192,58348,1,0,0:0:0:0:
256,192,58510,1,8,0:0:0:0:
256,192,58672,1,8,0:0:0:0:
256,192,58754,1,8,0:0:0:0:
256,192,58835,1,0,0:0:0:0:
256,192,58997,1,0,0:0:0:0:
256,192,59078,1,0,0:0:0:0:
256,192,59159,1,8,0:0:0:0:
256,192,59321,1,8,0:0:0:0:
256,192,59483,1,8,0:0:0:0:
256,192,59645,1,0,0:0:0:0:
256,192,59970,1,0,0:0:0:0:
256,192,60051,1,0,0:0:0:0:
256,192,60132,1,8,0:0:0:0:
256,192,60294,1,8,0:0:0:0:
256,192,60375,1,8,0:0:0:0:
256,192,60456,1,0,0:0:0:0:
256,192,60537,1,0,0:0:0:0:
256,192,60618,1,8,0:0:0:0:
256,192,60699,1,0,0:0:0:0:
256,192,60781,1,8,0:0:0:0:
256,192,60943,1,8,0:0:0:0:
256,192,61024,1,0,0:0:0:0:
256,192,61105,1,8,0:0:0:0:
256,192,61267,1,8,0:0:0:0:
256,192,61348,1,8,0:0:0:0:
256,192,61429,1,0,0:0:0:0:
256,192,61591,1,0,0:0:0:0:
256,192,61672,1,0,0:0:0:0:
256,192,61754,1,8,0:0:0:0:
256,192,61916,1,8,0:0:0:0:
256,192,62078,1,8,0:0:0:0:
256,192,62240,1,0,0:0:0:0:
256,192,62564,1,0,0:0:0:0:
256,192,62645,1,0,0:0:0:0:
256,192,62726,1,8,0:0:0:0:
256,192,62889,1,8,0:0:0:0:
256,192,62970,1,8,0:0:0:0:
256,192,63051,1,0,0:0:0:0:
256,192,63213,1,8,0:0:0:0:
256,192,63294,1,0,0:0:0:0:
256,192,63375,1,8,0:0:0:0:
256,192,63537,1,0,0:0:0:0:
256,192,63699,1,8,0:0:0:0:
256,192,63862,1,8,0:0:0:0:
256,192,63943,1,8,0:0:0:0:
256,192,64024,1,0,0:0:0:0:
256,192,64186,1,0,0:0:0:0:
256,192,64267,1,0,0:0:0:0:
256,192,64348,1,8,0:0:0:0:
256,192,64510,1,8,0:0:0:0:
256,192,64672,1,0,0:0:0:0:
256,192,64754,1,0,0:0:0:0:
256,192,64835,1,8,0:0:0:0:
256,192,65159,1,8,0:0:0:0:
256,192,65240,1,0,0:0:0:0:
256,192,65321,1,8,0:0:0:0:
256,192,65483,1,8,0:0:0:0:
256,192,65564,1,8,0:0:0:0:
256,192,65645,1,0,0:0:0:0:
256,192,65726,1,0,0:0:0:0:
256,192,65808,1,8,0:0:0:0:
256,192,65889,1,0,0:0:0:0:
256,192,65970,1,8,0:0:0:0:
256,192,66132,1,8,0:0:0:0:
256,192,66213,1,8,0:0:0:0:
256,192,66294,1,0,0:0:0:0:
256,192,66456,1,0,0:0:0:0:
256,192,66537,1,0,0:0:0:0:
288,160,66618,1,0,0:0:0:0:
256,192,66781,1,0,0:0:0:0:
256,192,66943,1,8,0:0:0:0:
256,192,67105,1,8,0:0:0:0:
256,192,67186,1,8,0:0:0:0:
256,192,67267,1,0,0:0:0:0:
256,192,67429,1,0,0:0:0:0:
256,192,67591,1,8,0:0:0:0:
256,192,67754,1,8,0:0:0:0:
256,192,67835,1,8,0:0:0:0:
256,192,67916,1,0,0:0:0:0:
256,192,68078,1,0,0:0:0:0:
256,192,68240,1,8,0:0:0:0:
256,192,68402,1,0,0:0:0:0:
256,192,68564,1,8,0:0:0:0:
256,192,68645,1,8,0:0:0:0:
256,192,68726,1,0,0:0:0:0:
256,192,68889,1,8,0:0:0:0:
256,192,69051,1,0,0:0:0:0:
256,192,69213,1,8,0:0:0:0:
256,192,69294,1,8,0:0:0:0:
256,192,69375,1,8,0:0:0:0:
256,192,69537,1,8,0:0:0:0:
256,192,69618,1,0,0:0:0:0:
256,192,69699,1,8,0:0:0:0:
256,192,69862,1,0,0:0:0:0:
256,192,69943,1,0,0:0:0:0:
256,192,70024,1,0,0:0:0:0:
256,192,70186,1,8,0:0:0:0:
256,192,70348,1,8,0:0:0:0:
256,192,70429,1,8,0:0:0:0:
256,192,70510,1,8,0:0:0:0:
448,64,70672,1,8,0:0:0:0:
64,64,70835,1,0,0:0:0:0:
448,64,70997,1,8,0:0:0:0:
256,192,71159,1,8,0:0:0:0:
256,192,71240,1,8,0:0:0:0:
256,192,71321,1,0,0:0:0:0:
256,192,71483,1,8,0:0:0:0:
256,192,71564,1,8,0:0:0:0:
256,192,71645,1,0,0:0:0:0:
256,192,71726,1,0,0:0:0:0:
256,192,71808,1,8,0:0:0:0:
256,192,71970,1,0,0:0:0:0:
256,192,72132,1,8,0:0:0:0:
256,192,72294,1,0,0:0:0:0:
256,192,72375,1,0,0:0:0:0:
256,192,72456,1,0,0:0:0:0:
256,192,72618,1,0,0:0:0:0:
256,192,72781,1,8,0:0:0:0:
256,192,72943,1,8,0:0:0:0:
256,192,73024,1,8,0:0:0:0:
256,192,73105,1,0,0:0:0:0:
256,192,73267,1,0,0:0:0:0:
256,192,73348,1,0,0:0:0:0:
256,192,73429,1,8,0:0:0:0:
256,192,73591,1,8,0:0:0:0:
256,192,73754,1,8,0:0:0:0:
256,192,73835,1,8,0:0:0:0:
256,192,73916,1,0,0:0:0:0:
256,192,74078,1,8,0:0:0:0:
256,192,74240,1,8,0:0:0:0:
256,192,74321,1,0,0:0:0:0:
256,192,74402,1,8,0:0:0:0:
256,192,74564,1,0,0:0:0:0:
256,192,74645,1,0,0:0:0:0:
256,192,74726,1,8,0:0:0:0:
256,192,74889,1,0,0:0:0:0:
256,192,75051,1,8,0:0:0:0:
256,192,75132,1,0,0:0:0:0:
256,192,75213,1,8,0:0:0:0:
256,192,75375,1,8,0:0:0:0:
256,192,75537,1,8,0:0:0:0:
256,192,75618,1,8,0:0:0:0:
256,192,75699,1,0,0:0:0:0:
256,192,75862,1,0,0:0:0:0:
256,192,76024,1,8,0:0:0:0:
256,192,76186,1,0,0:0:0:0:
256,192,76348,1,0,0:0:0:0:
256,192,76429,1,0,0:0:0:0:
256,192,76510,1,8,0:0:0:0:
256,192,76672,1,8,0:0:0:0:
256,192,76726,1,8,0:0:0:0:
256,192,76781,1,8,0:0:0:0:
256,192,76835,1,0,0:0:0:0:
256,192,76889,1,0,0:0:0:0:
256,192,76943,1,0,0:0:0:0:
256,192,76997,1,8,0:0:0:0:
256,192,77078,1,8,0:0:0:0:
256,192,77159,1,0,0:0:0:0:
256,192,77240,1,0,0:0:0:0:
256,192,77321,1,8,0:0:0:0:
256,192,77402,1,0,0:0:0:0:
256,192,77483,1,0,0:0:0:0:
256,192,77564,1,0,0:0:0:0:
256,192,77645,1,8,0:0:0:0:
256,192,77726,1,0,0:0:0:0:
256,192,77808,1,8,0:0:0:0:
256,192,77889,1,0,0:0:0:0:
256,192,77970,1,8,0:0:0:0:
256,192,78051,1,0,0:0:0:0:
256,192,78132,1,0,0:0:0:0:
256,192,78213,1,0,0:0:0:0:
256,192,78294,1,8,0:0:0:0:
256,192,78375,1,0,0:0:0:0:
256,192,78456,1,8,0:0:0:0:
256,192,78537,1,0,0:0:0:0:
256,192,78618,1,8,0:0:0:0:
256,192,78699,1,8,0:0:0:0:
256,192,78781,1,0,0:0:0:0:
256,192,78862,1,0,0:0:0:0:
256,192,78943,1,8,0:0:0:0:
256,192,79024,1,0,0:0:0:0:
256,192,79105,1,8,0:0:0:0:
256,192,79186,1,8,0:0:0:0:
256,192,79267,1,0,0:0:0:0:
256,192,79348,1,0,0:0:0:0:
256,192,79429,1,8,0:0:0:0:
256,192,79510,1,0,0:0:0:0:
256,192,79591,1,8,0:0:0:0:
256,192,79672,1,8,0:0:0:0:
256,192,79754,1,0,0:0:0:0:
256,192,79835,1,0,0:0:0:0:
256,192,79916,1,8,0:0:0:0:
256,192,79997,1,8,0:0:0:0:
256,192,80078,1,8,0:0:0:0:
256,192,80159,1,8,0:0:0:0:
256,192,80240,1,0,0:0:0:0:
256,192,80321,1,0,0:0:0:0:
256,192,80402,1,0,0:0:0:0:
256,192,80483,1,0,0:0:0:0:
256,192,80564,1,8,0:0:0:0:
256,192,80645,1,8,0:0:0:0:
256,192,80726,1,0,0:0:0:0:
256,192,80808,1,0,0:0:0:0:
256,192,80889,1,8,0:0:0:0:
256,192,80970,1,0,0:0:0:0:
256,192,81051,1,8,0:0:0:0:
256,192,81132,1,0,0:0:0:0:
256,192,81213,1,8,0:0:0:0:
256,192,81294,1,8,0:0:0:0:
256,192,81375,1,0,0:0:0:0:
256,192,81456,1,0,0:0:0:0:
256,192,81537,1,8,0:0:0:0:
256,192,81618,1,0,0:0:0:0:
256,192,81699,1,0,0:0:0:0:
256,192,81781,1,0,0:0:0:0:
256,192,81862,1,8,0:0:0:0:
256,192,81943,1,0,0:0:0:0:
256,192,82024,1,8,0:0:0:0:
256,192,82105,1,0,0:0:0:0:
256,192,82186,1,8,0:0:0:0:
256,192,82267,1,8,0:0:0:0:
256,192,82348,1,8,0:0:0:0:
256,192,82429,1,8,0:0:0:0:
256,192,82510,1,0,0:0:0:0:
256,192,82591,1,0,0:0:0:0:
256,192,82672,1,8,0:0:0:0:
256,192,82754,1,8,0:0:0:0:
256,192,82835,1,0,0:0:0:0:
256,192,82916,1,0,0:0:0:0:
256,192,82997,1,8,0:0:0:0:
256,192,83078,1,0,0:0:0:0:
256,192,83159,1,8,0:0:0:0:
256,192,83240,1,0,0:0:0:0:
256,192,83321,1,0,0:0:0:0:
256,192,83402,1,0,0:0:0:0:
256,192,83483,1,8,0:0:0:0:
256,192,83564,1,0,0:0:0:0:
256,192,83645,1,8,0:0:0:0:
256,192,83726,1,0,0:0:0:0:
256,192,83808,1,8,0:0:0:0:
256,192,83889,1,0,0:0:0:0:
256,192,83970,1,8,0:0:0:0:
256,192,84051,1,8,0:0:0:0:
256,192,84132,1,0,0:0:0:0:
256,192,84213,1,0,0:0:0:0:
256,192,84294,1,8,0:0:0:0:
256,192,84375,1,0,0:0:0:0:
256,192,84456,1,8,0:0:0:0:
256,192,84537,1,8,0:0:0:0:
256,192,84618,1,0,0:0:0:0:
256,192,84699,1,0,0:0:0:0:
256,192,84781,1,8,0:0:0:0:
256,192,84862,1,0,0:0:0:0:
256,192,84943,1,0,0:0:0:0:
256,192,85024,1,0,0:0:0:0:
256,192,85105,1,8,0:0:0:0:
256,192,85186,1,8,0:0:0:0:
256,192,85267,1,8,0:0:0:0:
256,192,85348,1,8,0:0:0:0:
256,192,85429,1,0,0:0:0:0:
256,192,85510,1,0,0:0:0:0:
256,192,85591,1,8,0:0:0:0:
256,192,85672,1,8,0:0:0:0:
256,192,85754,1,0,0:0:0:0:
256,192,85835,1,0,0:0:0:0:
256,192,85916,1,0,0:0:0:0:
256,192,85997,1,0,0:0:0:0:
256,192,86078,1,8,0:0:0:0:
256,192,86159,1,8,0:0:0:0:
256,192,86240,1,0,0:0:0:0:
256,192,86321,1,0,0:0:0:0:
256,192,86402,1,8,0:0:0:0:
256,192,86483,1,0,0:0:0:0:
256,192,86564,1,8,0:0:0:0:
256,192,86645,1,0,0:0:0:0:
256,192,86726,1,8,0:0:0:0:
256,192,86808,1,8,0:0:0:0:
256,192,86889,1,8,0:0:0:0:
256,192,86970,1,8,0:0:0:0:
256,192,87051,1,0,0:0:0:0:
256,192,87132,1,0,0:0:0:0:
256,192,87213,1,8,0:0:0:0:
256,192,87294,1,8,0:0:0:0:
256,192,87375,5,0,0:0:0:0:
256,192,87537,1,8,0:0:0:0:
256,192,87862,1,0,0:0:0:0:
256,192,88024,1,0,0:0:0:0:
256,192,88186,1,8,0:0:0:0:
256,192,88510,1,0,0:0:0:0:
256,192,88591,1,0,0:0:0:0:
256,192,88672,1,8,0:0:0:0:
256,192,88835,1,0,0:0:0:0:
256,192,88997,1,8,0:0:0:0:
256,192,89159,1,0,0:0:0:0:
256,192,89321,1,0,0:0:0:0:
256,192,89483,1,8,0:0:0:0:
256,192,89808,1,8,0:0:0:0:
256,192,89889,1,8,0:0:0:0:
256,192,89970,1,0,0:0:0:0:
256,192,90132,1,8,0:0:0:0:
256,192,90456,1,8,0:0:0:0:
256,192,90618,1,0,0:0:0:0:
256,192,90781,1,8,0:0:0:0:
256,192,91105,1,0,0:0:0:0:
256,192,91186,1,0,0:0:0:0:
256,192,91267,1,8,0:0:0:0:
256,192,91429,1,0,0:0:0:0:
256,192,91591,1,8,0:0:0:0:
256,192,91754,1,0,0:0:0:0:
256,192,91916,1,0,0:0:0:0:
256,192,92078,1,8,0:0:0:0:
256,192,92564,1,0,0:0:0:0:
256,192,92726,1,8,0:0:0:0:
256,192,93051,1,0,0:0:0:0:
256,192,93213,1,0,0:0:0:0:
256,192,93375,1,8,0:0:0:0:
256,192,93699,1,8,0:0:0:0:
256,192,93781,1,8,0:0:0:0:
256,192,93862,1,0,0:0:0:0:
256,192,94024,1,0,0:0:0:0:
256,192,94186,1,8,0:0:0:0:
256,192,94348,1,0,0:0:0:0:
256,192,94510,1,8,0:0:0:0:
256,192,94672,1,0,0:0:0:0:
256,192,94997,1,8,0:0:0:0:
256,192,95078,1,8,0:0:0:0:
256,192,95159,1,0,0:0:0:0:
256,192,95321,1,8,0:0:0:0:
256,192,95645,1,8,0:0:0:0:
256,192,95808,1,0,0:0:0:0:
256,192,95970,1,8,0:0:0:0:
256,192,96294,1,8,0:0:0:0:
256,192,96375,1,0,0:0:0:0:
256,192,96456,1,8,0:0:0:0:
256,192,96618,1,0,0:0:0:0:
256,192,96781,1,8,0:0:0:0:
256,192,96862,1,8,0:0:0:0:
256,192,96943,1,0,0:0:0:0:
256,192,96997,1,0,0:0:0:0:
256,192,97051,1,0,0:0:0:0:
256,192,97105,1,8,0:0:0:0:
256,192,97267,1,0,0:0:0:0:
256,192,97429,1,8,0:0:0:0:
256,192,97483,1,8,0:0:0:0:
256,192,97537,1,8,0:0:0:0:
256,192,97591,1,0,0:0:0:0:
256,192,97645,1,0,0:0:0:0:
256,192,97699,1,0,0:0:0:0:
256,192,97754,1,8,0:0:0:0:
256,192,97835,1,8,0:0:0:0:
256,192,97916,1,8,0:0:0:0:
256,192,97997,1,8,0:0:0:0:
256,192,98078,1,0,0:0:0:0:
256,192,98159,1,0,0:0:0:0:
256,192,98240,1,8,0:0:0:0:
256,192,98321,1,0,0:0:0:0:
256,192,98402,1,8,0:0:0:0:
256,192,98483,1,8,0:0:0:0:
256,192,98564,1,0,0:0:0:0:
256,192,98645,1,0,0:0:0:0:
256,192,98726,1,8,0:0:0:0:
256,192,98808,1,8,0:0:0:0:
256,192,98889,1,0,0:0:0:0:
256,192,98970,1,0,0:0:0:0:
256,192,99051,1,8,0:0:0:0:
256,192,99132,1,0,0:0:0:0:
256,192,99213,1,8,0:0:0:0:
256,192,99294,1,0,0:0:0:0:
256,192,99375,1,8,0:0:0:0:
256,192,99456,1,8,0:0:0:0:
256,192,99537,1,0,0:0:0:0:
256,192,99618,1,0,0:0:0:0:
256,192,99699,1,8,0:0:0:0:
256,192,99781,1,8,0:0:0:0:
256,192,99862,1,8,0:0:0:0:
256,192,99943,1,8,0:0:0:0:
256,192,100024,1,0,0:0:0:0:
256,192,100105,1,0,0:0:0:0:
256,192,100186,1,0,0:0:0:0:
256,192,100267,1,0,0:0:0:0:
256,192,100348,1,8,0:0:0:0:
256,192,100429,1,8,0:0:0:0:
256,192,100511,1,0,0:0:0:0:
256,192,100592,1,8,0:0:0:0:
256,192,100673,1,0,0:0:0:0:
256,192,100754,1,0,0:0:0:0:
256,192,100835,1,8,0:0:0:0:
256,192,100916,1,0,0:0:0:0:
256,192,100997,1,8,0:0:0:0:
256,192,101078,1,8,0:0:0:0:
256,192,101159,1,0,0:0:0:0:
256,192,101240,1,0,0:0:0:0:
256,192,101321,1,8,0:0:0:0:
256,192,101402,1,0,0:0:0:0:
256,192,101483,1,8,0:0:0:0:
256,192,101564,1,0,0:0:0:0:
256,192,101645,1,8,0:0:0:0:
256,192,101726,1,8,0:0:0:0:
256,192,101808,1,0,0:0:0:0:
256,192,101889,1,0,0:0:0:0:
256,192,101970,1,8,0:0:0:0:
256,192,102051,1,8,0:0:0:0:
256,192,102132,1,0,0:0:0:0:
256,192,102213,1,0,0:0:0:0:
256,192,102294,1,8,0:0:0:0:
256,192,102375,1,8,0:0:0:0:
256,192,102456,1,0,0:0:0:0:
256,192,102537,1,0,0:0:0:0:
256,192,102618,1,8,0:0:0:0:
256,192,102699,1,0,0:0:0:0:
256,192,102781,1,8,0:0:0:0:
256,192,102862,1,0,0:0:0:0:
256,192,102943,1,8,0:0:0:0:
256,192,103024,1,8,0:0:0:0:
256,192,103105,1,8,0:0:0:0:
256,192,103186,1,8,0:0:0:0:
256,192,103267,1,0,0:0:0:0:
256,192,103348,1,0,0:0:0:0:
256,192,103429,1,8,0:0:0:0:
256,192,103510,1,0,0:0:0:0:
256,192,103591,1,8,0:0:0:0:
256,192,103672,1,0,0:0:0:0:
256,192,103754,1,8,0:0:0:0:
256,192,103835,1,0,0:0:0:0:
256,192,103916,1,8,0:0:0:0:
256,192,103997,1,8,0:0:0:0:
256,192,104078,1,0,0:0:0:0:
256,192,104159,1,0,0:0:0:0:
256,192,104240,1,8,0:0:0:0:
256,192,104321,1,8,0:0:0:0:
256,192,104402,1,8,0:0:0:0:
256,192,104483,1,8,0:0:0:0:
256,192,104564,1,0,0:0:0:0:
256,192,104645,1,0,0:0:0:0:
256,192,104726,1,8,0:0:0:0:
256,192,104808,1,0,0:0:0:0:
256,192,104889,1,8,0:0:0:0:
256,192,104970,1,0,0:0:0:0:
256,192,105051,1,8,0:0:0:0:
256,192,105132,1,0,0:0:0:0:
256,192,105213,1,8,0:0:0:0:
256,192,105294,1,8,0:0:0:0:
256,192,105375,1,0,0:0:0:0:
256,192,105456,1,0,0:0:0:0:
256,192,105537,1,8,0:0:0:0:
256,192,105618,1,8,0:0:0:0:
256,192,105699,1,0,0:0:0:0:
256,192,105781,1,0,0:0:0:0:
256,192,105862,1,8,0:0:0:0:
256,192,105943,1,0,0:0:0:0:
256,192,106024,1,8,0:0:0:0:
256,192,106105,1,0,0:0:0:0:
256,192,106186,1,8,0:0:0:0:
256,192,106267,1,8,0:0:0:0:
256,192,106348,1,0,0:0:0:0:
256,192,106429,1,0,0:0:0:0:
256,192,106510,1,8,0:0:0:0:
256,192,106591,1,0,0:0:0:0:
256,192,106672,1,0,0:0:0:0:
256,192,106754,1,0,0:0:0:0:
256,192,106835,1,8,0:0:0:0:
256,192,106916,1,0,0:0:0:0:
256,192,106997,1,8,0:0:0:0:
256,192,107078,1,0,0:0:0:0:
256,192,107159,1,8,0:0:0:0:
256,192,107240,1,8,0:0:0:0:
256,192,107321,1,0,0:0:0:0:
256,192,107402,1,0,0:0:0:0:
256,192,107483,1,8,0:0:0:0:
256,192,107564,1,0,0:0:0:0:
256,192,107645,1,8,0:0:0:0:
256,192,107726,1,0,0:0:0:0:
256,192,107808,1,8,0:0:0:0:
256,192,107889,1,0,0:0:0:0:
256,192,107970,1,0,0:0:0:0:
256,192,108051,1,0,0:0:0:0:
256,192,108132,1,8,0:0:0:0:
256,192,108213,1,8,0:0:0:0:
256,192,108294,1,8,0:0:0:0:
256,192,108375,1,8,0:0:0:0:
256,192,108456,1,0,0:0:0:0:
256,192,108537,1,0,0:0:0:0:
256,192,108618,1,8,0:0:0:0:
256,192,108699,1,0,0:0:0:0:
256,192,108781,1,8,0:0:0:0:
256,192,108862,1,8,0:0:0:0:
256,192,108943,1,0,0:0:0:0:
256,192,109024,1,0,0:0:0:0:
256,192,109105,1,8,0:0:0:0:
256,192,109186,1,8,0:0:0:0:
256,192,109267,1,0,0:0:0:0:
256,192,109348,1,0,0:0:0:0:
256,192,109429,1,8,0:0:0:0:
256,192,109510,1,0,0:0:0:0:
256,192,109591,1,8,0:0:0:0:
256,192,109672,1,0,0:0:0:0:
256,192,109754,1,8,0:0:0:0:
256,192,109835,1,8,0:0:0:0:
256,192,109916,1,0,0:0:0:0:
256,192,109997,1,0,0:0:0:0:
256,192,110078,1,8,0:0:0:0:
256,192,110159,1,8,0:0:0:0:
256,192,110240,1,8,0:0:0:0:
256,192,110321,1,8,0:0:0:0:
256,192,110402,1,0,0:0:0:0:
256,192,110483,1,0,0:0:0:0:
256,192,110564,1,0,0:0:0:0:
256,192,110645,1,0,0:0:0:0:
256,192,110726,1,8,0:0:0:0:
256,192,110808,1,8,0:0:0:0:
256,192,110889,1,0,0:0:0:0:
256,192,110970,1,0,0:0:0:0:
256,192,111051,1,8,0:0:0:0:
256,192,111132,1,8,0:0:0:0:
256,192,111213,1,0,0:0:0:0:
256,192,111294,1,0,0:0:0:0:
256,192,111375,1,8,0:0:0:0:
256,192,111456,1,8,0:0:0:0:
256,192,111537,1,8,0:0:0:0:
256,192,111618,1,8,0:0:0:0:
256,192,111699,1,0,0:0:0:0:
256,192,111781,1,0,0:0:0:0:
256,192,111862,1,0,0:0:0:0:
256,192,111943,1,0,0:0:0:0:
256,192,112024,1,8,0:0:0:0:
256,192,112105,1,8,0:0:0:0:
256,192,112186,1,0,0:0:0:0:
256,192,112268,1,0,0:0:0:0:
256,192,112348,1,8,0:0:0:0:
256,192,112429,1,0,0:0:0:0:
256,192,112510,1,8,0:0:0:0:
256,192,112591,1,0,0:0:0:0:
256,192,112672,1,8,0:0:0:0:
256,192,112754,1,0,0:0:0:0:
256,192,112835,1,0,0:0:0:0:
256,192,112916,1,0,0:0:0:0:
256,192,112997,1,8,0:0:0:0:
256,192,113078,1,8,0:0:0:0:
256,192,113159,1,0,0:0:0:0:
256,192,113240,1,0,0:0:0:0:
256,192,113321,1,8,0:0:0:0:
256,192,113403,1,0,0:0:0:0:
256,192,113484,1,8,0:0:0:0:
256,192,113565,1,0,0:0:0:0:
256,192,113645,1,8,0:0:0:0:
256,192,113726,1,8,0:0:0:0:
256,192,113808,1,0,0:0:0:0:
256,192,113889,1,0,0:0:0:0:
256,192,113970,1,8,0:0:0:0:
256,192,114051,1,0,0:0:0:0:
256,192,114132,1,0,0:0:0:0:
256,192,114213,1,0,0:0:0:0:
256,192,114294,1,8,0:0:0:0:
256,192,114375,1,0,0:0:0:0:
256,192,114456,1,8,0:0:0:0:
256,192,114537,1,0,0:0:0:0:
256,192,114618,1,8,0:0:0:0:
256,192,114699,1,8,0:0:0:0:
256,192,114781,1,8,0:0:0:0:
256,192,114862,1,8,0:0:0:0:
256,192,114943,1,0,0:0:0:0:
256,192,115024,1,8,0:0:0:0:
256,192,115105,1,0,0:0:0:0:
256,192,115186,1,8,0:0:0:0:
256,192,115267,1,0,0:0:0:0:
256,192,115348,1,0,0:0:0:0:
256,192,115429,1,8,0:0:0:0:
256,192,115510,1,0,0:0:0:0:
256,192,115591,1,8,0:0:0:0:
256,192,115672,1,8,0:0:0:0:
256,192,115754,1,0,0:0:0:0:
256,192,115835,1,0,0:0:0:0:
256,192,115916,1,8,0:0:0:0:
256,192,115997,1,8,0:0:0:0:
256,192,116078,1,0,0:0:0:0:
256,192,116159,1,0,0:0:0:0:
256,192,116240,1,8,0:0:0:0:
256,192,116321,1,0,0:0:0:0:
256,192,116402,1,8,0:0:0:0:
256,192,116483,1,0,0:0:0:0:
256,192,116564,1,8,0:0:0:0:
256,192,116645,1,8,0:0:0:0:
256,192,116726,1,0,0:0:0:0:
256,192,116808,1,0,0:0:0:0:
256,192,116889,1,8,0:0:0:0:
256,192,116970,1,0,0:0:0:0:
256,192,117051,1,0,0:0:0:0:
256,192,117132,1,0,0:0:0:0:
256,192,117213,1,8,0:0:0:0:
256,192,117294,1,0,0:0:0:0:
256,192,117375,1,8,0:0:0:0:
256,192,117456,1,0,0:0:0:0:
256,192,117537,1,8,0:0:0:0:
256,192,117618,1,8,0:0:0:0:
256,192,117699,1,0,0:0:0:0:
256,192,117781,1,0,0:0:0:0:
256,192,117862,1,8,0:0:0:0:
256,192,117943,1,0,0:0:0:0:
256,192,118024,1,8,0:0:0:0:
256,192,118105,1,0,0:0:0:0:
256,192,118186,1,8,0:0:0:0:
256,192,118240,1,8,0:0:0:0:
256,192,118294,1,8,0:0:0:0:
256,192,118348,1,0,0:0:0:0:
256,192,118402,1,0,0:0:0:0:
256,192,118456,1,0,0:0:0:0:
256,192,118510,1,8,0:0:0:0:
256,192,118591,1,0,0:0:0:0:
256,192,118672,1,8,0:0:0:0:
256,192,118754,1,0,0:0:0:0:
256,192,118835,1,8,0:0:0:0:
256,192,118916,1,0,0:0:0:0:
256,192,118997,1,8,0:0:0:0:
256,192,119078,1,0,0:0:0:0:
256,192,119159,1,8,0:0:0:0:
256,192,119240,1,8,0:0:0:0:
256,192,119321,1,0,0:0:0:0:
256,192,119402,1,0,0:0:0:0:
256,192,119483,1,8,0:0:0:0:
256,192,119564,1,0,0:0:0:0:
256,192,119645,1,8,0:0:0:0:
256,192,119726,1,0,0:0:0:0:
256,192,119808,1,8,0:0:0:0:
256,192,119970,1,0,0:0:0:0:
256,192,120132,1,8,0:0:0:0:
256,192,120294,1,0,0:0:0:0:
256,192,120375,1,0,0:0:0:0:
256,192,120456,1,0,0:0:0:0:
256,192,120618,1,0,0:0:0:0:
256,192,120781,1,8,0:0:0:0:
256,192,120943,1,0,0:0:0:0:
256,192,121024,1,0,0:0:0:0:
256,192,121105,1,8,0:0:0:0:
256,192,121267,1,0,0:0:0:0:
256,192,121429,1,8,0:0:0:0:
256,192,121591,1,8,0:0:0:0:
256,192,121672,1,8,0:0:0:0:
256,192,121754,1,0,0:0:0:0:
256,192,121916,1,0,0:0:0:0:
256,192,122078,1,8,0:0:0:0:
256,192,122240,1,0,0:0:0:0:
256,192,122321,1,0,0:0:0:0:
256,192,122402,1,0,0:0:0:0:
256,192,122564,1,0,0:0:0:0:
256,192,122726,1,8,0:0:0:0:
256,192,122889,1,8,0:0:0:0:
256,192,122970,1,0,0:0:0:0:
256,192,123051,1,8,0:0:0:0:
256,192,123213,1,0,0:0:0:0:
256,192,123375,1,8,0:0:0:0:
256,192,123537,1,8,0:0:0:0:
256,192,123618,1,8,0:0:0:0:
256,192,123699,1,0,0:0:0:0:
256,192,123862,1,0,0:0:0:0:
256,192,124024,1,8,0:0:0:0:
256,192,124186,1,0,0:0:0:0:
256,192,124267,1,0,0:0:0:0:
256,192,124348,1,8,0:0:0:0:
256,192,124429,1,0,0:0:0:0:
256,192,124510,1,8,0:0:0:0:
256,192,124672,1,8,0:0:0:0:
256,192,124835,1,0,0:0:0:0:
256,192,124916,1,0,0:0:0:0:
256,192,124997,1,8,0:0:0:0:
256,192,125159,1,0,0:0:0:0:
256,192,125321,1,8,0:0:0:0:
256,192,125483,1,8,0:0:0:0:
256,192,125564,1,8,0:0:0:0:
256,192,125645,1,0,0:0:0:0:
256,192,125808,1,0,0:0:0:0:
256,192,125970,1,8,0:0:0:0:
256,192,126132,1,0,0:0:0:0:
256,192,126213,1,0,0:0:0:0:
256,192,126294,1,8,0:0:0:0:
256,192,126456,1,0,0:0:0:0:
256,192,126618,1,8,0:0:0:0:
256,192,126781,1,0,0:0:0:0:
256,192,126943,1,8,0:0:0:0:
256,192,127024,1,0,0:0:0:0:
256,192,127105,1,8,0:0:0:0:
256,192,127267,1,8,0:0:0:0:
256,192,127429,1,8,0:0:0:0:
256,192,127510,1,8,0:0:0:0:
256,192,127591,1,0,0:0:0:0:
256,192,127754,1,0,0:0:0:0:
256,192,127835,1,0,0:0:0:0:
256,192,127916,1,8,0:0:0:0:
256,192,128078,1,0,0:0:0:0:
256,192,128240,1,8,0:0:0:0:
256,192,128321,1,8,0:0:0:0:
256,192,128402,1,0,0:0:0:0:
256,192,128564,1,8,0:0:0:0:
256,192,128726,1,8,0:0:0:0:
256,192,128808,1,0,0:0:0:0:
256,192,128889,1,8,0:0:0:0:
256,192,129051,1,0,0:0:0:0:
256,192,129213,1,8,0:0:0:0:
256,192,129375,1,0,0:0:0:0:
256,192,129456,1,8,0:0:0:0:
256,192,129537,1,0,0:0:0:0:
256,192,129618,1,0,0:0:0:0:
256,192,129699,1,8,0:0:0:0:
256,192,129862,1,8,0:0:0:0:
256,192,129916,1,8,0:0:0:0:
256,192,129970,1,8,0:0:0:0:
256,192,130024,1,0,0:0:0:0:
256,192,130078,1,0,0:0:0:0:
256,192,130132,1,0,0:0:0:0:
256,192,130186,1,8,0:0:0:0:
256,192,130267,1,0,0:0:0:0:
256,192,130348,1,8,0:0:0:0:
256,192,130429,1,0,0:0:0:0:
256,192,130510,1,8,0:0:0:0:
256,192,130591,1,8,0:0:0:0:
256,192,130672,1,0,0:0:0:0:
256,192,130754,1,0,0:0:0:0:
256,192,130835,1,8,0:0:0:0:
256,192,130916,1,0,0:0:0:0:
256,192,130997,1,8,0:0:0:0:
256,192,131078,1,0,0:0:0:0:
256,192,131159,1,8,0:0:0:0:
256,192,131240,1,8,0:0:0:0:
256,192,131321,1,0,0:0:0:0:
256,192,131402,1,0,0:0:0:0:
256,192,131483,1,8,0:0:0:0:
256,192,131564,1,8,0:0:0:0:
256,192,131645,1,8,0:0:0:0:
256,192,131726,1,8,0:0:0:0:
256,192,131808,1,0,0:0:0:0:
256,192,131889,1,0,0:0:0:0:
256,192,131970,1,8,0:0:0:0:
256,192,132051,1,0,0:0:0:0:
256,192,132132,1,8,0:0:0:0:
256,192,132213,1,8,0:0:0:0:
256,192,132294,1,0,0:0:0:0:
256,192,132375,1,0,0:0:0:0:
256,192,132456,1,8,0:0:0:0:
256,192,132537,1,0,0:0:0:0:
256,192,132618,1,0,0:0:0:0:
256,192,132699,1,0,0:0:0:0:
256,192,132781,1,8,0:0:0:0:
256,192,132862,1,0,0:0:0:0:
256,192,132943,1,8,0:0:0:0:
256,192,133024,1,0,0:0:0:0:
256,192,133105,1,8,0:0:0:0:
256,192,133186,1,8,0:0:0:0:
256,192,133267,1,0,0:0:0:0:
256,192,133348,1,0,0:0:0:0:
256,192,133429,1,8,0:0:0:0:
256,192,133510,1,8,0:0:0:0:
256,192,133591,1,0,0:0:0:0:
256,192,133672,1,0,0:0:0:0:
256,192,133754,1,8,0:0:0:0:
256,192,133835,1,0,0:0:0:0:
256,192,133916,1,8,0:0:0:0:
256,192,133997,1,8,0:0:0:0:
256,192,134078,1,0,0:0:0:0:
256,192,134159,1,0,0:0:0:0:
256,192,134240,1,8,0:0:0:0:
256,192,134321,1,0,0:0:0:0:
256,192,134402,1,8,0:0:0:0:
256,192,134483,1,8,0:0:0:0:
256,192,134564,1,0,0:0:0:0:
256,192,134645,1,0,0:0:0:0:
256,192,134726,1,8,0:0:0:0:
256,192,134808,1,0,0:0:0:0:
256,192,134889,1,8,0:0:0:0:
256,192,134970,1,0,0:0:0:0:
256,192,135051,1,8,0:0:0:0:
256,192,135132,1,0,0:0:0:0:
256,192,135213,1,0,0:0:0:0:
256,192,135294,1,0,0:0:0:0:
256,192,135375,1,8,0:0:0:0:
256,192,135456,1,0,0:0:0:0:
256,192,135537,1,8,0:0:0:0:
256,192,135618,1,0,0:0:0:0:
256,192,135699,1,8,0:0:0:0:
256,192,135781,1,8,0:0:0:0:
256,192,135862,1,0,0:0:0:0:
256,192,135943,1,0,0:0:0:0:
256,192,136024,1,8,0:0:0:0:
256,192,136105,1,0,0:0:0:0:
256,192,136186,1,8,0:0:0:0:
256,192,136267,1,0,0:0:0:0:
256,192,136348,1,8,0:0:0:0:
256,192,136429,1,8,0:0:0:0:
256,192,136510,1,0,0:0:0:0:
256,192,136591,1,0,0:0:0:0:
256,192,136672,1,8,0:0:0:0:
256,192,136754,1,8,0:0:0:0:
256,192,136835,1,8,0:0:0:0:
256,192,136916,1,8,0:0:0:0:
256,192,136997,1,0,0:0:0:0:
256,192,137078,1,0,0:0:0:0:
256,192,137159,1,8,0:0:0:0:
256,192,137240,1,0,0:0:0:0:
256,192,137321,1,8,0:0:0:0:
256,192,137402,1,8,0:0:0:0:
256,192,137483,1,0,0:0:0:0:
256,192,137564,1,0,0:0:0:0:
256,192,137645,1,8,0:0:0:0:
256,192,137726,1,0,0:0:0:0:
256,192,137808,1,0,0:0:0:0:
256,192,137889,1,0,0:0:0:0:
256,192,137970,1,8,0:0:0:0:
256,192,138051,1,0,0:0:0:0:
256,192,138132,1,8,0:0:0:0:
256,192,138213,1,0,0:0:0:0:
256,192,138294,1,8,0:0:0:0:
256,192,138375,1,8,0:0:0:0:
256,192,138456,1,0,0:0:0:0:
256,192,138537,1,0,0:0:0:0:
256,192,138618,1,8,0:0:0:0:
256,192,138699,1,8,0:0:0:0:
256,192,138781,1,0,0:0:0:0:
256,192,138862,1,0,0:0:0:0:
256,192,138943,1,8,0:0:0:0:
256,192,139024,1,0,0:0:0:0:
256,192,139105,1,8,0:0:0:0:
256,192,139186,1,8,0:0:0:0:
256,192,139267,1,0,0:0:0:0:
256,192,139348,1,0,0:0:0:0:
256,192,139429,1,8,0:0:0:0:
256,192,139510,1,0,0:0:0:0:
256,192,139591,1,8,0:0:0:0:
256,192,139672,1,8,0:0:0:0:
256,192,139754,1,0,0:0:0:0:
256,192,139835,1,0,0:0:0:0:
256,192,139916,1,8,0:0:0:0:
256,192,139997,1,0,0:0:0:0:
256,192,140078,1,8,0:0:0:0:
256,192,140159,1,0,0:0:0:0:
256,192,140240,1,8,0:0:0:0:
256,192,140321,1,8,0:0:0:0:
256,192,140402,1,8,0:0:0:0:
256,192,140483,1,8,0:0:0:0:
256,192,140564,1,0,0:0:0:0:
256,192,140726,1,8,0:0:0:0:
256,192,141051,1,0,0:0:0:0:
256,192,141213,1,0,0:0:0:0:
256,192,141375,1,8,0:0:0:0:
256,192,141699,1,8,0:0:0:0:
256,192,141781,1,0,0:0:0:0:
256,192,141862,1,8,0:0:0:0:
256,192,142024,1,0,0:0:0:0:
256,192,142186,1,8,0:0:0:0:
256,192,142348,1,0,0:0:0:0:
256,192,142510,1,8,0:0:0:0:
256,192,142672,1,0,0:0:0:0:
256,192,142997,1,8,0:0:0:0:
256,192,143078,1,8,0:0:0:0:
256,192,143159,1,0,0:0:0:0:
256,192,143321,1,8,0:0:0:0:
256,192,143645,1,8,0:0:0:0:
256,192,143808,1,0,0:0:0:0:
256,192,143970,1,8,0:0:0:0:
256,192,144294,1,0,0:0:0:0:
256,192,144375,1,0,0:0:0:0:
256,192,144456,1,8,0:0:0:0:
256,192,144618,1,0,0:0:0:0:
256,192,144781,1,8,0:0:0:0:
256,192,144943,1,0,0:0:0:0:
256,192,145105,1,0,0:0:0:0:
256,192,145267,1,8,0:0:0:0:
256,192,145754,1,0,0:0:0:0:
256,192,145916,1,8,0:0:0:0:
256,192,146240,1,0,0:0:0:0:
256,192,146402,1,0,0:0:0:0:
256,192,146564,1,8,0:0:0:0:
256,192,146889,1,0,0:0:0:0:
256,192,146970,1,0,0:0:0:0:
256,192,147051,1,8,0:0:0:0:
256,192,147213,1,0,0:0:0:0:
256,192,147375,1,8,0:0:0:0:
256,192,147537,1,0,0:0:0:0:
256,192,147699,1,8,0:0:0:0:
256,192,147862,1,0,0:0:0:0:
256,192,148186,1,8,0:0:0:0:
256,192,148267,1,8,0:0:0:0:
256,192,148348,1,0,0:0:0:0:
256,192,148510,1,8,0:0:0:0:
256,192,148835,1,8,0:0:0:0:
256,192,148997,1,0,0:0:0:0:
256,192,149159,1,8,0:0:0:0:
256,192,149483,1,8,0:0:0:0:
256,192,149564,1,0,0:0:0:0:
256,192,149645,1,8,0:0:0:0:
256,192,149808,1,0,0:0:0:0:
256,192,149970,1,8,0:0:0:0:
256,192,150051,1,8,0:0:0:0:
256,192,150132,1,0,0:0:0:0:
256,192,150186,1,0,0:0:0:0:
256,192,150240,1,0,0:0:0:0:
224,160,150294,1,8,0:0:0:0:
256,192,150456,1,0,0:0:0:0:
256,192,150618,1,12,0:0:0:0:
