osu file format v14

[General]
AudioFilename: audio.mp3
AudioLeadIn: 0
PreviewTime: 56233
Countdown: 0
SampleSet: Normal
StackLeniency: 0.7
Mode: 1
LetterboxInBreaks: 0
WidescreenStoryboard: 1

[Editor]
Bookmarks: 19909,25098,35476,45855,56233,66611,76990,87368,92557,97747,108125,118503,119801,130179,140557,150611
DistanceSpacing: 1.3
BeatDivisor: 4
GridSize: 32
TimelineZoom: 1.8

[Metadata]
Title:Halloween Candystore
TitleUnicode:Halloween Candystore
Artist:Plum
ArtistUnicode:Plum
Creator:Eloxrad
Version:Ron's Oni
Source:
Tags:Electronic Instrumental [r] ron artcore holiday 할로윈의 사탕가게 plumwriter double single melodic fa featured artist piano
BeatmapID:3601639
BeatmapSetID:1749963

[Difficulty]
HPDrainRate:5
CircleSize:5
OverallDifficulty:5
ApproachRate:5
SliderMultiplier:1.4
SliderTickRate:1

[Events]
//Background and Video events
0,0,"alchemy-stars-mobile-anime-games-moon-twintails-halloween-2021-anime.jpeg",0,100
//Break Periods
//Storyboard Layer 0 (Background)
//Storyboard Layer 1 (Fail)
//Storyboard Layer 2 (Pass)
//Storyboard Layer 3 (Foreground)
//Storyboard Layer 4 (Overlay)
//Storyboard Sound Samples

[TimingPoints]
14727,324.324324324324,4,1,0,100,1,0
56240,-99.98459,4,1,0,100,0,1
66618,-99.9845845359639,4,1,0,100,0,0
97754,-99.98459,4,1,0,100,0,1
118510,-99.98459,4,1,0,100,0,0

[HitObjects]
256,192,14727,5,0,0:0:0:0:
256,192,14889,1,8,0:0:0:0:
256,192,15213,1,8,0:0:0:0:
256,192,15375,1,0,0:0:0:0:
256,192,15537,1,8,0:0:0:0:
256,192,15862,1,8,0:0:0:0:
256,192,15943,1,8,0:0:0:0:
256,192,16024,1,0,0:0:0:0:
256,192,16186,1,0,0:0:0:0:
256,192,16348,1,8,0:0:0:0:
256,192,16510,1,0,0:0:0:0:
256,192,16672,1,0,0:0:0:0:
256,192,16835,1,8,0:0:0:0:
256,192,17159,1,0,0:0:0:0:
256,192,17240,1,0,0:0:0:0:
256,192,17321,1,0,0:0:0:0:
256,192,17483,1,8,0:0:0:0:
256,192,17808,1,8,0:0:0:0:
256,192,17970,1,0,0:0:0:0:
256,192,18132,1,8,0:0:0:0:
256,192,18456,1,8,0:0:0:0:
256,192,18537,1,8,0:0:0:0:
256,192,18618,1,0,0:0:0:0:
256,192,18781,1,0,0:0:0:0:
256,192,18943,1,8,0:0:0:0:
256,192,19105,1,8,0:0:0:0:
256,192,19267,1,0,0:0:0:0:
256,192,19429,1,8,0:0:0:0:
256,192,19916,1,0,0:0:0:0:
256,192,20078,1,8,0:0:0:0:
256,192,20402,1,8,0:0:0:0:
256,192,20564,1,0,0:0:0:0:
256,192,20726,1,8,0:0:0:0:
256,192,21051,1,8,0:0:0:0:
256,192,21132,1,8,0:0:0:0:
256,192,21213,1,0,0:0:0:0:
256,192,21375,1,0,0:0:0:0:
256,192,21537,1,8,0:0:0:0:
256,192,21699,1,0,0:0:0:0:
256,192,21781,1,8,0:0:0:0:
256,192,21862,1,0,0:0:0:0:
256,192,22024,1,8,0:0:0:0:
256,192,22348,1,0,0:0:0:0:
256,192,22429,1,0,0:0:0:0:
256,192,22510,1,0,0:0:0:0:
256,192,22672,1,8,0:0:0:0:
256,192,22997,1,8,0:0:0:0:
256,192,23159,1,0,0:0:0:0:
256,192,23321,1,8,0:0:0:0:
256,192,23645,1,8,0:0:0:0:
256,192,23726,1,8,0:0:0:0:
256,192,23808,1,0,0:0:0:0:
256,192,23970,1,0,0:0:0:0:
256,192,24132,1,8,0:0:0:0:
256,192,24213,1,8,0:0:0:0:
256,192,24294,1,8,0:0:0:0:
256,192,24375,1,0,0:0:0:0:
256,192,24456,1,8,0:0:0:0:
256,192,24618,1,0,0:0:0:0:
256,192,24781,1,8,0:0:0:0:
256,192,24862,1,8,0:0:0:0:
256,192,24943,1,8,0:0:0:0:
256,192,25105,1,4,0:0:0:0:
256,192,25429,1,8,0:0:0:0:
256,192,25591,1,0,0:0:0:0:
256,192,25672,1,0,0:0:0:0:
256,192,25754,1,8,0:0:0:0:
256,192,25916,1,0,0:0:0:0:
256,192,26078,1,8,0:0:0:0:
256,192,26159,1,8,0:0:0:0:
256,192,26240,1,0,0:0:0:0:
256,192,26321,1,0,0:0:0:0:
256,192,26402,1,8,0:0:0:0:
256,192,26564,1,0,0:0:0:0:
256,192,26726,1,0,0:0:0:0:
256,192,26889,1,8,0:0:0:0:
256,192,27213,1,0,0:0:0:0:
256,192,27375,1,8,0:0:0:0:
256,192,27456,1,8,0:0:0:0:
256,192,27537,1,8,0:0:0:0:
256,192,27699,1,0,0:0:0:0:
256,192,27862,1,0,0:0:0:0:
256,192,28024,1,8,0:0:0:0:
256,192,28186,1,8,0:0:0:0:
256,192,28267,1,8,0:0:0:0:
256,192,28348,1,0,0:0:0:0:
256,192,28510,1,0,0:0:0:0:
256,192,28672,1,8,0:0:0:0:
256,192,28997,1,0,0:0:0:0:
256,192,29159,1,8,0:0:0:0:
256,192,29321,1,8,0:0:0:0:
256,192,29402,1,0,0:0:0:0:
256,192,29483,1,8,0:0:0:0:
256,192,29645,1,0,0:0:0:0:
256,192,29808,1,8,0:0:0:0:
256,192,29970,1,0,0:0:0:0:
256,192,30051,1,0,0:0:0:0:
256,192,30132,1,8,0:0:0:0:
256,192,30294,1,0,0:0:0:0:
256,192,30618,1,8,0:0:0:0:
256,192,30781,1,0,0:0:0:0:
256,192,30862,1,0,0:0:0:0:
256,192,30943,1,8,0:0:0:0:
256,192,31024,1,8,0:0:0:0:
256,192,31105,1,0,0:0:0:0:
256,192,31267,1,8,0:0:0:0:
256,192,31429,1,0,0:0:0:0:
256,192,31510,1,0,0:0:0:0:
256,192,31591,1,8,0:0:0:0:
256,192,31754,1,0,0:0:0:0:
256,192,31916,1,0,0:0:0:0:
256,192,32078,1,8,0:0:0:0:
256,192,32402,1,0,0:0:0:0:
256,192,32564,1,8,0:0:0:0:
256,192,32726,1,0,0:0:0:0:
256,192,32808,1,8,0:0:0:0:
256,192,32889,1,0,0:0:0:0:
256,192,33051,1,0,0:0:0:0:
256,192,33213,1,8,0:0:0:0:
256,192,33375,1,8,0:0:0:0:
256,192,33456,1,8,0:0:0:0:
256,192,33537,1,0,0:0:0:0:
256,192,33699,1,0,0:0:0:0:
256,192,33862,1,8,0:0:0:0:
256,192,34186,1,0,0:0:0:0:
256,192,34348,1,8,0:0:0:0:
256,192,34510,1,8,0:0:0:0:
256,192,34591,1,0,0:0:0:0:
256,192,34672,1,8,0:0:0:0:
256,192,34835,1,0,0:0:0:0:
256,192,34997,1,8,0:0:0:0:
256,192,35159,1,8,0:0:0:0:
256,192,35240,1,8,0:0:0:0:
256,192,35321,1,8,0:0:0:0:
256,192,35483,1,4,0:0:0:0:
256,192,35645,1,8,0:0:0:0:
256,192,35970,1,8,0:0:0:0:
256,192,36132,1,8,0:0:0:0:
256,192,36294,1,0,0:0:0:0:
256,192,36375,1,0,0:0:0:0:
256,192,36456,1,8,0:0:0:0:
256,192,36537,1,8,0:0:0:0:
256,192,36618,1,0,0:0:0:0:
256,192,36781,1,8,0:0:0:0:
256,192,36943,1,0,0:0:0:0:
256,192,37024,1,8,0:0:0:0:
256,192,37105,1,0,0:0:0:0:
256,192,37267,1,8,0:0:0:0:
256,192,37429,1,8,0:0:0:0:
256,192,37591,1,0,0:0:0:0:
256,192,37672,1,0,0:0:0:0:
256,192,37754,1,8,0:0:0:0:
256,192,37835,1,8,0:0:0:0:
256,192,37916,1,0,0:0:0:0:
256,192,38078,1,8,0:0:0:0:
256,192,38240,1,0,0:0:0:0:
256,192,38564,1,0,0:0:0:0:
256,192,38645,1,0,0:0:0:0:
256,192,38726,1,8,0:0:0:0:
256,192,38889,1,0,0:0:0:0:
256,192,39051,1,8,0:0:0:0:
256,192,39132,1,0,0:0:0:0:
256,192,39213,1,8,0:0:0:0:
256,192,39294,1,8,0:0:0:0:
256,192,39375,1,0,0:0:0:0:
256,192,39537,1,8,0:0:0:0:
256,192,39699,1,0,0:0:0:0:
256,192,39781,1,0,0:0:0:0:
256,192,39862,1,8,0:0:0:0:
256,192,39943,1,0,0:0:0:0:
256,192,40024,1,8,0:0:0:0:
256,192,40186,1,0,0:0:0:0:
256,192,40348,1,8,0:0:0:0:
256,192,40429,1,8,0:0:0:0:
256,192,40510,1,8,0:0:0:0:
256,192,40672,1,0,0:0:0:0:
256,192,40835,1,8,0:0:0:0:
256,192,41159,1,8,0:0:0:0:
256,192,41321,1,8,0:0:0:0:
256,192,41483,1,0,0:0:0:0:
256,192,41564,1,0,0:0:0:0:
256,192,41645,1,8,0:0:0:0:
256,192,41726,1,8,0:0:0:0:
256,192,41808,1,0,0:0:0:0:
256,192,41970,1,8,0:0:0:0:
256,192,42132,1,0,0:0:0:0:
256,192,42213,1,8,0:0:0:0:
256,192,42294,1,0,0:0:0:0:
256,192,42456,1,8,0:0:0:0:
256,192,42618,1,8,0:0:0:0:
256,192,42781,1,0,0:0:0:0:
256,192,42862,1,0,0:0:0:0:
256,192,42943,1,8,0:0:0:0:
256,192,43024,1,8,0:0:0:0:
256,192,43105,1,0,0:0:0:0:
256,192,43267,1,8,0:0:0:0:
256,192,43429,1,0,0:0:0:0:
256,192,43754,1,0,0:0:0:0:
256,192,43835,1,0,0:0:0:0:
256,192,43916,1,8,0:0:0:0:
256,192,44078,1,0,0:0:0:0:
256,192,44240,1,8,0:0:0:0:
256,192,44321,1,0,0:0:0:0:
256,192,44402,1,8,0:0:0:0:
256,192,44483,1,8,0:0:0:0:
256,192,44564,1,0,0:0:0:0:
256,192,44726,1,8,0:0:0:0:
256,192,44889,1,0,0:0:0:0:
256,192,44970,1,0,0:0:0:0:
256,192,45051,1,8,0:0:0:0:
256,192,45132,1,0,0:0:0:0:
256,192,45213,1,8,0:0:0:0:
256,192,45375,1,0,0:0:0:0:
256,192,45537,1,8,0:0:0:0:
256,192,45618,1,8,0:0:0:0:
256,192,45699,1,8,0:0:0:0:
256,192,45862,1,0,0:0:0:0:
256,192,46510,1,0,0:0:0:0:
256,192,47159,1,8,0:0:0:0:
256,192,47483,1,8,0:0:0:0:
256,192,47808,1,8,0:0:0:0:
256,192,48456,1,0,0:0:0:0:
256,192,49105,1,0,0:0:0:0:
256,192,49754,1,8,0:0:0:0:
256,192,50078,1,0,0:0:0:0:
256,192,50402,1,8,0:0:0:0:
256,192,50889,1,8,0:0:0:0:
256,192,50970,1,8,0:0:0:0:
256,192,51051,1,0,0:0:0:0:
256,192,51213,1,0,0:0:0:0:
256,192,51294,1,0,0:0:0:0:
256,192,51375,1,8,0:0:0:0:
256,192,51537,1,0,0:0:0:0:
256,192,51699,1,8,0:0:0:0:
256,192,51862,1,0,0:0:0:0:
256,192,52186,1,0,0:0:0:0:
256,192,52267,1,0,0:0:0:0:
256,192,52348,1,0,0:0:0:0:
256,192,52510,1,0,0:0:0:0:
256,192,52591,1,0,0:0:0:0:
256,192,52672,1,8,0:0:0:0:
256,192,52835,1,8,0:0:0:0:
256,192,52916,1,8,0:0:0:0:
256,192,52997,1,0,0:0:0:0:
256,192,53159,1,8,0:0:0:0:
256,192,53483,1,8,0:0:0:0:
256,192,53564,1,8,0:0:0:0:
256,192,53645,1,0,0:0:0:0:
256,192,53808,1,0,0:0:0:0:
256,192,53889,1,0,0:0:0:0:
256,192,53970,1,8,0:0:0:0:
256,192,54132,1,8,0:0:0:0:
256,192,54294,1,0,0:0:0:0:
256,192,54456,1,8,0:0:0:0:
256,192,54781,1,8,0:0:0:0:
256,192,54943,1,4,0:0:0:0:
256,192,55267,1,4,0:0:0:0:
256,192,55591,1,12,0:0:0:0:
256,192,55754,1,0,0:0:0:0:
256,192,55916,1,8,0:0:0:0:
256,192,55997,1,8,0:0:0:0:
256,192,56078,1,8,0:0:0:0:
256,192,56240,1,4,0:0:0:0:
256,192,56402,1,8,0:0:0:0:
256,192,56483,1,8,0:0:0:0:
256,192,56564,1,0,0:0:0:0:
256,192,56726,1,0,0:0:0:0:
256,192,56889,1,8,0:0:0:0:
256,192,57051,1,0,0:0:0:0:
256,192,57375,1,0,0:0:0:0:
256,192,57456,1,0,0:0:0:0:
256,192,57537,1,8,0:0:0:0:
256,192,57699,1,8,0:0:0:0:
256,192,57781,1,0,0:0:0:0:
256,192,57862,1,8,0:0:0:0:
256,192,58024,1,8,0:0:0:0:
256,192,58105,1,8,0:0:0:0:
256,192,58186,1,0,0:0:0:0:
256,192,58348,1,8,0:0:0:0:
256,192,58672,1,0,0:0:0:0:
256,192,58754,1,0,0:0:0:0:
256,192,58835,1,8,0:0:0:0:
256,192,58997,1,8,0:0:0:0:
256,192,59078,1,8,0:0:0:0:
256,192,59159,1,0,0:0:0:0:
256,192,59321,1,0,0:0:0:0:
256,192,59402,1,8,0:0:0:0:
256,192,59483,1,0,0:0:0:0:
256,192,59645,1,8,0:0:0:0:
256,192,59970,1,8,0:0:0:0:
256,192,60051,1,8,0:0:0:0:
256,192,60132,1,0,0:0:0:0:
256,192,60294,1,0,0:0:0:0:
256,192,60375,1,0,0:0:0:0:
256,192,60456,1,8,0:0:0:0:
256,192,60537,1,8,0:0:0:0:
256,192,60618,1,0,0:0:0:0:
256,192,60699,1,0,0:0:0:0:
256,192,60781,1,8,0:0:0:0:
256,192,60943,1,0,0:0:0:0:
256,192,61105,1,8,0:0:0:0:
256,192,61267,1,8,0:0:0:0:
256,192,61348,1,8,0:0:0:0:
256,192,61429,1,0,0:0:0:0:
256,192,61591,1,0,0:0:0:0:
256,192,61672,1,8,0:0:0:0:
256,192,61754,1,0,0:0:0:0:
256,192,61916,1,0,0:0:0:0:
256,192,62078,1,8,0:0:0:0:
256,192,62240,1,0,0:0:0:0:
256,192,62564,1,0,0:0:0:0:
256,192,62645,1,0,0:0:0:0:
256,192,62726,1,8,0:0:0:0:
256,192,62889,1,8,0:0:0:0:
256,192,62970,1,0,0:0:0:0:
256,192,63051,1,8,0:0:0:0:
256,192,63213,1,8,0:0:0:0:
256,192,63294,1,8,0:0:0:0:
256,192,63375,1,0,0:0:0:0:
256,192,63537,1,8,0:0:0:0:
256,192,63862,1,0,0:0:0:0:
256,192,63943,1,0,0:0:0:0:
256,192,64024,1,8,0:0:0:0:
256,192,64186,1,8,0:0:0:0:
256,192,64267,1,8,0:0:0:0:
256,192,64348,1,0,0:0:0:0:
256,192,64510,1,0,0:0:0:0:
256,192,64591,1,8,0:0:0:0:
256,192,64672,1,0,0:0:0:0:
256,192,64835,1,8,0:0:0:0:
256,192,65159,1,8,0:0:0:0:
256,192,65240,1,8,0:0:0:0:
256,192,65321,1,0,0:0:0:0:
256,192,65483,1,0,0:0:0:0:
256,192,65564,1,0,0:0:0:0:
256,192,65645,1,8,0:0:0:0:
256,192,65726,1,8,0:0:0:0:
256,192,65808,1,0,0:0:0:0:
256,192,65889,1,0,0:0:0:0:
256,192,65970,1,8,0:0:0:0:
256,192,66132,1,0,0:0:0:0:
256,192,66294,1,8,0:0:0:0:
256,192,66375,1,0,0:0:0:0:
256,192,66456,1,8,0:0:0:0:
256,192,66618,1,4,0:0:0:0:
256,192,66943,1,8,0:0:0:0:
256,192,67105,1,0,0:0:0:0:
256,192,67186,1,0,0:0:0:0:
256,192,67267,1,0,0:0:0:0:
256,192,67429,1,0,0:0:0:0:
256,192,67591,1,8,0:0:0:0:
256,192,67916,1,0,0:0:0:0:
256,192,68078,1,0,0:0:0:0:
256,192,68240,1,8,0:0:0:0:
256,192,68402,1,8,0:0:0:0:
256,192,68483,1,8,0:0:0:0:
256,192,68564,1,0,0:0:0:0:
256,192,68726,1,0,0:0:0:0:
256,192,68889,1,8,0:0:0:0:
256,192,68970,1,0,0:0:0:0:
256,192,69051,1,8,0:0:0:0:
256,192,69132,1,8,0:0:0:0:
256,192,69213,1,0,0:0:0:0:
256,192,69375,1,0,0:0:0:0:
256,192,69537,1,8,0:0:0:0:
256,192,69862,1,8,0:0:0:0:
256,192,70024,1,0,0:0:0:0:
256,192,70186,1,8,0:0:0:0:
256,192,70510,1,8,0:0:0:0:
256,192,70672,1,0,0:0:0:0:
256,192,70835,1,0,0:0:0:0:
256,192,70997,1,8,0:0:0:0:
256,192,71159,1,0,0:0:0:0:
256,192,71240,1,0,0:0:0:0:
256,192,71321,1,8,0:0:0:0:
256,192,71483,1,0,0:0:0:0:
256,192,71564,1,0,0:0:0:0:
256,192,71645,1,8,0:0:0:0:
256,192,71726,1,8,0:0:0:0:
256,192,71808,1,0,0:0:0:0:
256,192,72132,1,8,0:0:0:0:
256,192,72294,1,0,0:0:0:0:
256,192,72375,1,0,0:0:0:0:
256,192,72456,1,0,0:0:0:0:
256,192,72618,1,0,0:0:0:0:
256,192,72781,1,8,0:0:0:0:
256,192,73105,1,8,0:0:0:0:
256,192,73267,1,0,0:0:0:0:
256,192,73348,1,8,0:0:0:0:
256,192,73429,1,0,0:0:0:0:
256,192,73591,1,8,0:0:0:0:
256,192,73754,1,0,0:0:0:0:
256,192,73835,1,8,0:0:0:0:
256,192,73916,1,0,0:0:0:0:
256,192,73997,1,0,0:0:0:0:
256,192,74078,1,8,0:0:0:0:
256,192,74240,1,8,0:0:0:0:
256,192,74402,1,0,0:0:0:0:
256,192,74726,1,8,0:0:0:0:
256,192,74889,1,0,0:0:0:0:
256,192,75051,1,8,0:0:0:0:
256,192,75132,1,8,0:0:0:0:
256,192,75213,1,0,0:0:0:0:
256,192,75375,1,8,0:0:0:0:
256,192,75699,1,8,0:0:0:0:
256,192,75862,1,0,0:0:0:0:
256,192,76024,1,8,0:0:0:0:
256,192,76186,1,8,0:0:0:0:
256,192,76348,1,0,0:0:0:0:
256,192,76429,1,0,0:0:0:0:
256,192,76510,1,8,0:0:0:0:
256,192,76591,1,0,0:0:0:0:
256,192,76672,1,8,0:0:0:0:
256,192,76754,1,8,0:0:0:0:
256,192,76835,1,8,0:0:0:0:
256,192,76997,1,4,0:0:0:0:
256,192,77321,1,8,0:0:0:0:
256,192,77483,1,0,0:0:0:0:
256,192,77564,1,0,0:0:0:0:
256,192,77645,1,0,0:0:0:0:
256,192,77808,1,0,0:0:0:0:
256,192,77970,1,8,0:0:0:0:
256,192,78294,1,0,0:0:0:0:
256,192,78456,1,0,0:0:0:0:
256,192,78618,1,8,0:0:0:0:
256,192,78781,1,8,0:0:0:0:
256,192,78862,1,8,0:0:0:0:
256,192,78943,1,0,0:0:0:0:
256,192,79105,1,0,0:0:0:0:
256,192,79267,1,8,0:0:0:0:
256,192,79348,1,0,0:0:0:0:
256,192,79429,1,8,0:0:0:0:
256,192,79510,1,8,0:0:0:0:
256,192,79591,1,0,0:0:0:0:
256,192,79754,1,0,0:0:0:0:
256,192,79916,1,8,0:0:0:0:
256,192,80240,1,8,0:0:0:0:
256,192,80402,1,0,0:0:0:0:
256,192,80564,1,8,0:0:0:0:
256,192,80889,1,8,0:0:0:0:
256,192,81051,1,0,0:0:0:0:
256,192,81213,1,0,0:0:0:0:
256,192,81375,1,8,0:0:0:0:
256,192,81537,1,0,0:0:0:0:
256,192,81618,1,0,0:0:0:0:
256,192,81699,1,8,0:0:0:0:
256,192,81862,1,0,0:0:0:0:
256,192,81943,1,0,0:0:0:0:
256,192,82024,1,8,0:0:0:0:
256,192,82105,1,8,0:0:0:0:
256,192,82186,1,0,0:0:0:0:
256,192,82510,1,8,0:0:0:0:
256,192,82672,1,0,0:0:0:0:
256,192,82754,1,0,0:0:0:0:
256,192,82835,1,0,0:0:0:0:
256,192,82997,1,0,0:0:0:0:
256,192,83159,1,8,0:0:0:0:
256,192,83483,1,8,0:0:0:0:
256,192,83645,1,0,0:0:0:0:
256,192,83726,1,8,0:0:0:0:
256,192,83808,1,0,0:0:0:0:
256,192,83970,1,8,0:0:0:0:
256,192,84132,1,0,0:0:0:0:
256,192,84213,1,8,0:0:0:0:
256,192,84294,1,0,0:0:0:0:
256,192,84375,1,0,0:0:0:0:
256,192,84456,1,8,0:0:0:0:
256,192,84618,1,8,0:0:0:0:
256,192,84781,1,0,0:0:0:0:
256,192,85105,1,8,0:0:0:0:
256,192,85267,1,0,0:0:0:0:
256,192,85429,1,8,0:0:0:0:
256,192,85510,1,8,0:0:0:0:
256,192,85591,1,0,0:0:0:0:
256,192,85754,1,8,0:0:0:0:
256,192,86078,1,8,0:0:0:0:
256,192,86240,1,0,0:0:0:0:
256,192,86402,1,8,0:0:0:0:
256,192,86564,1,0,0:0:0:0:
256,192,86726,1,8,0:0:0:0:
256,192,86889,1,0,0:0:0:0:
256,192,86970,1,0,0:0:0:0:
256,192,87051,1,8,0:0:0:0:
256,192,87132,1,8,0:0:0:0:
256,192,87213,1,0,0:0:0:0:
256,192,87375,1,0,0:0:0:0:
256,192,87537,1,8,0:0:0:0:
256,192,87862,1,8,0:0:0:0:
256,192,88024,1,0,0:0:0:0:
256,192,88186,1,8,0:0:0:0:
256,192,88510,1,8,0:0:0:0:
256,192,88591,1,8,0:0:0:0:
256,192,88672,1,0,0:0:0:0:
256,192,88835,1,0,0:0:0:0:
256,192,88997,1,8,0:0:0:0:
256,192,89159,1,0,0:0:0:0:
256,192,89321,1,0,0:0:0:0:
256,192,89483,1,8,0:0:0:0:
256,192,89808,1,0,0:0:0:0:
256,192,89889,1,0,0:0:0:0:
256,192,89970,1,0,0:0:0:0:
256,192,90132,1,8,0:0:0:0:
256,192,90456,1,8,0:0:0:0:
256,192,90618,1,0,0:0:0:0:
256,192,90781,1,8,0:0:0:0:
256,192,91105,1,8,0:0:0:0:
256,192,91186,1,8,0:0:0:0:
256,192,91267,1,0,0:0:0:0:
256,192,91429,1,0,0:0:0:0:
256,192,91591,1,8,0:0:0:0:
256,192,91754,1,8,0:0:0:0:
256,192,91916,1,0,0:0:0:0:
256,192,92078,1,8,0:0:0:0:
256,192,92402,1,0,0:0:0:0:
256,192,92483,1,0,0:0:0:0:
256,192,92564,1,0,0:0:0:0:
256,192,92726,1,8,0:0:0:0:
256,192,93051,1,8,0:0:0:0:
256,192,93213,1,0,0:0:0:0:
256,192,93375,1,8,0:0:0:0:
256,192,93699,1,8,0:0:0:0:
256,192,93781,1,8,0:0:0:0:
256,192,93862,1,0,0:0:0:0:
256,192,94024,1,0,0:0:0:0:
256,192,94186,1,8,0:0:0:0:
256,192,94348,1,0,0:0:0:0:
256,192,94429,1,8,0:0:0:0:
256,192,94510,1,0,0:0:0:0:
256,192,94672,1,8,0:0:0:0:
256,192,94997,1,0,0:0:0:0:
256,192,95078,1,0,0:0:0:0:
256,192,95159,1,0,0:0:0:0:
256,192,95321,1,8,0:0:0:0:
256,192,95645,1,8,0:0:0:0:
256,192,95808,1,0,0:0:0:0:
256,192,95970,1,8,0:0:0:0:
256,192,96294,1,8,0:0:0:0:
256,192,96375,1,8,0:0:0:0:
256,192,96456,1,0,0:0:0:0:
256,192,96618,1,0,0:0:0:0:
256,192,96781,1,8,0:0:0:0:
256,192,96862,1,8,0:0:0:0:
256,192,96943,1,8,0:0:0:0:
256,192,97024,1,0,0:0:0:0:
256,192,97105,1,8,0:0:0:0:
256,192,97267,1,0,0:0:0:0:
256,192,97429,1,8,0:0:0:0:
256,192,97510,1,8,0:0:0:0:
256,192,97591,1,8,0:0:0:0:
256,192,97754,1,4,0:0:0:0:
256,192,98078,1,8,0:0:0:0:
256,192,98240,1,0,0:0:0:0:
256,192,98321,1,8,0:0:0:0:
256,192,98402,1,0,0:0:0:0:
256,192,98564,1,0,0:0:0:0:
256,192,98726,1,8,0:0:0:0:
256,192,98808,1,8,0:0:0:0:
256,192,98889,1,0,0:0:0:0:
256,192,98970,1,0,0:0:0:0:
256,192,99051,1,8,0:0:0:0:
256,192,99213,1,8,0:0:0:0:
256,192,99294,1,8,0:0:0:0:
256,192,99375,1,0,0:0:0:0:
256,192,99537,1,8,0:0:0:0:
256,192,99862,1,0,0:0:0:0:
256,192,100024,1,8,0:0:0:0:
256,192,100186,1,0,0:0:0:0:
256,192,100267,1,0,0:0:0:0:
256,192,100348,1,8,0:0:0:0:
256,192,100510,1,0,0:0:0:0:
256,192,100672,1,8,0:0:0:0:
256,192,100835,1,0,0:0:0:0:
256,192,100916,1,0,0:0:0:0:
256,192,100997,1,8,0:0:0:0:
256,192,101078,1,8,0:0:0:0:
256,192,101159,1,0,0:0:0:0:
256,192,101321,1,8,0:0:0:0:
256,192,101483,1,8,0:0:0:0:
256,192,101564,1,8,0:0:0:0:
256,192,101645,1,0,0:0:0:0:
256,192,101808,1,0,0:0:0:0:
256,192,101970,1,8,0:0:0:0:
256,192,102051,1,0,0:0:0:0:
256,192,102132,1,8,0:0:0:0:
256,192,102213,1,8,0:0:0:0:
256,192,102294,1,0,0:0:0:0:
256,192,102456,1,8,0:0:0:0:
256,192,102618,1,0,0:0:0:0:
256,192,102699,1,0,0:0:0:0:
256,192,102781,1,8,0:0:0:0:
256,192,102862,1,0,0:0:0:0:
256,192,102943,1,8,0:0:0:0:
256,192,103267,1,0,0:0:0:0:
256,192,103429,1,8,0:0:0:0:
256,192,103510,1,8,0:0:0:0:
256,192,103591,1,0,0:0:0:0:
256,192,103754,1,0,0:0:0:0:
256,192,103916,1,8,0:0:0:0:
256,192,103997,1,0,0:0:0:0:
256,192,104078,1,8,0:0:0:0:
256,192,104159,1,8,0:0:0:0:
256,192,104240,1,0,0:0:0:0:
256,192,104564,1,8,0:0:0:0:
256,192,104726,1,0,0:0:0:0:
256,192,104808,1,0,0:0:0:0:
256,192,104889,1,8,0:0:0:0:
256,192,105051,1,0,0:0:0:0:
256,192,105213,1,8,0:0:0:0:
256,192,105537,1,0,0:0:0:0:
256,192,105618,1,0,0:0:0:0:
256,192,105699,1,0,0:0:0:0:
256,192,105862,1,8,0:0:0:0:
256,192,105943,1,8,0:0:0:0:
256,192,106024,1,0,0:0:0:0:
256,192,106186,1,0,0:0:0:0:
256,192,106267,1,0,0:0:0:0:
256,192,106348,1,8,0:0:0:0:
256,192,106510,1,8,0:0:0:0:
256,192,106591,1,8,0:0:0:0:
256,192,106672,1,8,0:0:0:0:
256,192,106835,1,0,0:0:0:0:
256,192,106997,1,8,0:0:0:0:
256,192,107321,1,8,0:0:0:0:
256,192,107483,1,0,0:0:0:0:
256,192,107564,1,0,0:0:0:0:
256,192,107645,1,0,0:0:0:0:
256,192,107726,1,0,0:0:0:0:
256,192,107808,1,8,0:0:0:0:
256,192,107889,1,8,0:0:0:0:
256,192,107970,1,8,0:0:0:0:
256,192,108132,1,4,0:0:0:0:
256,192,108456,1,8,0:0:0:0:
256,192,108618,1,0,0:0:0:0:
256,192,108699,1,8,0:0:0:0:
256,192,108781,1,0,0:0:0:0:
256,192,108943,1,0,0:0:0:0:
256,192,109105,1,8,0:0:0:0:
256,192,109186,1,8,0:0:0:0:
256,192,109267,1,0,0:0:0:0:
256,192,109348,1,0,0:0:0:0:
256,192,109429,1,8,0:0:0:0:
256,192,109591,1,8,0:0:0:0:
256,192,109672,1,8,0:0:0:0:
256,192,109754,1,0,0:0:0:0:
256,192,109916,1,8,0:0:0:0:
256,192,110240,1,0,0:0:0:0:
256,192,110402,1,8,0:0:0:0:
256,192,110564,1,0,0:0:0:0:
256,192,110645,1,0,0:0:0:0:
256,192,110726,1,8,0:0:0:0:
256,192,110889,1,0,0:0:0:0:
256,192,111051,1,8,0:0:0:0:
256,192,111213,1,0,0:0:0:0:
256,192,111294,1,0,0:0:0:0:
256,192,111375,1,8,0:0:0:0:
256,192,111456,1,8,0:0:0:0:
256,192,111537,1,0,0:0:0:0:
256,192,111699,1,8,0:0:0:0:
256,192,111862,1,8,0:0:0:0:
256,192,111943,1,8,0:0:0:0:
256,192,112024,1,0,0:0:0:0:
256,192,112186,1,0,0:0:0:0:
256,192,112348,1,8,0:0:0:0:
256,192,112429,1,0,0:0:0:0:
256,192,112510,1,8,0:0:0:0:
256,192,112591,1,8,0:0:0:0:
256,192,112672,1,0,0:0:0:0:
256,192,112835,1,8,0:0:0:0:
256,192,112997,1,0,0:0:0:0:
256,192,113078,1,0,0:0:0:0:
256,192,113159,1,8,0:0:0:0:
256,192,113240,1,0,0:0:0:0:
256,192,113321,1,8,0:0:0:0:
256,192,113645,1,0,0:0:0:0:
256,192,113808,1,8,0:0:0:0:
256,192,113889,1,8,0:0:0:0:
256,192,113970,1,0,0:0:0:0:
256,192,114132,1,0,0:0:0:0:
256,192,114294,1,8,0:0:0:0:
256,192,114375,1,0,0:0:0:0:
256,192,114456,1,8,0:0:0:0:
256,192,114537,1,8,0:0:0:0:
256,192,114618,1,0,0:0:0:0:
256,192,114943,1,8,0:0:0:0:
256,192,115105,1,0,0:0:0:0:
256,192,115186,1,0,0:0:0:0:
256,192,115267,1,8,0:0:0:0:
256,192,115429,1,0,0:0:0:0:
256,192,115591,1,8,0:0:0:0:
256,192,115916,1,0,0:0:0:0:
256,192,115997,1,0,0:0:0:0:
256,192,116078,1,0,0:0:0:0:
256,192,116240,1,8,0:0:0:0:
256,192,116321,1,8,0:0:0:0:
256,192,116402,1,0,0:0:0:0:
256,192,116564,1,0,0:0:0:0:
256,192,116645,1,0,0:0:0:0:
256,192,116726,1,8,0:0:0:0:
256,192,116889,1,8,0:0:0:0:
256,192,116970,1,8,0:0:0:0:
256,192,117051,1,8,0:0:0:0:
256,192,117213,1,0,0:0:0:0:
256,192,117375,1,8,0:0:0:0:
256,192,117537,1,0,0:0:0:0:
256,192,117699,1,8,0:0:0:0:
256,192,117862,1,0,0:0:0:0:
256,192,118024,1,8,0:0:0:0:
256,192,118186,1,8,0:0:0:0:
256,192,118267,1,8,0:0:0:0:
256,192,118348,1,8,0:0:0:0:
256,192,118510,8,0,119645,0:0:0:0:
256,192,119808,5,12,0:0:0:0:
256,192,119970,1,0,0:0:0:0:
256,192,120132,1,8,0:0:0:0:
256,192,120294,1,0,0:0:0:0:
256,192,120375,1,0,0:0:0:0:
256,192,120456,1,0,0:0:0:0:
256,192,120618,1,8,0:0:0:0:
256,192,120943,1,8,0:0:0:0:
256,192,121105,1,0,0:0:0:0:
256,192,121267,1,8,0:0:0:0:
256,192,121348,1,8,0:0:0:0:
256,192,121429,1,0,0:0:0:0:
256,192,121591,1,8,0:0:0:0:
256,192,121754,1,0,0:0:0:0:
256,192,121835,1,0,0:0:0:0:
256,192,121916,1,8,0:0:0:0:
256,192,122078,1,8,0:0:0:0:
256,192,122159,1,0,0:0:0:0:
256,192,122240,1,8,0:0:0:0:
256,192,122402,1,0,0:0:0:0:
256,192,122564,1,8,0:0:0:0:
256,192,122889,1,8,0:0:0:0:
256,192,123051,1,0,0:0:0:0:
256,192,123213,1,8,0:0:0:0:
256,192,123375,1,0,0:0:0:0:
256,192,123456,1,0,0:0:0:0:
256,192,123537,1,8,0:0:0:0:
256,192,123618,1,8,0:0:0:0:
256,192,123699,1,0,0:0:0:0:
256,192,123862,1,8,0:0:0:0:
256,192,124024,1,8,0:0:0:0:
256,192,124105,1,0,0:0:0:0:
256,192,124186,1,8,0:0:0:0:
256,192,124348,1,0,0:0:0:0:
256,192,124510,1,0,0:0:0:0:
256,192,124672,1,8,0:0:0:0:
256,192,124835,1,0,0:0:0:0:
256,192,124916,1,0,0:0:0:0:
256,192,124997,1,8,0:0:0:0:
256,192,125159,1,0,0:0:0:0:
256,192,125321,1,8,0:0:0:0:
256,192,125483,1,0,0:0:0:0:
256,192,125564,1,0,0:0:0:0:
256,192,125645,1,0,0:0:0:0:
256,192,125808,1,8,0:0:0:0:
256,192,126132,1,8,0:0:0:0:
256,192,126294,1,0,0:0:0:0:
256,192,126456,1,8,0:0:0:0:
256,192,126537,1,8,0:0:0:0:
256,192,126618,1,0,0:0:0:0:
256,192,126781,1,8,0:0:0:0:
256,192,126943,1,0,0:0:0:0:
256,192,127024,1,0,0:0:0:0:
256,192,127105,1,8,0:0:0:0:
256,192,127267,1,8,0:0:0:0:
256,192,127348,1,0,0:0:0:0:
256,192,127429,1,8,0:0:0:0:
256,192,127591,1,0,0:0:0:0:
256,192,127754,1,8,0:0:0:0:
256,192,128078,1,8,0:0:0:0:
256,192,128240,1,0,0:0:0:0:
256,192,128402,1,8,0:0:0:0:
256,192,128564,1,0,0:0:0:0:
256,192,128645,1,0,0:0:0:0:
256,192,128726,1,8,0:0:0:0:
256,192,128808,1,8,0:0:0:0:
256,192,128889,1,0,0:0:0:0:
256,192,129051,1,8,0:0:0:0:
256,192,129213,1,8,0:0:0:0:
256,192,129294,1,0,0:0:0:0:
256,192,129375,1,8,0:0:0:0:
256,192,129537,1,0,0:0:0:0:
256,192,129699,1,8,0:0:0:0:
256,192,129862,1,8,0:0:0:0:
256,192,129943,1,8,0:0:0:0:
256,192,130024,1,8,0:0:0:0:
256,192,130186,1,4,0:0:0:0:
256,192,130348,1,8,0:0:0:0:
256,192,130672,1,0,0:0:0:0:
256,192,130754,1,8,0:0:0:0:
256,192,130835,1,0,0:0:0:0:
256,192,130997,1,8,0:0:0:0:
256,192,131159,1,0,0:0:0:0:
256,192,131240,1,0,0:0:0:0:
256,192,131321,1,8,0:0:0:0:
256,192,131483,1,0,0:0:0:0:
256,192,131645,1,8,0:0:0:0:
256,192,131808,1,0,0:0:0:0:
256,192,131889,1,0,0:0:0:0:
256,192,131970,1,8,0:0:0:0:
256,192,132051,1,0,0:0:0:0:
256,192,132132,1,8,0:0:0:0:
256,192,132294,1,0,0:0:0:0:
256,192,132456,1,8,0:0:0:0:
256,192,132537,1,8,0:0:0:0:
256,192,132618,1,8,0:0:0:0:
256,192,132781,1,0,0:0:0:0:
256,192,132943,1,8,0:0:0:0:
256,192,133267,1,8,0:0:0:0:
256,192,133429,1,0,0:0:0:0:
256,192,133510,1,0,0:0:0:0:
256,192,133591,1,8,0:0:0:0:
256,192,133754,1,8,0:0:0:0:
256,192,133835,1,8,0:0:0:0:
256,192,133916,1,0,0:0:0:0:
256,192,133997,1,0,0:0:0:0:
256,192,134078,1,8,0:0:0:0:
256,192,134240,1,8,0:0:0:0:
256,192,134321,1,8,0:0:0:0:
256,192,134402,1,0,0:0:0:0:
256,192,134564,1,8,0:0:0:0:
256,192,134726,1,0,0:0:0:0:
256,192,134889,1,8,0:0:0:0:
256,192,135051,1,8,0:0:0:0:
256,192,135132,1,8,0:0:0:0:
256,192,135213,1,8,0:0:0:0:
256,192,135375,1,0,0:0:0:0:
256,192,135537,1,8,0:0:0:0:
256,192,135862,1,0,0:0:0:0:
256,192,135943,1,8,0:0:0:0:
256,192,136024,1,0,0:0:0:0:
256,192,136186,1,8,0:0:0:0:
256,192,136348,1,0,0:0:0:0:
256,192,136429,1,0,0:0:0:0:
256,192,136510,1,8,0:0:0:0:
256,192,136672,1,0,0:0:0:0:
256,192,136835,1,8,0:0:0:0:
256,192,136997,1,0,0:0:0:0:
256,192,137078,1,0,0:0:0:0:
256,192,137159,1,8,0:0:0:0:
256,192,137240,1,0,0:0:0:0:
256,192,137321,1,8,0:0:0:0:
256,192,137483,1,0,0:0:0:0:
256,192,137645,1,8,0:0:0:0:
256,192,137726,1,8,0:0:0:0:
256,192,137808,1,8,0:0:0:0:
256,192,137970,1,0,0:0:0:0:
256,192,138132,1,8,0:0:0:0:
256,192,138456,1,8,0:0:0:0:
256,192,138618,1,0,0:0:0:0:
256,192,138699,1,0,0:0:0:0:
256,192,138781,1,8,0:0:0:0:
256,192,138943,1,8,0:0:0:0:
256,192,139024,1,8,0:0:0:0:
256,192,139105,1,0,0:0:0:0:
256,192,139186,1,0,0:0:0:0:
256,192,139267,1,8,0:0:0:0:
256,192,139429,1,8,0:0:0:0:
256,192,139510,1,8,0:0:0:0:
256,192,139591,1,0,0:0:0:0:
256,192,139754,1,8,0:0:0:0:
256,192,139916,1,0,0:0:0:0:
256,192,140078,1,8,0:0:0:0:
256,192,140240,1,8,0:0:0:0:
256,192,140321,1,8,0:0:0:0:
256,192,140402,1,8,0:0:0:0:
256,192,140564,1,0,0:0:0:0:
256,192,140726,1,8,0:0:0:0:
256,192,141051,1,8,0:0:0:0:
256,192,141213,1,0,0:0:0:0:
256,192,141375,1,8,0:0:0:0:
256,192,141699,1,8,0:0:0:0:
256,192,141781,1,8,0:0:0:0:
256,192,141862,1,0,0:0:0:0:
256,192,142024,1,0,0:0:0:0:
256,192,142186,1,8,0:0:0:0:
256,192,142348,1,0,0:0:0:0:
256,192,142510,1,0,0:0:0:0:
256,192,142672,1,8,0:0:0:0:
256,192,142997,1,0,0:0:0:0:
256,192,143078,1,0,0:0:0:0:
256,192,143159,1,0,0:0:0:0:
256,192,143321,1,8,0:0:0:0:
256,192,143645,1,8,0:0:0:0:
256,192,143808,1,0,0:0:0:0:
256,192,143970,1,8,0:0:0:0:
256,192,144294,1,8,0:0:0:0:
256,192,144375,1,8,0:0:0:0:
256,192,144456,1,0,0:0:0:0:
256,192,144618,1,0,0:0:0:0:
256,192,144781,1,8,0:0:0:0:
256,192,144943,1,8,0:0:0:0:
256,192,145105,1,0,0:0:0:0:
256,192,145267,1,8,0:0:0:0:
256,192,145591,1,0,0:0:0:0:
256,192,145672,1,0,0:0:0:0:
256,192,145754,1,0,0:0:0:0:
256,192,145916,1,8,0:0:0:0:
256,192,146240,1,8,0:0:0:0:
256,192,146402,1,0,0:0:0:0:
256,192,146564,1,8,0:0:0:0:
256,192,146889,1,8,0:0:0:0:
256,192,146970,1,8,0:0:0:0:
256,192,147051,1,0,0:0:0:0:
256,192,147213,1,0,0:0:0:0:
256,192,147375,1,8,0:0:0:0:
256,192,147537,1,0,0:0:0:0:
256,192,147618,1,8,0:0:0:0:
256,192,147699,1,0,0:0:0:0:
256,192,147862,1,8,0:0:0:0:
256,192,148186,1,0,0:0:0:0:
256,192,148267,1,0,0:0:0:0:
256,192,148348,1,0,0:0:0:0:
256,192,148510,1,8,0:0:0:0:
256,192,148835,1,8,0:0:0:0:
256,192,148997,1,0,0:0:0:0:
256,192,149159,1,8,0:0:0:0:
256,192,149483,1,8,0:0:0:0:
256,192,149564,1,8,0:0:0:0:
256,192,149645,1,0,0:0:0:0:
256,192,149808,1,0,0:0:0:0:
256,192,149970,1,8,0:0:0:0:
256,192,150051,1,8,0:0:0:0:
256,192,150132,1,8,0:0:0:0:
256,192,150213,1,0,0:0:0:0:
256,192,150294,1,8,0:0:0:0:
256,192,150456,1,0,0:0:0:0:
256,192,150618,1,12,0:0:0:0:
