osu file format v14

[General]
AudioFilename: audio.mp3
AudioLeadIn: 0
PreviewTime: 56233
Countdown: 0
SampleSet: Normal
StackLeniency: 0.7
Mode: 1
LetterboxInBreaks: 0
WidescreenStoryboard: 1

[Editor]
Bookmarks: 14720,25098,35476,45855,56233,66611,76990,87368,92557,97747,108125,118503,119801,130179,140557,150611
DistanceSpacing: 1.3
BeatDivisor: 4
GridSize: 32
TimelineZoom: 1.8

[Metadata]
Title:Halloween Candystore
TitleUnicode:Halloween Candystore
Artist:Plum
ArtistUnicode:Plum
Creator:Eloxrad
Version:Muzukashii
Source:
Tags:Electronic Instrumental [r] ron artcore holiday 할로윈의 사탕가게 plumwriter double single melodic fa featured artist piano
BeatmapID:3597121
BeatmapSetID:1749963

[Difficulty]
HPDrainRate:6
CircleSize:5
OverallDifficulty:4
ApproachRate:5
SliderMultiplier:1.4
SliderTickRate:1

[Events]
//Background and Video events
0,0,"alchemy-stars-mobile-anime-games-moon-twintails-halloween-2021-anime.jpeg",0,100
//Break Periods
2,45981,49689
//Storyboard Layer 0 (Background)
//Storyboard Layer 1 (Fail)
//Storyboard Layer 2 (Pass)
//Storyboard Layer 3 (Foreground)
//Storyboard Layer 4 (Overlay)
//Storyboard Sound Samples

[TimingPoints]
14727,324.324324324324,4,1,0,70,1,0
14727,-100,4,1,0,70,0,0
19916,-100,4,1,0,80,0,0
25105,-100,4,1,0,100,0,0
34183,-100,4,1,0,100,0,0
34345,-101.26483,4,1,0,100,0,0
34507,-102.56207,4,1,0,100,0,0
34669,-103.89298,4,1,0,100,0,0
34831,-105.258896,4,1,0,100,0,0
34994,-106.66996,4,1,0,100,0,0
35156,-108.11037,4,1,0,100,0,0
35480,-111.11111,4,1,0,100,0,0
50887,-99.9999991,4,1,0,80,0,0
56240,-90.896355193485,4,1,0,100,0,1
66618,-90.896350677626,4,1,0,100,0,0
67103,-99.9845845359639,4,1,0,100,0,0
75696,-99.98457,4,1,0,100,0,0
75859,-98.74476,4,1,0,100,0,0
76021,-97.54263,4,1,0,100,0,0
76183,-96.36943,4,1,0,100,0,0
76345,-95.22411,4,1,0,100,0,0
76669,-93.013245,4,1,0,100,0,0
76751,-92.469894,4,1,0,100,0,0
76832,-91.93936,4,1,0,100,0,0
76994,-90.89634,4,1,0,100,0,0
84778,-90.89634,4,1,0,100,0,0
85102,-93.00823,4,1,0,100,0,0
85427,-95.22759,4,1,0,100,0,0
85751,-97.54813,4,1,0,100,0,0
86075,-99.984566,4,1,0,100,0,0
86156,-100.61282,4,1,0,100,0,0
86237,-101.24901,4,1,0,100,0,0
86400,-102.55395,4,1,0,100,0,0
86562,-103.88465,4,1,0,100,0,0
86724,-105.250336,4,1,0,100,0,0
87048,-108.09233,4,1,0,100,0,0
87372,-111.09206,4,1,0,70,0,0
92562,-99.9845716163985,4,1,0,80,0,0
97754,-90.896355193485,4,1,0,100,0,1
118510,-90.896355193485,4,1,0,100,0,0
119806,-99.98459,4,1,0,100,0,0
128886,-99.98459,4,1,0,100,0,0
129210,-97.54815,4,1,0,100,0,0
129372,-96.37392,4,1,0,100,0,0
129534,-95.227615,4,1,0,100,0,0
129615,-94.664635,4,1,0,100,0,0
129696,-94.10826,4,1,0,100,0,0
129859,-93.00825,4,1,0,100,0,0
130183,-90.896355,4,1,0,100,0,0
139265,-90.902725,4,1,0,100,0,0
139589,-93.014915,4,1,0,100,0,0
139670,-93.5584,4,1,0,100,0,0
139751,-94.10826,4,1,0,100,0,0
139914,-95.234604,4,1,0,100,0,0
140076,-96.381065,4,1,0,100,0,0
140238,-97.55547,4,1,0,100,0,0
140318,-98.14606,4,1,0,100,0,0
140399,-98.751335,4,1,0,100,0,0
140561,-99.98459,4,1,0,70,0,0
145754,-99.98459,4,1,0,80,0,0
148348,-99.98459,4,1,0,90,0,0
150618,-99.98459,4,1,0,100,0,0

[HitObjects]
256,192,14727,5,0,0:0:0:0:
256,192,14889,1,8,0:0:0:0:
256,192,15213,1,0,0:0:0:0:
256,192,15375,1,0,0:0:0:0:
256,192,15537,1,8,0:0:0:0:
256,192,15862,1,8,0:0:0:0:
64,64,15943,1,8,0:0:0:0:
256,192,16024,1,8,0:0:0:0:
256,192,16186,1,0,0:0:0:0:
256,192,16348,1,8,0:0:0:0:
64,64,16510,1,0,0:0:0:0:
256,192,16672,1,0,0:0:0:0:
256,192,16835,1,8,0:0:0:0:
448,64,17159,1,8,0:0:0:0:
256,192,17321,1,0,0:0:0:0:
256,192,17483,1,8,0:0:0:0:
64,64,17808,1,0,0:0:0:0:
256,192,17970,1,0,0:0:0:0:
256,192,18132,1,8,0:0:0:0:
256,192,18456,1,8,0:0:0:0:
256,192,18537,1,8,0:0:0:0:
256,192,18618,1,8,0:0:0:0:
256,192,18781,1,0,0:0:0:0:
256,192,18943,1,8,0:0:0:0:
256,192,19105,1,8,0:0:0:0:
256,192,19267,1,0,0:0:0:0:
256,192,19429,1,8,0:0:0:0:
256,192,19916,5,0,0:0:0:0:
256,192,20078,1,8,0:0:0:0:
256,192,20402,1,0,0:0:0:0:
256,192,20564,1,0,0:0:0:0:
256,192,20726,1,8,0:0:0:0:
448,64,21051,1,8,0:0:0:0:
448,64,21132,1,8,0:0:0:0:
448,64,21213,1,8,0:0:0:0:
256,192,21375,1,0,0:0:0:0:
256,192,21537,1,8,0:0:0:0:
256,192,21699,1,0,0:0:0:0:
256,192,21862,1,8,0:0:0:0:
256,192,22024,1,0,0:0:0:0:
256,192,22510,5,0,0:0:0:0:
256,192,22672,1,8,0:0:0:0:
256,192,22997,1,8,0:0:0:0:
256,192,23159,1,0,0:0:0:0:
256,192,23321,1,8,0:0:0:0:
256,192,23645,1,8,0:0:0:0:
256,192,23726,1,8,0:0:0:0:
256,192,23808,1,8,0:0:0:0:
256,192,23970,1,0,0:0:0:0:
256,192,24132,1,8,0:0:0:0:
256,192,24294,1,8,0:0:0:0:
256,192,24456,1,0,0:0:0:0:
256,192,24781,1,8,0:0:0:0:
64,320,25105,1,4,0:0:0:0:
256,192,25429,5,8,0:0:0:0:
256,192,25591,1,8,0:0:0:0:
256,192,25754,1,0,0:0:0:0:
256,192,25916,1,0,0:0:0:0:
256,192,26078,1,8,0:0:0:0:
256,192,26402,1,0,0:0:0:0:
64,64,26564,1,0,0:0:0:0:
448,64,26727,1,8,0:0:0:0:
256,192,27051,1,0,0:0:0:0:
256,192,27132,1,0,0:0:0:0:
256,192,27213,1,0,0:0:0:0:
256,192,27375,1,8,0:0:0:0:
256,192,27537,1,8,0:0:0:0:
256,192,27699,1,0,0:0:0:0:
256,192,27862,1,0,0:0:0:0:
256,192,28024,1,8,0:0:0:0:
256,192,28510,5,0,0:0:0:0:
256,192,28672,1,8,0:0:0:0:
256,192,28835,1,0,0:0:0:0:
256,192,28997,1,0,0:0:0:0:
256,192,29159,1,0,0:0:0:0:
256,192,29321,1,8,0:0:0:0:
64,64,29645,1,0,0:0:0:0:
256,192,29808,1,8,0:0:0:0:
256,192,29970,1,0,0:0:0:0:
256,192,30294,1,0,0:0:0:0:
256,192,30618,1,8,0:0:0:0:
256,192,30943,5,0,0:0:0:0:
256,192,31105,1,0,0:0:0:0:
256,192,31267,1,8,0:0:0:0:
256,192,31429,1,0,0:0:0:0:
256,192,31591,1,8,0:0:0:0:
256,192,31916,1,0,0:0:0:0:
256,192,32240,1,0,0:0:0:0:
256,192,32321,1,0,0:0:0:0:
256,192,32402,1,0,0:0:0:0:
256,192,32564,1,8,0:0:0:0:
256,192,32726,1,8,0:0:0:0:
256,192,32888,1,0,0:0:0:0:
256,192,33051,1,0,0:0:0:0:
256,192,33213,1,8,0:0:0:0:
256,192,33699,5,0,0:0:0:0:
256,192,33861,1,8,0:0:0:0:
256,192,34186,1,0,0:0:0:0:
256,192,34348,1,0,0:0:0:0:
256,192,34510,1,8,0:0:0:0:
256,192,34672,1,0,0:0:0:0:
256,192,34834,1,8,0:0:0:0:
256,192,34997,1,8,0:0:0:0:
256,192,35159,1,0,0:0:0:0:
256,192,35483,1,4,0:0:0:0:
256,192,35808,1,8,0:0:0:0:
256,192,36294,5,0,0:0:0:0:
256,192,36456,1,8,0:0:0:0:
256,192,36618,1,0,0:0:0:0:
256,192,36781,1,8,0:0:0:0:
256,192,36862,1,8,0:0:0:0:
256,192,36943,1,8,0:0:0:0:
256,192,37105,1,8,0:0:0:0:
256,192,37429,1,8,0:0:0:0:
256,192,37591,1,0,0:0:0:0:
256,192,37754,1,8,0:0:0:0:
256,192,37916,1,0,0:0:0:0:
256,192,38078,1,0,0:0:0:0:
256,192,38402,1,8,0:0:0:0:
256,192,38889,5,0,0:0:0:0:
256,192,39051,1,8,0:0:0:0:
256,192,39213,1,8,0:0:0:0:
256,192,39375,1,0,0:0:0:0:
256,192,39456,1,0,0:0:0:0:
256,192,39537,1,0,0:0:0:0:
256,192,39699,1,8,0:0:0:0:
64,64,40024,1,0,0:0:0:0:
256,192,40186,1,8,0:0:0:0:
256,192,40348,1,8,0:0:0:0:
256,192,40510,1,0,0:0:0:0:
256,192,40672,1,0,0:0:0:0:
256,192,40997,1,8,0:0:0:0:
256,192,41483,5,0,0:0:0:0:
256,192,41645,1,8,0:0:0:0:
256,192,41808,1,0,0:0:0:0:
256,192,41970,1,8,0:0:0:0:
256,192,42051,1,8,0:0:0:0:
256,192,42132,1,8,0:0:0:0:
256,192,42294,1,8,0:0:0:0:
256,192,42618,1,8,0:0:0:0:
256,192,42780,1,0,0:0:0:0:
256,192,42943,1,8,0:0:0:0:
256,192,43105,1,8,0:0:0:0:
256,192,43267,1,0,0:0:0:0:
256,192,43591,1,8,0:0:0:0:
256,192,44078,5,0,0:0:0:0:
256,192,44240,1,8,0:0:0:0:
256,192,44402,1,0,0:0:0:0:
256,192,44564,1,0,0:0:0:0:
256,192,44645,1,0,0:0:0:0:
256,192,44726,1,0,0:0:0:0:
256,192,44888,1,8,0:0:0:0:
256,192,45051,1,0,0:0:0:0:
256,192,45213,1,8,0:0:0:0:
256,192,45375,1,0,0:0:0:0:
256,192,45537,1,8,0:0:0:0:
256,192,45699,1,0,0:0:0:0:
256,192,45781,1,0,0:0:0:0:
256,192,50889,5,0,0:0:0:0:
256,192,50970,1,0,0:0:0:0:
256,192,51051,1,0,0:0:0:0:
256,192,51213,1,0,0:0:0:0:
256,192,51375,1,8,0:0:0:0:
256,192,51537,1,0,0:0:0:0:
256,192,51699,1,8,0:0:0:0:
256,192,51862,1,8,0:0:0:0:
256,192,52186,1,8,0:0:0:0:
256,192,52267,1,8,0:0:0:0:
256,192,52348,1,8,0:0:0:0:
256,192,52510,1,0,0:0:0:0:
256,192,52672,1,0,0:0:0:0:
256,192,52835,1,8,0:0:0:0:
256,192,52997,1,0,0:0:0:0:
256,192,53159,1,0,0:0:0:0:
256,192,53483,5,0,0:0:0:0:
256,192,53564,1,0,0:0:0:0:
256,192,53645,1,0,0:0:0:0:
256,192,53807,1,0,0:0:0:0:
256,192,53969,1,8,0:0:0:0:
256,192,54131,1,0,0:0:0:0:
256,192,54293,1,0,0:0:0:0:
256,192,54456,1,8,0:0:0:0:
256,192,54780,1,8,0:0:0:0:
256,192,54861,1,8,0:0:0:0:
256,192,54943,1,8,0:0:0:0:
64,64,55266,1,0,0:0:0:0:
256,192,55591,1,12,0:0:0:0:
256,192,55916,1,0,0:0:0:0:
256,192,56240,5,0,0:0:0:0:
256,192,56402,1,0,0:0:0:0:
256,192,56483,1,0,0:0:0:0:
256,192,56564,1,0,0:0:0:0:
256,192,56726,1,0,0:0:0:0:
256,192,56889,1,8,0:0:0:0:
256,192,57051,1,0,0:0:0:0:
256,192,57375,1,8,0:0:0:0:
256,192,57456,1,8,0:0:0:0:
256,192,57537,1,8,0:0:0:0:
256,192,57699,1,0,0:0:0:0:
256,192,57781,1,0,0:0:0:0:
256,192,57862,1,0,0:0:0:0:
256,192,58024,1,8,0:0:0:0:
256,192,58186,1,8,0:0:0:0:
256,192,58348,1,0,0:0:0:0:
256,192,58672,1,0,0:0:0:0:
256,192,58754,1,0,0:0:0:0:
256,192,58835,1,0,0:0:0:0:
256,192,58997,1,8,0:0:0:0:
256,192,59078,1,8,0:0:0:0:
256,192,59159,1,8,0:0:0:0:
256,192,59321,1,0,0:0:0:0:
256,192,59484,1,8,0:0:0:0:
256,192,59646,1,0,0:0:0:0:
256,192,59970,1,8,0:0:0:0:
256,192,60051,1,8,0:0:0:0:
256,192,60132,1,8,0:0:0:0:
256,192,60294,1,0,0:0:0:0:
256,192,60457,1,8,0:0:0:0:
256,192,60619,1,0,0:0:0:0:
256,192,60700,1,0,0:0:0:0:
256,192,60781,1,0,0:0:0:0:
256,192,61105,1,12,0:0:0:0:
256,192,61429,5,0,0:0:0:0:
256,192,61591,1,0,0:0:0:0:
256,192,61672,1,0,0:0:0:0:
256,192,61753,1,0,0:0:0:0:
256,192,61915,1,0,0:0:0:0:
256,192,62078,1,8,0:0:0:0:
256,192,62240,1,0,0:0:0:0:
256,192,62564,1,8,0:0:0:0:
256,192,62645,1,8,0:0:0:0:
256,192,62726,1,8,0:0:0:0:
256,192,62888,1,0,0:0:0:0:
256,192,62970,1,0,0:0:0:0:
256,192,63051,1,0,0:0:0:0:
256,192,63213,1,8,0:0:0:0:
256,192,63375,1,8,0:0:0:0:
256,192,63537,1,0,0:0:0:0:
256,192,63861,1,0,0:0:0:0:
256,192,63943,1,0,0:0:0:0:
256,192,64024,1,0,0:0:0:0:
256,192,64186,1,8,0:0:0:0:
256,192,64267,1,8,0:0:0:0:
256,192,64348,1,8,0:0:0:0:
256,192,64510,1,0,0:0:0:0:
256,192,64673,1,8,0:0:0:0:
256,192,64835,1,0,0:0:0:0:
256,192,65159,1,8,0:0:0:0:
256,192,65240,1,8,0:0:0:0:
256,192,65321,1,8,0:0:0:0:
256,192,65483,1,0,0:0:0:0:
256,192,65646,1,8,0:0:0:0:
256,192,65808,1,0,0:0:0:0:
256,192,65889,1,0,0:0:0:0:
256,192,65970,1,0,0:0:0:0:
448,64,66294,1,8,0:0:0:0:
256,192,66618,1,4,0:0:0:0:
256,192,67105,5,8,0:0:0:0:
256,192,67267,1,0,0:0:0:0:
256,192,67429,1,0,0:0:0:0:
256,192,67591,1,8,0:0:0:0:
256,192,67916,1,0,0:0:0:0:
256,192,68078,1,8,0:0:0:0:
256,192,68240,1,8,0:0:0:0:
256,192,68402,1,0,0:0:0:0:
256,192,68889,5,0,0:0:0:0:
256,192,69051,1,0,0:0:0:0:
256,192,69213,1,8,0:0:0:0:
256,192,69375,1,0,0:0:0:0:
256,192,69537,1,8,0:0:0:0:
256,192,69862,1,8,0:0:0:0:
256,192,70024,1,8,0:0:0:0:
256,192,70186,1,0,0:0:0:0:
256,192,70510,1,8,0:0:0:0:
448,64,70672,1,8,0:0:0:0:
64,64,70835,1,0,0:0:0:0:
448,64,70997,1,8,0:0:0:0:
64,64,71159,1,0,0:0:0:0:
256,192,71483,1,0,0:0:0:0:
256,192,71564,1,0,0:0:0:0:
256,192,71645,1,0,0:0:0:0:
256,192,71808,1,8,0:0:0:0:
256,192,72294,5,0,0:0:0:0:
256,192,72456,1,8,0:0:0:0:
256,192,72618,1,8,0:0:0:0:
256,192,72781,1,8,0:0:0:0:
256,192,73105,1,0,0:0:0:0:
256,192,73267,1,8,0:0:0:0:
256,192,73429,1,0,0:0:0:0:
256,192,73591,1,8,0:0:0:0:
256,192,74078,5,0,0:0:0:0:
256,192,74240,1,0,0:0:0:0:
256,192,74402,1,8,0:0:0:0:
256,192,74564,1,8,0:0:0:0:
256,192,74726,1,8,0:0:0:0:
256,192,75051,1,8,0:0:0:0:
256,192,75213,1,0,0:0:0:0:
256,192,75375,1,0,0:0:0:0:
256,192,75699,1,8,0:0:0:0:
256,192,75862,1,0,0:0:0:0:
256,192,76024,1,8,0:0:0:0:
256,192,76186,1,8,0:0:0:0:
256,192,76348,1,0,0:0:0:0:
256,192,76672,1,8,0:0:0:0:
256,192,76754,1,8,0:0:0:0:
256,192,76835,1,8,0:0:0:0:
256,192,76997,1,4,0:0:0:0:
256,192,77484,1,8,0:0:0:0:
256,192,77645,1,0,0:0:0:0:
256,192,77808,1,0,0:0:0:0:
256,192,77970,1,8,0:0:0:0:
256,192,78294,1,8,0:0:0:0:
256,192,78375,1,8,0:0:0:0:
256,192,78457,1,8,0:0:0:0:
256,192,78619,1,8,0:0:0:0:
256,192,78781,1,0,0:0:0:0:
256,192,78943,1,8,0:0:0:0:
256,192,79105,1,8,0:0:0:0:
256,192,79267,1,0,0:0:0:0:
256,192,79348,1,0,0:0:0:0:
256,192,79430,1,0,0:0:0:0:
256,192,79592,1,8,0:0:0:0:
256,192,79916,1,8,0:0:0:0:
256,192,80241,1,0,0:0:0:0:
256,192,80565,1,0,0:0:0:0:
256,192,80645,1,0,0:0:0:0:
256,192,80726,1,0,0:0:0:0:
256,192,80889,1,8,0:0:0:0:
256,192,81051,1,0,0:0:0:0:
256,192,81214,1,8,0:0:0:0:
256,192,81376,1,0,0:0:0:0:
256,192,81538,1,8,0:0:0:0:
256,192,81862,1,0,0:0:0:0:
256,192,81943,1,0,0:0:0:0:
256,192,82024,1,0,0:0:0:0:
64,320,82187,1,4,0:0:0:0:
256,192,82672,5,0,0:0:0:0:
256,192,82835,1,8,0:0:0:0:
256,192,82997,1,0,0:0:0:0:
256,192,83160,1,8,0:0:0:0:
256,192,83484,1,0,0:0:0:0:
256,192,83564,1,0,0:0:0:0:
256,192,83645,1,0,0:0:0:0:
256,192,83808,1,0,0:0:0:0:
256,192,83970,1,8,0:0:0:0:
256,192,84294,1,8,0:0:0:0:
256,192,84456,1,8,0:0:0:0:
256,192,84619,1,0,0:0:0:0:
256,192,84781,1,8,0:0:0:0:
256,192,85105,1,8,0:0:0:0:
256,192,85430,1,8,0:0:0:0:
256,192,85754,1,0,0:0:0:0:
256,192,86078,5,8,0:0:0:0:
256,192,86159,1,8,0:0:0:0:
256,192,86240,1,8,0:0:0:0:
256,192,86403,1,8,0:0:0:0:
256,192,86565,1,8,0:0:0:0:
256,192,86727,1,0,0:0:0:0:
256,192,87051,1,0,0:0:0:0:
256,192,87375,5,0,0:0:0:0:
256,192,87537,1,8,0:0:0:0:
256,192,87861,1,0,0:0:0:0:
256,192,88023,1,0,0:0:0:0:
256,192,88185,1,8,0:0:0:0:
256,192,88510,1,8,0:0:0:0:
256,192,88591,1,8,0:0:0:0:
256,192,88672,1,8,0:0:0:0:
256,192,88834,1,0,0:0:0:0:
256,192,88996,1,8,0:0:0:0:
256,192,89158,1,8,0:0:0:0:
256,192,89320,1,0,0:0:0:0:
256,192,89483,1,8,0:0:0:0:
256,192,89807,1,0,0:0:0:0:
256,192,89888,1,0,0:0:0:0:
256,192,89969,1,0,0:0:0:0:
256,192,90131,1,8,0:0:0:0:
256,192,90456,1,0,0:0:0:0:
256,192,90618,1,0,0:0:0:0:
256,192,90780,1,8,0:0:0:0:
256,192,91104,1,8,0:0:0:0:
256,192,91185,1,8,0:0:0:0:
256,192,91266,1,8,0:0:0:0:
256,192,91429,1,0,0:0:0:0:
256,192,91591,1,8,0:0:0:0:
256,192,91753,1,8,0:0:0:0:
256,192,91915,1,0,0:0:0:0:
256,192,92077,1,8,0:0:0:0:
256,192,92564,5,0,0:0:0:0:
256,192,92726,1,8,0:0:0:0:
256,192,93050,1,0,0:0:0:0:
256,192,93212,1,0,0:0:0:0:
256,192,93374,1,8,0:0:0:0:
256,192,93699,1,0,0:0:0:0:
256,192,93780,1,0,0:0:0:0:
256,192,93861,1,0,0:0:0:0:
256,192,94023,1,0,0:0:0:0:
256,192,94185,1,8,0:0:0:0:
256,192,94347,1,0,0:0:0:0:
256,192,94510,1,8,0:0:0:0:
256,192,94672,1,0,0:0:0:0:
256,192,95158,5,0,0:0:0:0:
256,192,95320,1,8,0:0:0:0:
256,192,95645,1,8,0:0:0:0:
256,192,95807,1,0,0:0:0:0:
256,192,95969,1,8,0:0:0:0:
256,192,96293,1,8,0:0:0:0:
256,192,96374,1,8,0:0:0:0:
256,192,96456,1,8,0:0:0:0:
256,192,96618,1,0,0:0:0:0:
256,192,96780,1,8,0:0:0:0:
256,192,96942,1,8,0:0:0:0:
256,192,97104,1,8,0:0:0:0:
256,192,97429,1,8,0:0:0:0:
64,320,97754,1,4,0:0:0:0:
256,192,98078,1,8,0:0:0:0:
256,192,98240,1,0,0:0:0:0:
256,192,98402,1,0,0:0:0:0:
256,192,98564,1,8,0:0:0:0:
256,192,98645,1,8,0:0:0:0:
256,192,98726,1,8,0:0:0:0:
256,192,99051,1,8,0:0:0:0:
256,192,99213,1,8,0:0:0:0:
256,192,99375,1,0,0:0:0:0:
256,192,99537,1,8,0:0:0:0:
256,192,99699,1,0,0:0:0:0:
256,192,99862,1,8,0:0:0:0:
256,192,99943,1,8,0:0:0:0:
256,192,100024,1,8,0:0:0:0:
256,192,100186,1,8,0:0:0:0:
256,192,100348,1,0,0:0:0:0:
256,192,100835,5,0,0:0:0:0:
256,192,100997,1,8,0:0:0:0:
256,192,101159,1,0,0:0:0:0:
256,192,101240,1,0,0:0:0:0:
256,192,101321,1,0,0:0:0:0:
256,192,101483,1,0,0:0:0:0:
256,192,101645,1,8,0:0:0:0:
256,192,101970,1,8,0:0:0:0:
256,192,102132,1,0,0:0:0:0:
256,192,102294,1,0,0:0:0:0:
256,192,102375,1,0,0:0:0:0:
256,192,102456,1,0,0:0:0:0:
256,192,102618,1,8,0:0:0:0:
256,192,102781,1,0,0:0:0:0:
256,192,102943,1,8,0:0:0:0:
256,192,103105,1,0,0:0:0:0:
256,192,103267,1,8,0:0:0:0:
256,192,103429,1,0,0:0:0:0:
256,192,103591,1,0,0:0:0:0:
256,192,103754,1,8,0:0:0:0:
256,192,103835,1,8,0:0:0:0:
256,192,103916,1,8,0:0:0:0:
256,192,104078,1,8,0:0:0:0:
256,192,104240,1,0,0:0:0:0:
256,192,104726,5,8,0:0:0:0:
256,192,104889,1,8,0:0:0:0:
256,192,105051,1,0,0:0:0:0:
256,192,105132,1,0,0:0:0:0:
256,192,105213,1,0,0:0:0:0:
256,192,105375,1,0,0:0:0:0:
256,192,105537,1,8,0:0:0:0:
256,192,105862,1,8,0:0:0:0:
256,192,106024,1,0,0:0:0:0:
256,192,106186,1,0,0:0:0:0:
256,192,106348,1,8,0:0:0:0:
256,192,106429,1,8,0:0:0:0:
256,192,106510,1,8,0:0:0:0:
256,192,106672,1,8,0:0:0:0:
256,192,106835,1,0,0:0:0:0:
256,192,107321,5,8,0:0:0:0:
256,192,107483,1,8,0:0:0:0:
256,192,107564,1,8,0:0:0:0:
256,192,107645,1,8,0:0:0:0:
256,192,107808,1,0,0:0:0:0:
256,192,107970,1,0,0:0:0:0:
256,192,108051,1,0,0:0:0:0:
256,192,108132,1,0,0:0:0:0:
256,192,108457,1,8,0:0:0:0:
256,192,108619,1,0,0:0:0:0:
256,192,108781,1,0,0:0:0:0:
256,192,108943,1,8,0:0:0:0:
256,192,109024,1,8,0:0:0:0:
256,192,109105,1,8,0:0:0:0:
256,192,109268,1,0,0:0:0:0:
256,192,109430,1,8,0:0:0:0:
256,192,109916,1,8,0:0:0:0:
256,192,110078,1,0,0:0:0:0:
256,192,110241,1,8,0:0:0:0:
256,192,110322,1,8,0:0:0:0:
256,192,110403,1,8,0:0:0:0:
256,192,110565,1,8,0:0:0:0:
256,192,110727,1,0,0:0:0:0:
256,192,111051,1,8,0:0:0:0:
256,192,111132,1,8,0:0:0:0:
256,192,111214,1,8,0:0:0:0:
256,192,111376,1,8,0:0:0:0:
256,192,111699,1,0,0:0:0:0:
256,192,112024,1,8,0:0:0:0:
256,192,112267,1,8,0:0:0:0:
256,192,112511,1,0,0:0:0:0:
256,192,112673,1,0,0:0:0:0:
256,192,112754,1,0,0:0:0:0:
256,192,112835,1,0,0:0:0:0:
256,192,112997,1,8,0:0:0:0:
256,192,113322,1,8,0:0:0:0:
256,192,113645,1,0,0:0:0:0:
256,192,113808,1,8,0:0:0:0:
256,192,113970,1,0,0:0:0:0:
256,192,114133,1,8,0:0:0:0:
256,192,114214,1,8,0:0:0:0:
256,192,114295,1,8,0:0:0:0:
256,192,114457,1,8,0:0:0:0:
256,192,114619,1,0,0:0:0:0:
256,192,115105,5,8,0:0:0:0:
256,192,115268,1,8,0:0:0:0:
256,192,115430,1,0,0:0:0:0:
256,192,115511,1,0,0:0:0:0:
256,192,115592,1,0,0:0:0:0:
256,192,115754,1,0,0:0:0:0:
256,192,115916,1,8,0:0:0:0:
256,192,116240,1,8,0:0:0:0:
256,192,116403,1,0,0:0:0:0:
256,192,116565,1,0,0:0:0:0:
256,192,116727,1,8,0:0:0:0:
256,192,116808,1,8,0:0:0:0:
256,192,116889,1,8,0:0:0:0:
256,192,117214,1,0,0:0:0:0:
256,192,117375,1,8,0:0:0:0:
256,192,117537,1,0,0:0:0:0:
256,192,117700,1,8,0:0:0:0:
256,192,117781,1,8,0:0:0:0:
256,192,117862,1,8,0:0:0:0:
256,192,118024,1,0,0:0:0:0:
448,320,118187,1,12,0:0:0:0:
256,192,118349,1,0,0:0:0:0:
256,192,118430,1,0,0:0:0:0:
256,192,118511,1,0,0:0:0:0:
256,192,119808,5,4,0:0:0:0:
64,64,120132,1,8,0:0:0:0:
256,192,120619,1,8,0:0:0:0:
256,192,120781,1,0,0:0:0:0:
256,192,120943,1,0,0:0:0:0:
256,192,121105,1,8,0:0:0:0:
256,192,121430,1,0,0:0:0:0:
256,192,121592,1,8,0:0:0:0:
256,192,121754,1,8,0:0:0:0:
256,192,121835,1,8,0:0:0:0:
256,192,121916,1,8,0:0:0:0:
256,192,122078,1,0,0:0:0:0:
256,192,122403,1,0,0:0:0:0:
256,192,122565,1,0,0:0:0:0:
256,192,122727,1,8,0:0:0:0:
448,64,122889,1,8,0:0:0:0:
64,64,123051,1,0,0:0:0:0:
256,192,123375,1,8,0:0:0:0:
256,192,123537,1,8,0:0:0:0:
256,192,123700,1,0,0:0:0:0:
256,192,124024,1,8,0:0:0:0:
256,192,124186,1,0,0:0:0:0:
256,192,124349,1,8,0:0:0:0:
256,192,124511,1,0,0:0:0:0:
256,192,124591,1,0,0:0:0:0:
256,192,124672,1,0,0:0:0:0:
256,192,124997,1,0,0:0:0:0:
256,192,125159,1,0,0:0:0:0:
256,192,125322,1,8,0:0:0:0:
256,192,125808,5,8,0:0:0:0:
256,192,125970,1,0,0:0:0:0:
256,192,126132,1,0,0:0:0:0:
256,192,126295,1,8,0:0:0:0:
256,192,126456,1,8,0:0:0:0:
256,192,126619,1,0,0:0:0:0:
256,192,126781,1,8,0:0:0:0:
256,192,126943,1,8,0:0:0:0:
256,192,127024,1,8,0:0:0:0:
256,192,127105,1,8,0:0:0:0:
256,192,127592,5,0,0:0:0:0:
256,192,127754,1,0,0:0:0:0:
256,192,127916,1,8,0:0:0:0:
256,192,128240,1,8,0:0:0:0:
256,192,128565,1,8,0:0:0:0:
256,192,128726,1,0,0:0:0:0:
256,192,128808,1,0,0:0:0:0:
256,192,128889,1,0,0:0:0:0:
256,192,129051,1,0,0:0:0:0:
256,192,129213,1,8,0:0:0:0:
256,192,129375,1,8,0:0:0:0:
256,192,129537,1,0,0:0:0:0:
256,192,129618,1,0,0:0:0:0:
256,192,129699,1,0,0:0:0:0:
256,192,129862,1,0,0:0:0:0:
256,192,130186,1,4,0:0:0:0:
64,64,130511,1,8,0:0:0:0:
256,192,130998,1,8,0:0:0:0:
256,192,131159,1,0,0:0:0:0:
256,192,131484,1,8,0:0:0:0:
256,192,131645,1,0,0:0:0:0:
256,192,131808,1,8,0:0:0:0:
256,192,131889,1,8,0:0:0:0:
256,192,131971,1,8,0:0:0:0:
256,192,132133,1,8,0:0:0:0:
256,192,132295,1,0,0:0:0:0:
448,64,132456,1,8,0:0:0:0:
256,192,132782,1,0,0:0:0:0:
256,192,132862,1,0,0:0:0:0:
256,192,132944,1,0,0:0:0:0:
256,192,133106,1,8,0:0:0:0:
256,192,133267,1,0,0:0:0:0:
256,192,133430,1,8,0:0:0:0:
256,192,133510,1,8,0:0:0:0:
256,192,133591,1,8,0:0:0:0:
256,192,133755,1,0,0:0:0:0:
256,192,134079,1,0,0:0:0:0:
256,192,134403,1,8,0:0:0:0:
256,192,134565,1,0,0:0:0:0:
256,192,134726,1,8,0:0:0:0:
256,192,134890,1,0,0:0:0:0:
256,192,135052,1,8,0:0:0:0:
448,320,135375,1,4,0:0:0:0:
256,192,135537,1,0,0:0:0:0:
256,192,135699,1,8,0:0:0:0:
256,192,136186,5,0,0:0:0:0:
256,192,136348,1,8,0:0:0:0:
256,192,136672,1,8,0:0:0:0:
256,192,136835,1,8,0:0:0:0:
256,192,136998,1,0,0:0:0:0:
256,192,137078,1,0,0:0:0:0:
256,192,137159,1,0,0:0:0:0:
256,192,137322,1,0,0:0:0:0:
256,192,137484,1,8,0:0:0:0:
256,192,137645,1,0,0:0:0:0:
256,192,137808,1,8,0:0:0:0:
256,192,137971,1,0,0:0:0:0:
256,192,138051,1,0,0:0:0:0:
256,192,138133,1,0,0:0:0:0:
256,192,138295,1,8,0:0:0:0:
256,192,138619,1,8,0:0:0:0:
256,192,138781,1,0,0:0:0:0:
256,192,139268,1,0,0:0:0:0:
256,192,139592,5,8,0:0:0:0:
256,192,139673,1,8,0:0:0:0:
256,192,139754,1,8,0:0:0:0:
256,192,139917,1,8,0:0:0:0:
256,192,140079,1,8,0:0:0:0:
256,192,140241,1,0,0:0:0:0:
256,192,140321,1,0,0:0:0:0:
256,192,140402,1,0,0:0:0:0:
256,192,140564,1,0,0:0:0:0:
256,192,140726,1,8,0:0:0:0:
256,192,141050,1,0,0:0:0:0:
256,192,141212,1,0,0:0:0:0:
256,192,141374,1,8,0:0:0:0:
256,192,141699,1,8,0:0:0:0:
256,192,141780,1,8,0:0:0:0:
256,192,141861,1,8,0:0:0:0:
256,192,142023,1,0,0:0:0:0:
256,192,142185,1,8,0:0:0:0:
256,192,142347,1,8,0:0:0:0:
256,192,142509,1,0,0:0:0:0:
256,192,142672,1,8,0:0:0:0:
256,192,142996,1,0,0:0:0:0:
256,192,143077,1,0,0:0:0:0:
256,192,143158,1,0,0:0:0:0:
256,192,143320,1,8,0:0:0:0:
256,192,143645,1,0,0:0:0:0:
256,192,143807,1,0,0:0:0:0:
256,192,143969,1,8,0:0:0:0:
256,192,144293,1,8,0:0:0:0:
256,192,144374,1,8,0:0:0:0:
256,192,144455,1,8,0:0:0:0:
256,192,144618,1,0,0:0:0:0:
256,192,144780,1,8,0:0:0:0:
256,192,144942,1,8,0:0:0:0:
256,192,145104,1,0,0:0:0:0:
256,192,145266,1,8,0:0:0:0:
256,192,145753,5,0,0:0:0:0:
256,192,145915,1,8,0:0:0:0:
256,192,146239,1,0,0:0:0:0:
256,192,146401,1,0,0:0:0:0:
256,192,146563,1,8,0:0:0:0:
256,192,146888,1,0,0:0:0:0:
256,192,146969,1,0,0:0:0:0:
256,192,147050,1,0,0:0:0:0:
256,192,147212,1,0,0:0:0:0:
256,192,147374,1,8,0:0:0:0:
256,192,147536,1,0,0:0:0:0:
256,192,147699,1,8,0:0:0:0:
256,192,147861,1,0,0:0:0:0:
256,192,148347,5,0,0:0:0:0:
256,192,148509,1,8,0:0:0:0:
256,192,148834,1,8,0:0:0:0:
256,192,148996,1,0,0:0:0:0:
256,192,149158,1,8,0:0:0:0:
256,192,149482,1,8,0:0:0:0:
256,192,149563,1,8,0:0:0:0:
256,192,149645,1,8,0:0:0:0:
256,192,149807,1,0,0:0:0:0:
256,192,149969,1,8,0:0:0:0:
64,64,150131,1,0,0:0:0:0:
256,192,150293,1,8,0:0:0:0:
448,320,150618,1,12,0:0:0:0:
