osu file format v14

[General]
AudioFilename: audio.mp3
AudioLeadIn: 0
PreviewTime: 56233
Countdown: 0
SampleSet: Normal
StackLeniency: 0.7
Mode: 1
LetterboxInBreaks: 0
WidescreenStoryboard: 1

[Editor]
Bookmarks: 14720,25098,35476,45855,56233,66611,76990,87368,92557,97747,108125,118503,119801,130179,140557,150611
DistanceSpacing: 1.3
BeatDivisor: 1
GridSize: 32
TimelineZoom: 0.9999999

[Metadata]
Title:Halloween Candystore
TitleUnicode:Halloween Candystore
Artist:Plum
ArtistUnicode:Plum
Creator:Eloxrad
Version:Kantan
Source:
Tags:Electronic Instrumental [r] ron artcore holiday 할로윈의 사탕가게 plumwriter double single melodic fa featured artist piano
BeatmapID:3597120
BeatmapSetID:1749963

[Difficulty]
HPDrainRate:8
CircleSize:5
OverallDifficulty:2
ApproachRate:5
SliderMultiplier:1.4
SliderTickRate:1

[Events]
//Background and Video events
0,0,"alchemy-stars-mobile-anime-games-moon-twintails-halloween-2021-anime.jpeg",0,100
//Break Periods
2,45737,49851
//Storyboard Layer 0 (Background)
//Storyboard Layer 1 (Fail)
//Storyboard Layer 2 (Pass)
//Storyboard Layer 3 (Foreground)
//Storyboard Layer 4 (Overlay)
//Storyboard Sound Samples

[TimingPoints]
14727,324.324324324324,4,1,0,70,1,0
14727,-100,4,1,0,70,0,0
19916,-100,4,1,0,80,0,0
25105,-100,4,1,0,100,0,0
50887,-100,4,1,0,80,0,0
56240,-100,4,1,0,100,0,1
66618,-100,4,1,0,100,0,0
87372,-100,4,1,0,70,0,0
92562,-100,4,1,0,80,0,0
97754,-100,4,1,0,100,0,1
118510,-100,4,1,0,100,0,0
140561,-100,4,1,0,70,0,0
145754,-100,4,1,0,80,0,0
148348,-100,4,1,0,90,0,0
150618,-100,4,1,0,100,0,0

[HitObjects]
256,192,14727,5,0,0:0:0:0:
256,192,15375,1,8,0:0:0:0:
256,192,16024,1,8,0:0:0:0:
256,192,16348,1,8,0:0:0:0:
256,192,16672,1,0,0:0:0:0:
256,192,17321,1,0,0:0:0:0:
256,192,17970,1,8,0:0:0:0:
256,192,18618,1,8,0:0:0:0:
64,320,19916,5,4,0:0:0:0:
256,192,20564,1,0,0:0:0:0:
256,192,21213,1,8,0:0:0:0:
256,192,21537,1,8,0:0:0:0:
256,192,21861,1,0,0:0:0:0:
448,320,22510,1,12,0:0:0:0:
256,192,23159,1,0,0:0:0:0:
256,192,23807,1,8,0:0:0:0:
256,192,24781,5,8,0:0:0:0:
256,192,25105,1,4,0:0:0:0:
256,192,25429,1,8,0:0:0:0:
256,192,26078,1,8,0:0:0:0:
256,192,26402,1,8,0:0:0:0:
256,192,26727,1,0,0:0:0:0:
256,192,27375,1,0,0:0:0:0:
256,192,27699,1,0,0:0:0:0:
256,192,28024,1,8,0:0:0:0:
256,192,28672,1,8,0:0:0:0:
256,192,28997,1,0,0:0:0:0:
256,192,29321,1,8,0:0:0:0:
256,192,29970,1,8,0:0:0:0:
256,192,30294,1,4,0:0:0:0:
256,192,31267,5,8,0:0:0:0:
256,192,31591,1,8,0:0:0:0:
256,192,31916,1,0,0:0:0:0:
256,192,32564,1,0,0:0:0:0:
256,192,32888,1,0,0:0:0:0:
256,192,33213,1,8,0:0:0:0:
256,192,33861,1,8,0:0:0:0:
256,192,34186,1,0,0:0:0:0:
256,192,34510,1,8,0:0:0:0:
256,192,35159,1,8,0:0:0:0:
64,320,35483,5,4,0:0:0:0:
256,192,36456,1,8,0:0:0:0:
256,192,36781,1,8,0:0:0:0:
256,192,37105,1,0,0:0:0:0:
256,192,37754,1,0,0:0:0:0:
256,192,38078,1,8,0:0:0:0:
256,192,39051,1,8,0:0:0:0:
256,192,39375,1,0,0:0:0:0:
256,192,40024,1,0,0:0:0:0:
256,192,40348,1,0,0:0:0:0:
256,192,40672,1,8,0:0:0:0:
256,192,41645,1,0,0:0:0:0:
256,192,41970,1,8,0:0:0:0:
256,192,42943,1,8,0:0:0:0:
256,192,43267,1,0,0:0:0:0:
256,192,44240,1,8,0:0:0:0:
256,192,44564,5,0,0:0:0:0:
256,192,44889,1,0,0:0:0:0:
256,192,45213,1,8,0:0:0:0:
256,192,45537,1,8,0:0:0:0:
256,192,51051,5,0,0:0:0:0:
256,192,51375,1,0,0:0:0:0:
256,192,51699,1,8,0:0:0:0:
256,192,52348,1,8,0:0:0:0:
256,192,52672,1,8,0:0:0:0:
256,192,52997,1,0,0:0:0:0:
256,192,53645,1,0,0:0:0:0:
256,192,54294,1,8,0:0:0:0:
256,192,54943,5,0,0:0:0:0:
256,192,55267,1,0,0:0:0:0:
256,192,55591,1,8,0:0:0:0:
256,192,56240,1,12,0:0:0:0:
256,192,56889,1,0,0:0:0:0:
256,192,57213,1,0,0:0:0:0:
448,64,57537,1,8,0:0:0:0:
256,192,58186,1,0,0:0:0:0:
256,192,58835,1,0,0:0:0:0:
256,192,59159,1,8,0:0:0:0:
256,192,59483,1,0,0:0:0:0:
256,192,60132,1,8,0:0:0:0:
256,192,60456,1,0,0:0:0:0:
256,192,60781,1,8,0:0:0:0:
256,192,61429,5,0,0:0:0:0:
256,192,61753,1,8,0:0:0:0:
256,192,62078,1,0,0:0:0:0:
256,192,62726,1,8,0:0:0:0:
256,192,63375,1,0,0:0:0:0:
256,192,64024,1,0,0:0:0:0:
256,192,64348,1,8,0:0:0:0:
256,192,64672,1,0,0:0:0:0:
256,192,65321,1,8,0:0:0:0:
256,192,65645,1,0,0:0:0:0:
256,192,65970,1,8,0:0:0:0:
256,192,66618,1,4,0:0:0:0:
256,192,67591,1,8,0:0:0:0:
256,192,67916,1,0,0:0:0:0:
256,192,68889,1,0,0:0:0:0:
256,192,69213,1,8,0:0:0:0:
256,192,69862,1,8,0:0:0:0:
256,192,70510,1,8,0:0:0:0:
256,192,70835,1,8,0:0:0:0:
256,192,71159,1,0,0:0:0:0:
256,192,71808,1,4,0:0:0:0:
256,192,72780,1,8,0:0:0:0:
256,192,73105,1,0,0:0:0:0:
256,192,74078,1,0,0:0:0:0:
256,192,74402,1,8,0:0:0:0:
256,192,75051,1,8,0:0:0:0:
256,192,75699,1,8,0:0:0:0:
256,192,76024,1,0,0:0:0:0:
256,192,76348,1,8,0:0:0:0:
64,320,76997,5,4,0:0:0:0:
256,192,77646,1,8,0:0:0:0:
256,192,78295,1,8,0:0:0:0:
256,192,78619,1,0,0:0:0:0:
256,192,78943,1,8,0:0:0:0:
256,192,79592,1,8,0:0:0:0:
256,192,80240,1,0,0:0:0:0:
256,192,80889,1,8,0:0:0:0:
256,192,81538,1,0,0:0:0:0:
256,192,81862,1,0,0:0:0:0:
64,320,82186,1,4,0:0:0:0:
256,192,83159,5,0,0:0:0:0:
256,192,83484,1,8,0:0:0:0:
256,192,83808,1,8,0:0:0:0:
256,192,84457,1,0,0:0:0:0:
256,192,84781,1,8,0:0:0:0:
256,192,85754,5,8,0:0:0:0:
256,192,86078,1,8,0:0:0:0:
256,192,86402,1,0,0:0:0:0:
64,320,86727,1,4,0:0:0:0:
256,192,87375,5,0,0:0:0:0:
256,192,88023,1,8,0:0:0:0:
256,192,88672,1,8,0:0:0:0:
256,192,88996,1,8,0:0:0:0:
256,192,89320,1,0,0:0:0:0:
256,192,89969,1,0,0:0:0:0:
256,192,90618,1,8,0:0:0:0:
256,192,91266,1,8,0:0:0:0:
256,192,92564,5,0,0:0:0:0:
256,192,93213,1,0,0:0:0:0:
256,192,93861,1,8,0:0:0:0:
256,192,94185,1,8,0:0:0:0:
256,192,94509,1,0,0:0:0:0:
256,192,95158,1,8,0:0:0:0:
256,192,95808,1,8,0:0:0:0:
256,192,96455,1,0,0:0:0:0:
256,192,97429,5,8,0:0:0:0:
256,192,97753,1,4,0:0:0:0:
256,192,98240,1,0,0:0:0:0:
256,192,98726,1,0,0:0:0:0:
256,192,99051,1,8,0:0:0:0:
256,192,99537,1,8,0:0:0:0:
256,192,100024,1,8,0:0:0:0:
256,192,100348,1,0,0:0:0:0:
256,192,100835,1,0,0:0:0:0:
256,192,101321,1,0,0:0:0:0:
256,192,101645,1,8,0:0:0:0:
256,192,102132,1,0,0:0:0:0:
256,192,102618,1,0,0:0:0:0:
256,192,102943,1,8,0:0:0:0:
256,192,103916,5,8,0:0:0:0:
256,192,104240,1,0,0:0:0:0:
256,192,104726,1,0,0:0:0:0:
256,192,105213,1,0,0:0:0:0:
256,192,105537,1,8,0:0:0:0:
256,192,106024,1,8,0:0:0:0:
256,192,106510,1,0,0:0:0:0:
256,192,106835,1,8,0:0:0:0:
256,192,107808,5,8,0:0:0:0:
256,192,108132,1,4,0:0:0:0:
256,192,108619,1,0,0:0:0:0:
256,192,109105,1,0,0:0:0:0:
256,192,109430,1,8,0:0:0:0:
256,192,109916,1,8,0:0:0:0:
256,192,110403,1,8,0:0:0:0:
256,192,110727,1,0,0:0:0:0:
256,192,111051,1,8,0:0:0:0:
256,192,111375,1,8,0:0:0:0:
256,192,111700,1,0,0:0:0:0:
256,192,112024,1,8,0:0:0:0:
256,192,112997,5,0,0:0:0:0:
256,192,113322,1,8,0:0:0:0:
256,192,113808,1,8,0:0:0:0:
256,192,114295,1,8,0:0:0:0:
256,192,114619,1,0,0:0:0:0:
256,192,115105,1,0,0:0:0:0:
256,192,115592,1,0,0:0:0:0:
256,192,115916,1,8,0:0:0:0:
256,192,116403,1,8,0:0:0:0:
256,192,116889,1,0,0:0:0:0:
256,192,117213,1,8,0:0:0:0:
256,192,117537,1,8,0:0:0:0:
256,192,117862,1,0,0:0:0:0:
256,192,118186,1,12,0:0:0:0:
448,320,119808,5,4,0:0:0:0:
256,192,120781,1,8,0:0:0:0:
256,192,121106,1,0,0:0:0:0:
256,192,122079,1,0,0:0:0:0:
256,192,122403,1,8,0:0:0:0:
256,192,123052,1,8,0:0:0:0:
256,192,123700,1,8,0:0:0:0:
256,192,124025,1,8,0:0:0:0:
256,192,124349,1,0,0:0:0:0:
64,64,124998,1,0,0:0:0:0:
256,192,125970,1,8,0:0:0:0:
256,192,126295,1,0,0:0:0:0:
256,192,127268,1,0,0:0:0:0:
256,192,127592,1,8,0:0:0:0:
256,192,128241,1,8,0:0:0:0:
256,192,128889,1,8,0:0:0:0:
256,192,129214,1,0,0:0:0:0:
256,192,129538,1,8,0:0:0:0:
448,320,130187,5,4,0:0:0:0:
64,64,130836,1,0,0:0:0:0:
256,192,131483,1,8,0:0:0:0:
256,192,131809,1,0,0:0:0:0:
256,192,132133,1,8,0:0:0:0:
256,192,132782,1,8,0:0:0:0:
256,192,133430,1,0,0:0:0:0:
256,192,134079,1,8,0:0:0:0:
256,192,134726,1,0,0:0:0:0:
256,192,135052,1,8,0:0:0:0:
448,320,135376,1,4,0:0:0:0:
256,192,136349,5,0,0:0:0:0:
256,192,136672,1,8,0:0:0:0:
256,192,136998,1,8,0:0:0:0:
256,192,137645,1,0,0:0:0:0:
256,192,137971,1,0,0:0:0:0:
256,192,138943,5,8,0:0:0:0:
256,192,139268,1,0,0:0:0:0:
256,192,139917,1,8,0:0:0:0:
256,192,140241,1,8,0:0:0:0:
256,192,140564,5,0,0:0:0:0:
256,192,141212,1,8,0:0:0:0:
256,192,141861,1,8,0:0:0:0:
256,192,142185,1,8,0:0:0:0:
256,192,142509,1,0,0:0:0:0:
256,192,143158,1,0,0:0:0:0:
256,192,143807,1,8,0:0:0:0:
256,192,144455,1,8,0:0:0:0:
256,192,144780,1,0,0:0:0:0:
256,192,145753,5,0,0:0:0:0:
256,192,146402,1,8,0:0:0:0:
256,192,147050,1,8,0:0:0:0:
256,192,147374,1,8,0:0:0:0:
256,192,147698,1,0,0:0:0:0:
256,192,148347,1,8,0:0:0:0:
256,192,148997,1,0,0:0:0:0:
256,192,149644,1,8,0:0:0:0:
256,192,149970,1,0,0:0:0:0:
256,192,150294,1,0,0:0:0:0:
448,320,150618,5,12,0:0:0:0:
