osu file format v14

[General]
AudioFilename: audio.mp3
AudioLeadIn: 0
PreviewTime: 56233
Countdown: 0
SampleSet: Normal
StackLeniency: 0.7
Mode: 1
LetterboxInBreaks: 0
WidescreenStoryboard: 1

[Editor]
Bookmarks: 14720,25098,35476,45855,56233,66611,76990,87368,92557,97747,108125,118503,119801,130179,140557,150611
DistanceSpacing: 1.3
BeatDivisor: 2
GridSize: 32
TimelineZoom: 1.8

[Metadata]
Title:Halloween Candystore
TitleUnicode:Halloween Candystore
Artist:Plum
ArtistUnicode:Plum
Creator:Eloxrad
Version:Futsuu
Source:
Tags:Electronic Instrumental [r] ron artcore holiday 할로윈의 사탕가게 plumwriter double single melodic fa featured artist piano
BeatmapID:3597119
BeatmapSetID:1749963

[Difficulty]
HPDrainRate:7
CircleSize:5
OverallDifficulty:3
ApproachRate:5
SliderMultiplier:1.4
SliderTickRate:1

[Events]
//Background and Video events
0,0,"alchemy-stars-mobile-anime-games-moon-twintails-halloween-2021-anime.jpeg",0,100
//Break Periods
2,45737,49689
//Storyboard Layer 0 (Background)
//Storyboard Layer 1 (Fail)
//Storyboard Layer 2 (Pass)
//Storyboard Layer 3 (Foreground)
//Storyboard Layer 4 (Overlay)
//Storyboard Sound Samples

[TimingPoints]
14727,324.324324324324,4,1,0,70,1,0
14727,-100,4,1,0,70,0,0
19916,-100,4,1,0,80,0,0
25105,-100,4,1,0,100,0,0
50887,-100,4,1,0,80,0,0
56240,-100,4,1,0,100,0,1
66618,-100,4,1,0,100,0,0
87372,-100,4,1,0,70,0,0
92562,-100,4,1,0,80,0,0
97754,-100,4,1,0,100,0,1
118510,-100,4,1,0,100,0,0
140561,-100,4,1,0,70,0,0
145754,-100,4,1,0,80,0,0
148348,-100,4,1,0,90,0,0
150618,-100,4,1,0,100,0,0

[HitObjects]
64,64,14727,5,0,0:0:0:0:
448,64,14889,1,8,0:0:0:0:
256,192,15213,1,0,0:0:0:0:
256,192,15375,1,0,0:0:0:0:
256,192,15537,1,8,0:0:0:0:
256,192,15862,1,8,0:0:0:0:
256,192,16024,1,8,0:0:0:0:
256,192,16186,1,0,0:0:0:0:
256,192,16348,1,8,0:0:0:0:
256,192,16672,1,8,0:0:0:0:
256,192,17321,5,0,0:0:0:0:
256,192,17483,1,8,0:0:0:0:
256,192,17808,1,0,0:0:0:0:
256,192,17970,1,0,0:0:0:0:
256,192,18132,1,8,0:0:0:0:
256,192,18456,1,8,0:0:0:0:
256,192,18618,1,8,0:0:0:0:
256,192,18781,1,0,0:0:0:0:
256,192,18943,1,8,0:0:0:0:
256,192,19267,1,0,0:0:0:0:
64,320,19916,5,4,0:0:0:0:
256,192,20078,1,8,0:0:0:0:
256,192,20402,1,0,0:0:0:0:
256,192,20564,1,0,0:0:0:0:
256,192,20726,1,8,0:0:0:0:
256,192,21051,1,0,0:0:0:0:
256,192,21213,1,0,0:0:0:0:
256,192,21375,1,8,0:0:0:0:
256,192,21537,1,0,0:0:0:0:
256,192,21862,1,8,0:0:0:0:
64,320,22510,5,4,0:0:0:0:
256,192,22672,1,8,0:0:0:0:
256,192,22997,1,8,0:0:0:0:
256,192,23159,1,0,0:0:0:0:
256,192,23321,1,8,0:0:0:0:
256,192,23645,1,8,0:0:0:0:
256,192,23808,1,8,0:0:0:0:
256,192,23970,1,0,0:0:0:0:
256,192,24132,1,8,0:0:0:0:
256,192,24456,1,8,0:0:0:0:
448,64,24781,1,8,0:0:0:0:
64,320,25105,1,4,0:0:0:0:
256,192,25429,5,8,0:0:0:0:
256,192,25754,1,0,0:0:0:0:
256,192,25916,1,0,0:0:0:0:
256,192,26078,1,8,0:0:0:0:
256,192,26402,1,0,0:0:0:0:
64,64,26564,1,0,0:0:0:0:
448,64,26727,1,8,0:0:0:0:
256,192,27051,1,0,0:0:0:0:
256,192,27375,1,8,0:0:0:0:
256,192,27699,1,0,0:0:0:0:
256,192,28348,5,8,0:0:0:0:
256,192,28672,1,8,0:0:0:0:
256,192,28997,1,0,0:0:0:0:
256,192,29159,1,0,0:0:0:0:
256,192,29321,1,8,0:0:0:0:
64,64,29645,1,0,0:0:0:0:
256,192,29808,1,8,0:0:0:0:
256,192,29970,1,0,0:0:0:0:
64,320,30294,1,4,0:0:0:0:
256,192,30618,1,8,0:0:0:0:
256,192,30943,5,0,0:0:0:0:
256,192,31105,1,0,0:0:0:0:
256,192,31267,1,8,0:0:0:0:
448,64,31591,1,8,0:0:0:0:
64,64,31753,1,0,0:0:0:0:
64,64,31916,1,0,0:0:0:0:
256,192,32240,1,0,0:0:0:0:
256,192,32564,1,8,0:0:0:0:
256,192,32726,1,8,0:0:0:0:
256,192,32888,1,0,0:0:0:0:
256,192,33537,5,8,0:0:0:0:
256,192,33861,1,8,0:0:0:0:
256,192,34186,1,0,0:0:0:0:
256,192,34348,1,0,0:0:0:0:
256,192,34510,1,8,0:0:0:0:
256,192,34834,1,8,0:0:0:0:
256,192,34997,1,8,0:0:0:0:
256,192,35159,1,0,0:0:0:0:
64,320,35483,1,4,0:0:0:0:
256,192,35808,1,8,0:0:0:0:
256,192,36456,5,8,0:0:0:0:
256,192,36781,1,8,0:0:0:0:
256,192,36943,1,8,0:0:0:0:
256,192,37105,1,8,0:0:0:0:
256,192,37429,1,8,0:0:0:0:
256,192,37591,1,0,0:0:0:0:
256,192,37754,1,8,0:0:0:0:
256,192,38078,1,0,0:0:0:0:
256,192,38402,1,8,0:0:0:0:
256,192,39051,5,8,0:0:0:0:
256,192,39375,1,0,0:0:0:0:
256,192,39537,1,0,0:0:0:0:
256,192,39699,1,8,0:0:0:0:
256,192,40024,1,0,0:0:0:0:
256,192,40186,1,8,0:0:0:0:
256,192,40348,1,8,0:0:0:0:
256,192,40672,1,0,0:0:0:0:
256,192,40997,1,8,0:0:0:0:
256,192,41645,5,8,0:0:0:0:
256,192,41970,1,8,0:0:0:0:
256,192,42132,1,8,0:0:0:0:
256,192,42294,1,8,0:0:0:0:
256,192,42618,1,8,0:0:0:0:
256,192,42780,1,0,0:0:0:0:
256,192,42943,1,8,0:0:0:0:
256,192,43267,1,0,0:0:0:0:
256,192,43591,1,8,0:0:0:0:
256,192,44240,5,8,0:0:0:0:
256,192,44564,1,0,0:0:0:0:
256,192,44726,1,0,0:0:0:0:
256,192,44888,1,8,0:0:0:0:
256,192,45213,1,0,0:0:0:0:
256,192,45375,1,8,0:0:0:0:
256,192,45537,1,8,0:0:0:0:
256,192,50889,5,0,0:0:0:0:
256,192,51051,1,0,0:0:0:0:
256,192,51375,1,8,0:0:0:0:
256,192,51537,1,0,0:0:0:0:
256,192,51699,1,8,0:0:0:0:
256,192,51862,1,0,0:0:0:0:
256,192,52186,1,0,0:0:0:0:
256,192,52348,1,0,0:0:0:0:
256,192,52672,1,0,0:0:0:0:
256,192,52997,1,8,0:0:0:0:
256,192,53483,5,0,0:0:0:0:
256,192,53645,1,8,0:0:0:0:
256,192,53969,1,8,0:0:0:0:
256,192,54131,1,0,0:0:0:0:
256,192,54293,1,0,0:0:0:0:
256,192,54456,1,8,0:0:0:0:
256,192,54780,1,8,0:0:0:0:
256,192,54943,1,0,0:0:0:0:
64,64,55266,1,0,0:0:0:0:
256,192,55591,1,12,0:0:0:0:
256,192,56240,5,0,0:0:0:0:
256,192,56402,1,0,0:0:0:0:
256,192,56564,1,8,0:0:0:0:
256,192,56889,1,8,0:0:0:0:
256,192,57051,1,0,0:0:0:0:
256,192,57375,1,0,0:0:0:0:
256,192,57537,1,8,0:0:0:0:
256,192,57862,1,0,0:0:0:0:
256,192,58186,1,8,0:0:0:0:
256,192,58348,1,0,0:0:0:0:
256,192,58835,1,0,0:0:0:0:
256,192,59159,1,8,0:0:0:0:
256,192,59321,1,8,0:0:0:0:
256,192,59483,1,0,0:0:0:0:
256,192,60132,5,8,0:0:0:0:
256,192,60294,1,0,0:0:0:0:
256,192,60457,1,8,0:0:0:0:
256,192,60619,1,0,0:0:0:0:
256,192,60781,1,0,0:0:0:0:
448,320,61105,1,12,0:0:0:0:
256,192,61429,5,0,0:0:0:0:
256,192,61591,1,0,0:0:0:0:
256,192,61753,1,8,0:0:0:0:
256,192,62078,1,8,0:0:0:0:
256,192,62240,1,0,0:0:0:0:
256,192,62564,1,0,0:0:0:0:
256,192,62726,1,8,0:0:0:0:
256,192,63051,1,0,0:0:0:0:
256,192,63375,1,8,0:0:0:0:
256,192,63537,1,0,0:0:0:0:
256,192,64024,1,0,0:0:0:0:
256,192,64348,1,8,0:0:0:0:
256,192,64510,1,8,0:0:0:0:
256,192,64672,1,0,0:0:0:0:
256,192,65321,1,8,0:0:0:0:
256,192,65483,5,0,0:0:0:0:
256,192,65646,1,8,0:0:0:0:
256,192,65808,1,0,0:0:0:0:
256,192,65970,1,0,0:0:0:0:
448,64,66294,1,8,0:0:0:0:
256,192,66618,5,4,0:0:0:0:
256,192,67105,1,8,0:0:0:0:
256,192,67591,1,8,0:0:0:0:
256,192,67916,1,0,0:0:0:0:
256,192,68078,1,8,0:0:0:0:
256,192,68240,1,8,0:0:0:0:
256,192,68402,1,0,0:0:0:0:
256,192,69213,5,8,0:0:0:0:
256,192,69537,1,8,0:0:0:0:
256,192,69862,1,0,0:0:0:0:
256,192,70186,1,0,0:0:0:0:
256,192,70510,1,8,0:0:0:0:
256,192,70672,1,8,0:0:0:0:
256,192,70835,1,0,0:0:0:0:
256,192,70997,1,8,0:0:0:0:
256,192,71159,1,0,0:0:0:0:
256,192,71483,1,0,0:0:0:0:
448,64,71645,1,8,0:0:0:0:
64,320,71808,1,4,0:0:0:0:
256,192,72294,1,0,0:0:0:0:
256,192,72781,1,8,0:0:0:0:
256,192,73105,1,0,0:0:0:0:
256,192,73267,1,8,0:0:0:0:
256,192,73429,1,0,0:0:0:0:
256,192,73591,1,8,0:0:0:0:
256,192,74402,5,0,0:0:0:0:
256,192,74726,1,8,0:0:0:0:
256,192,75051,1,8,0:0:0:0:
256,192,75375,1,0,0:0:0:0:
256,192,75699,1,8,0:0:0:0:
256,192,75862,1,0,0:0:0:0:
256,192,76024,1,8,0:0:0:0:
256,192,76186,1,8,0:0:0:0:
256,192,76348,1,0,0:0:0:0:
64,64,76672,1,0,0:0:0:0:
256,192,76835,1,8,0:0:0:0:
256,192,76997,1,4,0:0:0:0:
256,192,77484,1,8,0:0:0:0:
256,192,77970,1,8,0:0:0:0:
256,192,78294,1,0,0:0:0:0:
256,192,78457,1,8,0:0:0:0:
256,192,78619,1,8,0:0:0:0:
256,192,78781,1,0,0:0:0:0:
256,192,79268,1,0,0:0:0:0:
256,192,79430,1,0,0:0:0:0:
256,192,79592,1,8,0:0:0:0:
256,192,79916,1,8,0:0:0:0:
256,192,80241,1,0,0:0:0:0:
256,192,80565,1,0,0:0:0:0:
256,192,80889,1,8,0:0:0:0:
256,192,81051,1,8,0:0:0:0:
256,192,81214,1,0,0:0:0:0:
256,192,81375,1,8,0:0:0:0:
256,192,81538,1,0,0:0:0:0:
64,320,82186,5,4,0:0:0:0:
256,192,82673,1,0,0:0:0:0:
256,192,83160,1,8,0:0:0:0:
256,192,83484,1,0,0:0:0:0:
256,192,83645,1,0,0:0:0:0:
256,192,83808,1,0,0:0:0:0:
256,192,83970,1,8,0:0:0:0:
256,192,84457,1,0,0:0:0:0:
256,192,84619,1,8,0:0:0:0:
256,192,84781,1,0,0:0:0:0:
256,192,85105,1,8,0:0:0:0:
256,192,85430,1,8,0:0:0:0:
256,192,85754,1,0,0:0:0:0:
256,192,86078,1,8,0:0:0:0:
256,192,86240,1,8,0:0:0:0:
256,192,86403,1,0,0:0:0:0:
256,192,86565,1,8,0:0:0:0:
256,192,86726,1,4,0:0:0:0:
256,192,87375,5,0,0:0:0:0:
256,192,87537,1,8,0:0:0:0:
256,192,87861,1,0,0:0:0:0:
256,192,88023,1,0,0:0:0:0:
256,192,88185,1,8,0:0:0:0:
256,192,88510,1,8,0:0:0:0:
256,192,88672,1,8,0:0:0:0:
256,192,88834,1,0,0:0:0:0:
256,192,88996,1,8,0:0:0:0:
256,192,89320,1,8,0:0:0:0:
256,192,89969,5,0,0:0:0:0:
256,192,90131,1,8,0:0:0:0:
256,192,90456,1,0,0:0:0:0:
256,192,90618,1,0,0:0:0:0:
256,192,90780,1,8,0:0:0:0:
256,192,91104,1,8,0:0:0:0:
256,192,91266,1,8,0:0:0:0:
256,192,91429,1,0,0:0:0:0:
256,192,91591,1,8,0:0:0:0:
256,192,91915,1,0,0:0:0:0:
256,192,92564,5,0,0:0:0:0:
256,192,92726,1,8,0:0:0:0:
256,192,93050,1,0,0:0:0:0:
256,192,93212,1,0,0:0:0:0:
256,192,93374,1,8,0:0:0:0:
256,192,93699,1,0,0:0:0:0:
256,192,93861,1,0,0:0:0:0:
256,192,94023,1,8,0:0:0:0:
256,192,94185,1,0,0:0:0:0:
256,192,94510,1,8,0:0:0:0:
256,192,95158,5,0,0:0:0:0:
256,192,95320,1,8,0:0:0:0:
256,192,95645,1,8,0:0:0:0:
256,192,95807,1,0,0:0:0:0:
256,192,95969,1,8,0:0:0:0:
256,192,96293,1,8,0:0:0:0:
256,192,96456,1,8,0:0:0:0:
256,192,96618,1,0,0:0:0:0:
256,192,96780,1,8,0:0:0:0:
256,192,97104,5,8,0:0:0:0:
64,320,97754,5,4,0:0:0:0:
256,192,98240,1,0,0:0:0:0:
256,192,98564,1,8,0:0:0:0:
256,192,98726,1,8,0:0:0:0:
256,192,98889,1,0,0:0:0:0:
256,192,99051,1,8,0:0:0:0:
256,192,99537,1,0,0:0:0:0:
256,192,100024,1,8,0:0:0:0:
256,192,100186,1,8,0:0:0:0:
256,192,100348,1,0,0:0:0:0:
256,192,100835,1,0,0:0:0:0:
256,192,101159,1,8,0:0:0:0:
256,192,101321,1,0,0:0:0:0:
256,192,101645,1,8,0:0:0:0:
256,192,102132,1,8,0:0:0:0:
256,192,102294,1,0,0:0:0:0:
256,192,102456,1,0,0:0:0:0:
256,192,102618,1,8,0:0:0:0:
256,192,102943,1,8,0:0:0:0:
256,192,103429,5,0,0:0:0:0:
256,192,103916,1,8,0:0:0:0:
256,192,104078,1,8,0:0:0:0:
256,192,104240,1,0,0:0:0:0:
256,192,104726,1,8,0:0:0:0:
256,192,105213,1,0,0:0:0:0:
256,192,105375,1,0,0:0:0:0:
256,192,105537,1,8,0:0:0:0:
256,192,106024,1,0,0:0:0:0:
256,192,106510,1,8,0:0:0:0:
256,192,106672,1,8,0:0:0:0:
256,192,106835,1,0,0:0:0:0:
256,192,107321,1,0,0:0:0:0:
256,192,107808,1,8,0:0:0:0:
448,64,107970,1,8,0:0:0:0:
64,320,108132,1,4,0:0:0:0:
256,192,108618,1,0,0:0:0:0:
256,192,108943,1,8,0:0:0:0:
256,192,109105,1,8,0:0:0:0:
256,192,109268,1,0,0:0:0:0:
256,192,109430,1,8,0:0:0:0:
256,192,109916,1,0,0:0:0:0:
256,192,110403,5,8,0:0:0:0:
256,192,110565,1,8,0:0:0:0:
256,192,110727,1,0,0:0:0:0:
256,192,111051,1,0,0:0:0:0:
256,192,111375,1,8,0:0:0:0:
256,192,111700,1,8,0:0:0:0:
256,192,112024,1,0,0:0:0:0:
256,192,112511,1,8,0:0:0:0:
256,192,112673,1,0,0:0:0:0:
256,192,112997,1,0,0:0:0:0:
256,192,113322,1,8,0:0:0:0:
256,192,113808,1,0,0:0:0:0:
256,192,114295,1,8,0:0:0:0:
256,192,114457,1,8,0:0:0:0:
256,192,114619,1,0,0:0:0:0:
256,192,115105,1,8,0:0:0:0:
256,192,115592,1,0,0:0:0:0:
256,192,115916,1,8,0:0:0:0:
256,192,116402,5,0,0:0:0:0:
256,192,116889,1,8,0:0:0:0:
256,192,117051,1,8,0:0:0:0:
256,192,117214,1,0,0:0:0:0:
256,192,117538,1,0,0:0:0:0:
256,192,117862,1,0,0:0:0:0:
448,64,118024,1,8,0:0:0:0:
64,320,118187,1,4,0:0:0:0:
256,192,119808,5,4,0:0:0:0:
64,64,120132,1,8,0:0:0:0:
256,192,120781,5,0,0:0:0:0:
256,192,121105,1,8,0:0:0:0:
256,192,121430,1,0,0:0:0:0:
256,192,121592,1,8,0:0:0:0:
256,192,121754,1,0,0:0:0:0:
256,192,122078,1,8,0:0:0:0:
256,192,122403,1,0,0:0:0:0:
256,192,122565,1,0,0:0:0:0:
256,192,122727,1,8,0:0:0:0:
256,192,123051,1,0,0:0:0:0:
256,192,123376,1,8,0:0:0:0:
256,192,123700,1,0,0:0:0:0:
256,192,124024,1,8,0:0:0:0:
256,192,124186,1,0,0:0:0:0:
256,192,124349,1,8,0:0:0:0:
256,192,124511,1,0,0:0:0:0:
256,192,124672,1,0,0:0:0:0:
256,192,124997,1,0,0:0:0:0:
256,192,125159,1,0,0:0:0:0:
256,192,125322,1,8,0:0:0:0:
256,192,125970,5,0,0:0:0:0:
256,192,126295,1,8,0:0:0:0:
256,192,126619,1,0,0:0:0:0:
256,192,126781,1,8,0:0:0:0:
256,192,126943,1,0,0:0:0:0:
256,192,127267,1,8,0:0:0:0:
256,192,127592,1,0,0:0:0:0:
256,192,127754,1,0,0:0:0:0:
256,192,127916,1,8,0:0:0:0:
256,192,128240,1,0,0:0:0:0:
256,192,128565,1,8,0:0:0:0:
256,192,128889,1,0,0:0:0:0:
256,192,129213,1,8,0:0:0:0:
256,192,129375,1,8,0:0:0:0:
256,192,129537,1,0,0:0:0:0:
256,192,129699,1,0,0:0:0:0:
256,192,129862,1,0,0:0:0:0:
256,192,130186,1,4,0:0:0:0:
64,64,130511,1,8,0:0:0:0:
256,192,131159,5,8,0:0:0:0:
256,192,131484,1,0,0:0:0:0:
256,192,131808,1,8,0:0:0:0:
256,192,131971,1,8,0:0:0:0:
256,192,132133,1,8,0:0:0:0:
256,192,132295,1,0,0:0:0:0:
448,64,132456,1,8,0:0:0:0:
256,192,132782,1,0,0:0:0:0:
256,192,132944,1,0,0:0:0:0:
256,192,133106,1,8,0:0:0:0:
256,192,133430,1,8,0:0:0:0:
256,192,133591,1,8,0:0:0:0:
256,192,133755,1,0,0:0:0:0:
256,192,134079,1,0,0:0:0:0:
256,192,134403,1,8,0:0:0:0:
256,192,134565,1,8,0:0:0:0:
256,192,134726,1,0,0:0:0:0:
256,192,134889,1,8,0:0:0:0:
256,192,135052,1,0,0:0:0:0:
448,320,135376,1,4,0:0:0:0:
256,192,135699,1,8,0:0:0:0:
256,192,136348,5,8,0:0:0:0:
256,192,136672,1,0,0:0:0:0:
256,192,136998,1,8,0:0:0:0:
256,192,137159,1,8,0:0:0:0:
256,192,137322,1,0,0:0:0:0:
256,192,137484,1,0,0:0:0:0:
256,192,137645,1,8,0:0:0:0:
256,192,137971,1,0,0:0:0:0:
256,192,138133,1,0,0:0:0:0:
256,192,138295,1,8,0:0:0:0:
256,192,138619,1,0,0:0:0:0:
256,192,138944,1,8,0:0:0:0:
256,192,139591,1,8,0:0:0:0:
256,192,139916,1,0,0:0:0:0:
256,192,140079,1,8,0:0:0:0:
256,192,140241,1,0,0:0:0:0:
256,192,140564,5,0,0:0:0:0:
256,192,140726,1,8,0:0:0:0:
256,192,141050,1,0,0:0:0:0:
256,192,141212,1,0,0:0:0:0:
256,192,141374,1,8,0:0:0:0:
256,192,141699,1,8,0:0:0:0:
256,192,141861,1,8,0:0:0:0:
256,192,142023,1,0,0:0:0:0:
256,192,142185,1,8,0:0:0:0:
256,192,142509,1,8,0:0:0:0:
256,192,143158,5,0,0:0:0:0:
256,192,143320,1,8,0:0:0:0:
256,192,143645,1,0,0:0:0:0:
256,192,143807,1,0,0:0:0:0:
256,192,143969,1,8,0:0:0:0:
256,192,144293,1,8,0:0:0:0:
256,192,144455,1,8,0:0:0:0:
256,192,144618,1,0,0:0:0:0:
256,192,144780,1,8,0:0:0:0:
256,192,145104,1,0,0:0:0:0:
256,192,145753,5,0,0:0:0:0:
256,192,145915,1,8,0:0:0:0:
256,192,146239,1,0,0:0:0:0:
256,192,146402,1,0,0:0:0:0:
256,192,146563,1,8,0:0:0:0:
256,192,146888,1,0,0:0:0:0:
256,192,147050,1,0,0:0:0:0:
256,192,147212,1,8,0:0:0:0:
256,192,147374,1,0,0:0:0:0:
256,192,147700,1,8,0:0:0:0:
256,192,148347,5,0,0:0:0:0:
256,192,148509,1,8,0:0:0:0:
256,192,148834,1,8,0:0:0:0:
256,192,148996,1,0,0:0:0:0:
256,192,149158,1,8,0:0:0:0:
256,192,149482,1,8,0:0:0:0:
256,192,149645,1,8,0:0:0:0:
256,192,149807,1,0,0:0:0:0:
256,192,149969,1,8,0:0:0:0:
256,192,150294,1,0,0:0:0:0:
448,320,150618,1,12,0:0:0:0:
