osu file format v14

[General]
AudioFilename: audio.mp3
AudioLeadIn: 0
PreviewTime: 107773
Countdown: 0
SampleSet: None
StackLeniency: 0.7
Mode: 0
LetterboxInBreaks: 0
WidescreenStoryboard: 0

[Editor]
Bookmarks: 5606,16273,26940,48273,48356,48440,48523,48606,48690,48773,48856,48940,49023,49106,49190,49273,49356,49440,49523,49606,49690,49773,49856,49940,50023,50106,50190,50273,50356,50440,50523,50606,50690,50773,50856,50940,51023,51106,51190,51273,51356,51440,51523,51606,51690,51773,51856,51940,52023,52106,52190,52273,52356,52440,52523,52606,52690,52773,52856,52940,53023,53106,53190,53273,53356,53440,53523,53606,53690,53773,53856,53940,54023,54106,54190,54273,54356,54440,54523,54606,54690,54773,54856,54940,55023,55106,55190,55273,55356,55440,55523,55606,55690,55773,55856,55940,56023,56106,56190,56273,56356,56440,56523,56606,56690,56773,56856,56940,57023,57106,57190,57273,57356,57440,57523,57606,57690,57773,57856,57940,58023,58106,58190,58273,58356,58440,58523,58606,58690,58773,58856,58940,59023,59106,59190,59273,59356,59440,59523,59606,59690,59773,59856,59940,60023,60106,60190,60273,60356,60440,60523,60606,60690,60773,60940,61023,61106,61190,61273,61356,61440,61523,61606,61690,61773,61856,61940,62023,62106,62190,62273,62356,62440,62523,62606,62690,62773,62856,62940,63023,63106,63190,63273,63356,63440,63523,63606,63690,63773,63856,63940,64023,64190,64273,64356,64523,64606,64690,64773,64856,64940,65023,65106,65190,65273,65356,65440,65523,65606,65690,65773,65856,65940,66023,66106,66190,66273,66356,66440,66523,66606,66690,66773,66856,66940,67023,67106,67190,67273,67356,67440,67523,67606,67690,67773,67856,67940,68023,68106,68190,68273,68356,68440,68523,68606,68690,68773,68856,68940,69023,69106,69190,69273,69356,69440,69523,69606,80273,90940,112273,112356,112440,112523,112606,112690,112773,112856,112940,113023,113106,113190,113273,113356,113440,113523,113606,113690,113773,113856,113940,114023,114106,114190,114273,114356,114440,114523,114606,114690,114773,114856,114940,115023,115106,115190,115273,115356,115440,115523,115606,115690,115773,115856,115940,116023,116106,116190,116273,116356,116440,116523,116606,116690,116773,116856,116940,117023,117106,117190,117273,117356,117440,117523,117606,117690,117773,117856,117940,118023,118106,118190,118273,118356,118440,118523,118606,118690,118773,118856,118940,119023,119106,119190,119273,119356,119440,119523,119606,119690,119773,119856,119940,120023,120106,120190,120273,120356,120440,120523,120606,120690,120773,120856,120940,121023,121106,121190,121273,121356,121440,121523,121606,121690,121773,121856,121940,122023,122106,122190,122273,122356,122440,122523,122606,122690,122773,122856,122940,123023,123106,123190,123273,123356,123440,123523,123606,123690,123773,123856,123940,124023,124106,124190,124273,124356,124440,124523,124606,124690,124773,124856,124940,125023,125106,125273,125356,125440,125523,125606,125690,125773,125856,125940,126023,126106,126190,126273,126356,126440,126523,126606,126690,126773,126856,126940,127023,127106,127190,127273,127356,127440,127523,127606,127690,127773,127856,127940,128023,128106,128190,128273,128356,128440,128523,128606,128690,128773,128856,128940,129023,129106,129190,129273,129356,129440,129523,129606,129690,129773,129856,129940,130023,130106,130190,130273,130356,130440,130523,130606,130690,130773,130856,130940,131023,131106,131190,131273,131356,131440,131523,131606,131690,131773,131856,131940,132023,132106,132190,132273,132356,132440,132523,132606,132690,132773,132856,132940,133023,133106,133190,133273,133356,133440,133523,133606,144273,154940
DistanceSpacing: 1.3
BeatDivisor: 4
GridSize: 4
TimelineZoom: 3.999998

[Metadata]
Title:Ploho
TitleUnicode:Ploho
Artist:Ploho
ArtistUnicode:Ploho
Creator:Vik_Vens
Version:Norm
Source:
Tags:
BeatmapID:1707126
BeatmapSetID:813974

[Difficulty]
HPDrainRate:6.2
CircleSize:4.1
OverallDifficulty:8.9
ApproachRate:9.2
SliderMultiplier:1.8
SliderTickRate:1

[Events]
//Background and Video events
0,0,"vzlvypZ7gRI.jpg",0,0
//Break Periods
//Storyboard Layer 0 (Background)
//Storyboard Layer 1 (Fail)
//Storyboard Layer 2 (Pass)
//Storyboard Layer 3 (Foreground)
//Storyboard Sound Samples

[TimingPoints]
5607,333.333333333333,4,2,0,41,1,0
48273,-66.6666666666667,4,2,0,41,0,1
69606,-90.9090909090909,4,2,0,41,0,0
108273,-76.9230769230769,4,2,0,41,0,0
111606,-66.6666666666667,4,2,0,41,0,0
112273,-50,4,2,0,41,0,1
133606,-66.6666666666667,4,2,0,41,0,0

[Colours]
Combo1 : 255,255,255
Combo2 : 192,192,192

[HitObjects]
80,61,5606,5,0,0:0:0:0:
100,193,5773,1,0,0:0:0:0:
182,154,5940,1,8,0:0:0:0:
195,153,6106,1,8,0:0:0:0:
39,240,6273,5,0,0:0:0:0:
134,329,6440,1,0,0:0:0:0:
205,273,6606,2,0,L|304:273,1,90
361,182,6940,5,0,0:0:0:0:
432,50,7106,1,0,0:0:0:0:
341,64,7273,1,0,0:0:0:0:
328,63,7439,1,0,0:0:0:0:
315,281,7606,5,0,0:0:0:0:
185,166,7773,1,0,0:0:0:0:
299,305,7940,1,0,0:0:0:0:
207,153,8106,1,0,0:0:0:0:
512,331,8273,5,0,0:0:0:0:
413,185,8440,1,0,0:0:0:0:
406,275,8606,2,0,L|408:337,2,45
381,89,8940,5,0,0:0:0:0:
285,180,9106,1,0,0:0:0:0:
229,107,9273,2,0,L|132:111,1,90
71,316,9606,5,0,0:0:0:0:
223,235,9773,1,0,0:0:0:0:
223,326,9940,2,0,L|223:381,2,45
346,166,10273,5,0,0:0:0:0:
170,64,10440,1,0,0:0:0:0:
336,196,10606,1,0,0:0:0:0:
187,48,10773,1,0,0:0:0:0:
235,254,10940,2,0,L|236:359,1,90
136,158,11273,1,0,0:0:0:0:
136,158,11440,1,0,0:0:0:0:
316,42,11606,5,0,0:0:0:0:
406,148,11773,1,0,0:0:0:0:
315,162,11940,2,0,L|221:164,1,90
374,316,12273,5,0,0:0:0:0:
374,316,12440,1,0,0:0:0:0:
222,310,12606,2,0,L|157:313,2,45
314,162,12940,5,0,0:0:0:0:
186,38,13106,1,0,0:0:0:0:
179,128,13273,2,0,L|179:229,1,90
412,77,13606,5,0,0:0:0:0:
412,77,13773,1,0,0:0:0:0:
414,207,13940,2,0,L|414:277,2,45
263,78,14273,5,0,0:0:0:0:
315,327,14440,1,0,0:0:0:0:
147,212,14606,1,0,0:0:0:0:
78,293,14773,1,0,0:0:0:0:
363,145,14940,5,0,0:0:0:0:
119,70,15106,1,0,0:0:0:0:
276,284,15273,1,0,0:0:0:0:
285,294,15439,1,0,0:0:0:0:
163,133,15606,5,0,0:0:0:0:
295,305,15773,1,0,0:0:0:0:
305,316,15940,1,0,0:0:0:0:
315,327,16106,1,0,0:0:0:0:
279,76,16273,2,0,B|323:43|368:74|369:74,1,90
457,162,16606,1,0,0:0:0:0:
457,162,16773,1,0,0:0:0:0:
198,84,16940,5,0,0:0:0:0:
379,242,17106,1,0,0:0:0:0:
188,300,17273,1,0,0:0:0:0:
345,62,17606,5,0,0:0:0:0:
345,62,17773,1,0,0:0:0:0:
379,242,17940,2,0,L|386:307,2,45
221,83,18273,5,0,0:0:0:0:
137,238,18440,1,0,0:0:0:0:
306,156,18606,1,0,0:0:0:0:
70,274,18773,1,0,0:0:0:0:
287,330,18940,2,0,P|336:344|372:313,1,90
454,222,19273,1,0,0:0:0:0:
454,222,19440,1,0,0:0:0:0:
279,60,19606,5,0,0:0:0:0:
199,259,19773,1,0,0:0:0:0:
150,43,19940,1,0,0:0:0:0:
406,263,20273,5,0,0:0:0:0:
406,263,20440,1,0,0:0:0:0:
199,259,20606,2,0,L|139:260,2,45
385,149,20940,5,0,0:0:0:0:
174,74,21106,1,0,0:0:0:0:
325,29,21273,5,0,0:0:0:0:
237,188,21440,1,0,0:0:0:0:
414,316,21606,5,0,0:0:0:0:
414,316,21773,1,0,0:0:0:0:
313,159,21940,1,0,0:0:0:0:
306,148,22106,1,0,0:0:0:0:
426,344,22273,5,0,0:0:0:0:
195,250,22440,1,0,0:0:0:0:
424,194,22606,1,0,0:0:0:0:
98,68,22940,5,0,0:0:0:0:
98,68,23107,1,0,0:0:0:0:
199,225,23274,1,0,0:0:0:0:
206,236,23440,1,0,0:0:0:0:
86,40,23607,5,0,0:0:0:0:
317,134,23774,1,0,0:0:0:0:
88,190,23940,1,0,0:0:0:0:
303,104,24106,1,0,0:0:0:0:
301,317,24273,5,0,0:0:0:0:
301,317,24440,1,0,0:0:0:0:
419,215,24606,2,0,L|465:164,2,45
286,333,24940,5,0,0:0:0:0:
169,264,25106,1,0,0:0:0:0:
97,320,25273,1,0,0:0:0:0:
114,173,25440,1,0,0:0:0:0:
408,102,25606,5,0,0:0:0:0:
98,91,25773,1,0,0:0:0:0:
263,42,25940,1,0,0:0:0:0:
279,39,26106,1,0,0:0:0:0:
16,177,26273,5,0,0:0:0:0:
296,37,26440,1,0,0:0:0:0:
313,35,26607,1,0,0:0:0:0:
329,33,26773,1,0,0:0:0:0:
165,231,26940,6,0,L|290:233,1,90
415,151,27273,1,0,0:0:0:0:
415,151,27440,1,0,0:0:0:0:
200,148,27606,2,0,L|151:261,1,90
112,124,27940,2,0,L|63:237,1,90
265,314,28273,5,0,0:0:0:0:
359,245,28440,1,0,0:0:0:0:
208,138,28606,1,0,0:0:0:0:
208,138,28773,1,0,0:0:0:0:
431,327,28940,5,0,0:0:0:0:
386,104,29106,1,0,0:0:0:0:
179,279,29273,1,0,0:0:0:0:
438,175,29440,1,0,0:0:0:0:
195,54,29606,5,0,0:0:0:0:
195,54,29773,1,0,0:0:0:0:
179,279,29940,2,0,L|176:351,2,45
307,172,30273,2,0,P|342:211|367:272,1,90
386,104,30606,2,0,P|421:143|446:204,1,90
156,72,30940,5,0,0:0:0:0:
207,176,31106,1,0,0:0:0:0:
60,296,31273,1,0,0:0:0:0:
60,296,31440,1,0,0:0:0:0:
301,116,31606,5,0,0:0:0:0:
39,167,31773,1,0,0:0:0:0:
297,331,31940,1,0,0:0:0:0:
161,77,32106,5,0,0:0:0:0:
139,192,32273,1,0,0:0:0:0:
242,247,32440,1,0,0:0:0:0:
421,115,32606,5,0,0:0:0:0:
421,115,32773,1,0,0:0:0:0:
359,240,32940,2,0,L|438:304,1,90
348,211,33273,2,0,P|339:157|301:111,1,90
212,80,33606,2,0,P|159:65|101:80,1,90
221,260,33940,5,0,0:0:0:0:
221,260,34106,1,0,0:0:0:0:
294,67,34273,1,0,0:0:0:0:
120,207,34440,1,0,0:0:0:0:
324,296,34606,1,0,0:0:0:0:
193,100,34940,5,0,0:0:0:0:
193,100,35106,1,0,0:0:0:0:
186,295,35273,2,0,L|184:357,2,45
330,151,35606,2,0,P|385:167|422:226,1,90
321,38,35940,2,0,P|376:54|413:113,1,90
95,108,36273,6,0,L|94:224,1,90
227,320,36606,1,0,0:0:0:0:
250,333,36773,1,0,0:0:0:0:
120,97,36940,5,0,0:0:0:0:
280,210,37106,1,0,0:0:0:0:
303,220,37272,1,0,0:0:0:0:
326,233,37439,1,0,0:0:0:0:
196,33,37606,6,0,P|236:86|270:114,1,90
444,54,37940,1,0,0:0:0:0:
444,54,38106,1,0,0:0:0:0:
276,286,38273,5,0,0:0:0:0:
147,162,38440,1,0,0:0:0:0:
76,318,38606,1,0,0:0:0:0:
344,144,38940,6,0,P|286:163|249:198,1,90
197,340,39273,1,0,0:0:0:0:
197,340,39440,1,0,0:0:0:0:
201,84,39606,5,0,0:0:0:0:
95,190,39773,1,0,0:0:0:0:
34,64,39940,1,0,0:0:0:0:
305,256,40273,5,0,0:0:0:0:
305,256,40440,1,0,0:0:0:0:
398,186,40606,2,0,L|460:137,2,45
219,304,40940,2,0,B|170:268|134:309|135:309,1,90
159,118,41273,2,0,L|153:217,1,90
257,115,41606,2,0,L|255:228,1,90
383,47,41940,5,0,0:0:0:0:
383,47,42106,1,0,0:0:0:0:
76,184,42273,1,0,0:0:0:0:
219,302,42440,1,0,0:0:0:0:
112,349,42606,1,0,0:0:0:0:
217,70,42940,5,0,0:0:0:0:
217,70,43106,1,0,0:0:0:0:
312,137,43273,2,0,L|363:172,2,45
125,83,43606,1,0,0:0:0:0:
134,243,43773,1,0,0:0:0:0:
242,323,43940,6,0,L|342:326,1,90
340,164,44273,2,0,P|321:225|267:248,1,90
154,324,44606,1,0,0:0:0:0:
154,324,44773,1,0,0:0:0:0:
141,77,44940,2,0,L|132:199,1,90
236,74,45273,2,0,L|226:183,1,90
361,269,45606,6,0,P|408:249|430:206,1,90
401,58,45940,1,0,0:0:0:0:
401,58,46106,1,0,0:0:0:0:
279,273,46273,5,0,0:0:0:0:
101,108,46440,1,0,0:0:0:0:
175,289,46606,2,0,P|187:228|213:177,1,90
390,80,46940,5,0,0:0:0:0:
364,102,47106,5,0,0:0:0:0:
308,157,47273,5,0,0:0:0:0:
306,257,47440,5,0,0:0:0:0:
393,334,47606,5,0,0:0:0:0:
447,176,47773,5,0,0:0:0:0:
283,52,47940,5,0,0:0:0:0:
191,194,48106,5,0,0:0:0:0:
450,69,48273,5,0,0:0:0:0:
321,307,48440,1,0,0:0:0:0:
149,272,48606,1,0,0:0:0:0:
149,272,48773,1,0,0:0:0:0:
251,46,48940,5,0,0:0:0:0:
329,202,49106,1,0,0:0:0:0:
445,70,49273,1,0,0:0:0:0:
131,197,49606,6,0,B|142:300|142:300|152:259,1,135.000005149842
225,48,49940,1,0,0:0:0:0:
225,48,50106,1,0,0:0:0:0:
301,308,50273,5,0,0:0:0:0:
485,104,50440,1,0,0:0:0:0:
207,231,50606,5,0,0:0:0:0:
402,31,50773,1,0,0:0:0:0:
62,69,50940,5,0,0:0:0:0:
191,307,51107,1,0,0:0:0:0:
363,272,51273,1,0,0:0:0:0:
363,272,51440,1,0,0:0:0:0:
261,46,51607,5,0,0:0:0:0:
183,202,51773,1,0,0:0:0:0:
67,70,51940,1,0,0:0:0:0:
381,197,52273,6,0,B|370:300|370:300|360:259,1,135.000005149842
287,48,52607,1,0,0:0:0:0:
287,48,52773,1,0,0:0:0:0:
211,308,52940,5,0,0:0:0:0:
27,104,53107,1,0,0:0:0:0:
305,231,53273,5,0,0:0:0:0:
110,31,53440,1,0,0:0:0:0:
62,315,53606,5,0,0:0:0:0:
191,77,53773,1,0,0:0:0:0:
363,112,53939,1,0,0:0:0:0:
363,112,54106,1,0,0:0:0:0:
261,338,54273,5,0,0:0:0:0:
183,182,54439,1,0,0:0:0:0:
67,314,54606,1,0,0:0:0:0:
381,187,54939,6,0,B|370:84|370:84|360:125,1,135.000005149842
287,336,55273,1,0,0:0:0:0:
287,336,55439,1,0,0:0:0:0:
211,76,55606,5,0,0:0:0:0:
27,280,55773,1,0,0:0:0:0:
305,153,55939,5,0,0:0:0:0:
110,353,56106,1,0,0:0:0:0:
62,69,56273,5,0,0:0:0:0:
191,307,56440,1,0,0:0:0:0:
363,272,56606,1,0,0:0:0:0:
363,272,56773,1,0,0:0:0:0:
261,46,56940,5,0,0:0:0:0:
183,202,57106,1,0,0:0:0:0:
67,70,57273,1,0,0:0:0:0:
381,197,57606,6,0,B|370:300|370:300|360:259,1,135.000005149842
287,48,57940,1,0,0:0:0:0:
287,48,58106,1,0,0:0:0:0:
211,308,58273,5,0,0:0:0:0:
89,111,58440,5,0,0:0:0:0:
207,112,58606,5,0,0:0:0:0:
274,221,58773,5,0,0:0:0:0:
41,317,58940,6,0,B|101:275|60:243|60:243|140:218,1,135.000005149842
380,190,59273,1,0,0:0:0:0:
380,190,59440,1,0,0:0:0:0:
192,50,59606,5,0,0:0:0:0:
299,315,59773,1,0,0:0:0:0:
342,40,59940,2,0,B|317:117|301:78|301:78|281:135|281:135|303:131,1,135.000005149842
111,318,60273,5,0,0:0:0:0:
111,318,60440,1,0,0:0:0:0:
111,143,60606,2,0,B|104:109|104:109|119:61,2,67.5000025749208
223,279,60940,5,0,0:0:0:0:
379,201,61106,5,0,0:0:0:0:
441,36,61273,5,0,0:0:0:0:
265,50,61440,5,0,0:0:0:0:
41,67,61606,6,0,B|101:109|60:141|60:141|140:166,1,135.000005149842
380,194,61939,1,0,0:0:0:0:
380,194,62106,1,0,0:0:0:0:
192,334,62272,5,0,0:0:0:0:
299,69,62439,1,0,0:0:0:0:
342,344,62606,2,0,B|317:267|301:306|301:306|281:248|281:248|303:253,1,135.000005149842
111,66,62939,5,0,0:0:0:0:
111,66,63106,1,0,0:0:0:0:
111,241,63272,2,0,B|104:275|104:275|119:323,2,67.5000025749208
223,105,63606,5,0,0:0:0:0:
379,183,63772,5,0,0:0:0:0:
441,348,63939,5,0,0:0:0:0:
479,176,64106,5,0,0:0:0:0:
169,37,64273,6,0,P|88:97|46:169,1,135.000005149842
160,175,64606,2,0,P|166:222|158:248,2,67.5000025749208
362,324,64940,5,0,0:0:0:0:
289,61,65106,1,0,0:0:0:0:
465,266,65273,1,0,0:0:0:0:
175,318,65606,5,0,0:0:0:0:
175,318,65773,1,0,0:0:0:0:
372,177,65940,2,0,P|414:140|428:119,2,67.5000025749208
54,245,66273,5,0,0:0:0:0:
248,48,66440,1,0,0:0:0:0:
278,289,66606,1,0,0:0:0:0:
299,174,66773,1,0,0:0:0:0:
80,108,66940,5,0,0:0:0:0:
199,235,67106,1,0,0:0:0:0:
457,121,67273,1,0,0:0:0:0:
457,121,67440,1,0,0:0:0:0:
388,281,67606,5,0,0:0:0:0:
274,146,67773,1,0,0:0:0:0:
145,309,67940,2,0,B|72:334|72:334|89:268,1,135.000005149842
212,46,68273,5,0,0:0:0:0:
312,306,68440,1,0,0:0:0:0:
440,61,68606,1,0,0:0:0:0:
440,61,68773,1,0,0:0:0:0:
224,292,68940,5,0,0:0:0:0:
75,69,69106,1,0,0:0:0:0:
59,97,69273,1,0,0:0:0:0:
49,128,69439,1,0,0:0:0:0:
287,216,69606,6,0,P|248:254|213:316,1,99.0000030212403
225,111,69940,1,0,0:0:0:0:
337,49,70106,1,0,0:0:0:0:
225,111,70273,2,0,P|155:158|145:189,1,99.0000030212403
200,339,70606,1,0,0:0:0:0:
450,140,70940,5,0,0:0:0:0:
471,266,71106,1,0,0:0:0:0:
401,150,71273,2,0,L|487:132,2,49.5000015106202
301,321,71606,5,0,0:0:0:0:
202,238,71773,5,0,0:0:0:0:
225,111,71940,5,0,0:0:0:0:
94,280,72106,5,0,0:0:0:0:
333,215,72273,6,0,P|383:189|402:109,1,99.0000030212403
275,97,72606,1,0,0:0:0:0:
222,214,72773,1,0,0:0:0:0:
275,97,72940,2,0,P|213:93|164:123,1,99.0000030212403
78,304,73273,1,0,0:0:0:0:
335,310,73606,5,0,0:0:0:0:
417,210,73773,1,0,0:0:0:0:
314,264,73940,2,0,L|341:325,2,49.5000015106202
206,101,74273,5,0,0:0:0:0:
154,219,74440,5,0,0:0:0:0:
82,300,74606,5,0,0:0:0:0:
334,183,74773,5,0,0:0:0:0:
80,86,74940,1,0,0:0:0:0:
80,86,75106,1,0,0:0:0:0:
215,320,75273,1,0,0:0:0:0:
343,317,75440,1,0,0:0:0:0:
215,320,75606,2,0,P|248:270|243:202,1,99.0000030212403
80,86,75940,1,0,0:0:0:0:
410,218,76273,5,0,0:0:0:0:
445,94,76440,1,0,0:0:0:0:
367,192,76606,2,0,L|423:226,2,49.5000015106202
215,110,76940,5,0,0:0:0:0:
126,202,77106,5,0,0:0:0:0:
210,299,77273,5,0,0:0:0:0:
218,16,77440,5,0,0:0:0:0:
365,297,77606,5,0,0:0:0:0:
365,297,77773,1,0,0:0:0:0:
215,110,77940,1,0,0:0:0:0:
90,139,78106,1,0,0:0:0:0:
215,110,78273,2,0,B|223:166|275:238,1,99.0000030212403
430,340,78606,1,0,0:0:0:0:
417,66,78940,6,0,P|363:86|325:26,1,99.0000030212403
319,287,79273,1,0,0:0:0:0:
319,287,79440,1,0,0:0:0:0:
97,114,79606,1,0,0:0:0:0:
273,254,79773,1,0,0:0:0:0:
296,270,79939,1,0,0:0:0:0:
319,287,80106,1,0,0:0:0:0:
391,53,80273,6,0,B|394:123|394:123|435:106|412:200|412:200|386:153,1,198.000006042481
221,70,80773,1,0,0:0:0:0:
230,274,80940,1,0,0:0:0:0:
106,161,81106,1,0,0:0:0:0:
296,120,81273,1,0,0:0:0:0:
148,330,81606,5,0,0:0:0:0:
148,330,81773,1,0,0:0:0:0:
276,321,81940,2,0,L|352:319,2,49.5000015106202
374,216,82273,1,0,0:0:0:0:
228,74,82440,1,0,0:0:0:0:
406,50,82606,2,0,B|430:86|443:98|443:98|448:124|448:124|417:112,1,99.0000030212403
108,63,82940,5,0,0:0:0:0:
108,63,83106,1,0,0:0:0:0:
111,191,83273,2,0,L|115:275,2,49.5000015106202
238,302,83606,5,0,0:0:0:0:
365,323,83773,5,0,0:0:0:0:
423,207,83940,5,0,0:0:0:0:
226,40,84273,5,0,0:0:0:0:
339,142,84440,5,0,0:0:0:0:
114,251,84606,5,0,0:0:0:0:
114,251,84773,1,0,0:0:0:0:
340,245,84940,2,0,P|393:238|430:177,1,99.0000030212403
369,57,85273,2,0,P|335:106|356:167,1,99.0000030212403
365,348,85606,5,0,0:0:0:0:
365,348,85773,1,0,0:0:0:0:
236,351,85940,2,0,L|165:358,2,49.5000015106202
251,222,86273,5,0,0:0:0:0:
191,107,86440,5,0,0:0:0:0:
63,120,86606,5,0,0:0:0:0:
318,151,86940,5,0,0:0:0:0:
429,87,87106,1,0,0:0:0:0:
443,275,87273,1,0,0:0:0:0:
443,275,87440,1,0,0:0:0:0:
317,250,87606,2,0,P|263:211|215:213,1,99.0000030212403
181,364,87940,2,0,P|231:332|240:280,1,99.0000030212403
249,68,88273,5,0,0:0:0:0:
249,68,88440,1,0,0:0:0:0:
376,82,88606,2,0,L|444:91,2,49.5000015106202
130,124,88940,1,0,0:0:0:0:
60,274,89106,1,0,0:0:0:0:
246,262,89273,1,0,0:0:0:0:
245,64,89440,5,0,0:0:0:0:
453,261,89606,1,0,0:0:0:0:
376,82,89772,1,0,0:0:0:0:
277,327,89939,5,0,0:0:0:0:
277,327,90106,1,0,0:0:0:0:
459,142,90273,1,0,0:0:0:0:
280,196,90440,1,0,0:0:0:0:
246,203,90606,1,0,0:0:0:0:
214,217,90773,1,0,0:0:0:0:
231,49,90940,2,0,P|161:55|116:97,1,99.0000030212403
94,331,91273,1,0,0:0:0:0:
94,331,91440,1,0,0:0:0:0:
270,286,91606,2,0,L|386:288,1,99.0000030212403
276,196,91940,2,0,L|392:198,1,99.0000030212403
70,67,92273,6,0,P|125:59|163:126,1,99.0000030212403
174,335,92606,1,0,0:0:0:0:
289,74,92773,2,0,B|342:70|377:55|377:55|354:64|354:64|408:44|408:44|422:58|422:58|395:48|395:48,1,198.000006042481
468,218,93273,1,0,0:0:0:0:
80,274,93606,5,0,0:0:0:0:
80,274,93773,1,0,0:0:0:0:
94,55,93940,1,0,0:0:0:0:
289,74,94106,2,0,B|291:127|304:162|304:162|296:139|296:139|314:193|314:193|300:207|300:207|311:180|311:180,1,198.000006042481
110,162,94606,1,0,0:0:0:0:
421,305,94940,6,0,L|299:306,1,99.0000030212403
261,102,95273,1,0,0:0:0:0:
261,102,95440,1,0,0:0:0:0:
200,215,95606,2,0,L|129:297,1,99.0000030212403
108,162,95940,2,0,L|30:246,1,99.0000030212403
478,66,96273,5,0,0:0:0:0:
349,67,96440,1,0,0:0:0:0:
411,179,96606,1,0,0:0:0:0:
235,144,96773,2,0,B|182:148|147:163|147:163|170:154|170:154|116:174|116:174|102:160|102:160|129:170|129:170,1,198.000006042481
181,56,97273,1,0,0:0:0:0:
417,321,97606,5,0,0:0:0:0:
417,321,97773,1,0,0:0:0:0:
416,108,97940,1,0,0:0:0:0:
235,144,98106,2,0,B|264:188|274:225|274:225|267:201|267:201|284:256|284:256|304:258|304:258|279:243|279:243,1,198.000006042481
336,132,98606,1,0,0:0:0:0:
134,293,98940,6,0,P|138:228|95:177,1,99.0000030212403
71,81,99273,1,0,0:0:0:0:
71,81,99440,2,0,P|180:87|181:86,1,99.0000030212403
277,64,99773,2,0,P|324:90|330:152,1,99.0000030212403
135,297,100106,1,0,0:0:0:0:
421,291,100273,5,0,0:0:0:0:
140,60,100440,1,0,0:0:0:0:
237,289,100606,1,0,0:0:0:0:
237,289,100773,1,0,0:0:0:0:
416,115,100940,1,0,0:0:0:0:
237,289,101106,1,0,0:0:0:0:
237,289,101273,1,0,0:0:0:0:
237,289,101440,1,0,0:0:0:0:
76,55,101606,6,0,P|132:77|155:118,1,99.0000030212403
95,294,101940,1,0,0:0:0:0:
95,294,102106,1,0,0:0:0:0:
414,219,102273,2,0,L|295:222,1,99.0000030212403
398,123,102606,2,0,L|273:127,1,99.0000030212403
188,335,102940,5,0,0:0:0:0:
188,335,103106,1,0,0:0:0:0:
217,92,103273,1,0,0:0:0:0:
315,221,103440,2,0,B|336:269|339:307|339:307|336:283|336:283|344:340|344:340|363:345|363:345|341:326|341:326,1,198.000006042481
428,233,103940,2,0,L|419:122,1,99.0000030212403
90,82,104273,5,0,0:0:0:0:
90,82,104440,1,0,0:0:0:0:
319,80,104606,1,0,0:0:0:0:
315,221,104773,2,0,B|271:251|249:282|249:282|264:263|264:263|228:308|228:308|209:303|209:303|237:297|237:297,1,198.000006042481
168,181,105273,2,0,L|166:62,1,99.0000030212403
442,333,105606,5,0,0:0:0:0:
351,88,105773,1,0,0:0:0:0:
270,307,105940,1,0,0:0:0:0:
270,307,106106,1,0,0:0:0:0:
454,167,106273,5,0,0:0:0:0:
215,33,106440,1,0,0:0:0:0:
370,283,106606,1,0,0:0:0:0:
345,156,106773,1,0,0:0:0:0:
97,158,106940,5,0,0:0:0:0:
97,158,107106,1,0,0:0:0:0:
133,354,107273,1,0,0:0:0:0:
249,242,107440,2,0,B|286:203|320:186|320:186|298:198|298:198|348:170|348:170|346:150|346:150|337:177|337:177,1,198.000006042481
247,45,107940,2,0,P|230:97|239:151,1,99.0000030212403
468,172,108273,6,0,P|462:106|385:77,1,116.999994644165
136,70,108606,2,0,P|92:119|66:211,1,116.999994644165
166,188,108940,2,0,P|122:237|96:329,1,116.999994644165
312,146,109273,2,0,P|268:195|242:287,1,116.999994644165
466,116,109606,5,0,0:0:0:0:
390,326,109773,1,0,0:0:0:0:
274,48,109940,1,0,0:0:0:0:
274,48,110106,1,0,0:0:0:0:
72,239,110273,2,0,B|121:322|179:231,1,116.999994644165
285,158,110606,2,0,B|236:75|178:166,1,116.999994644165
160,361,110940,5,0,0:0:0:0:
481,203,111106,1,0,0:0:0:0:
283,42,111273,1,0,0:0:0:0:
283,42,111440,1,0,0:0:0:0:
454,307,111606,6,0,P|395:263|384:184,1,135.000005149842
54,329,111940,2,0,B|50:270|73:255|73:255|48:136,1,135.000005149842
110,40,112273,6,0,B|151:94|151:94|177:118|177:118|174:103|174:103|203:135|203:135|190:125|190:125|201:167|201:167|205:153|205:153|221:187|221:187|212:176|212:176|209:209|209:209|219:200|219:200|239:243|239:243|228:237|228:237|230:277|228:259|228:259,1,360
461,60,112773,5,0,0:0:0:0:
374,277,112940,1,0,0:0:0:0:
305,54,113106,1,0,0:0:0:0:
403,151,113273,1,0,0:0:0:0:
275,323,113606,5,0,0:0:0:0:
275,323,113773,1,0,0:0:0:0:
51,60,113939,1,0,0:0:0:0:
138,277,114106,1,0,0:0:0:0:
207,54,114273,5,0,0:0:0:0:
109,151,114439,1,0,0:0:0:0:
369,32,114606,1,0,0:0:0:0:
269,133,114773,1,0,0:0:0:0:
138,277,114940,6,0,B|203:219|267:303|342:250,1,180
168,49,115273,1,0,0:0:0:0:
168,49,115440,1,0,0:0:0:0:
24,317,115606,5,0,0:0:0:0:
196,158,115773,1,0,0:0:0:0:
355,330,115940,1,0,0:0:0:0:
388,64,116273,5,0,0:0:0:0:
269,266,116440,1,0,0:0:0:0:
97,108,116606,1,0,0:0:0:0:
97,108,116773,1,0,0:0:0:0:
166,331,116940,5,0,0:0:0:0:
352,191,117106,1,0,0:0:0:0:
173,38,117273,1,0,0:0:0:0:
207,208,117440,1,0,0:0:0:0:
440,70,117606,6,0,B|498:135|414:199|467:274,1,180
232,328,117940,1,0,0:0:0:0:
232,328,118106,1,0,0:0:0:0:
274,78,118273,5,0,0:0:0:0:
114,249,118440,1,0,0:0:0:0:
38,28,118606,1,0,0:0:0:0:
418,301,118940,5,0,0:0:0:0:
212,191,119106,1,0,0:0:0:0:
423,89,119273,1,0,0:0:0:0:
423,89,119440,1,0,0:0:0:0:
276,305,119606,5,0,0:0:0:0:
227,75,119773,1,0,0:0:0:0:
122,284,119940,1,0,0:0:0:0:
347,224,120106,1,0,0:0:0:0:
121,158,120273,1,0,0:0:0:0:
336,66,120440,5,0,0:0:0:0:
233,275,120606,1,0,0:0:0:0:
233,275,120773,1,0,0:0:0:0:
225,40,120940,5,0,0:0:0:0:
364,226,121106,1,0,0:0:0:0:
488,27,121273,1,0,0:0:0:0:
222,175,121440,1,0,0:0:0:0:
20,57,121606,5,0,0:0:0:0:
88,281,121773,1,0,0:0:0:0:
205,78,121940,1,0,0:0:0:0:
205,78,122106,1,0,0:0:0:0:
12,211,122273,5,0,0:0:0:0:
271,264,122440,1,0,0:0:0:0:
381,50,122606,1,0,0:0:0:0:
467,268,122773,1,0,0:0:0:0:
167,323,122940,6,0,B|217:209|209:73|209:73|83:75,1,360
461,324,123440,5,0,0:0:0:0:
374,107,123607,1,0,0:0:0:0:
305,330,123773,1,0,0:0:0:0:
403,233,123940,1,0,0:0:0:0:
275,61,124273,5,0,0:0:0:0:
275,61,124440,1,0,0:0:0:0:
51,324,124606,1,0,0:0:0:0:
138,107,124773,1,0,0:0:0:0:
207,330,124940,5,0,0:0:0:0:
109,233,125106,1,0,0:0:0:0:
369,352,125273,1,0,0:0:0:0:
269,251,125440,1,0,0:0:0:0:
138,107,125607,6,0,B|203:165|267:81|342:134,1,180
168,335,125940,1,0,0:0:0:0:
168,335,126107,1,0,0:0:0:0:
24,67,126273,5,0,0:0:0:0:
196,226,126440,1,0,0:0:0:0:
355,54,126607,1,0,0:0:0:0:
388,320,126940,5,0,0:0:0:0:
269,118,127107,1,0,0:0:0:0:
97,276,127273,1,0,0:0:0:0:
97,276,127440,1,0,0:0:0:0:
166,53,127607,5,0,0:0:0:0:
352,193,127773,1,0,0:0:0:0:
173,346,127940,1,0,0:0:0:0:
207,176,128107,1,0,0:0:0:0:
440,314,128273,6,0,B|498:249|414:185|467:110,1,180
232,56,128607,1,0,0:0:0:0:
232,56,128773,1,0,0:0:0:0:
274,306,128940,5,0,0:0:0:0:
114,135,129107,1,0,0:0:0:0:
38,356,129273,1,0,0:0:0:0:
418,83,129607,5,0,0:0:0:0:
212,193,129773,1,0,0:0:0:0:
423,295,129940,1,0,0:0:0:0:
423,295,130107,1,0,0:0:0:0:
276,79,130273,5,0,0:0:0:0:
227,309,130440,1,0,0:0:0:0:
122,100,130607,1,0,0:0:0:0:
347,160,130773,1,0,0:0:0:0:
121,226,130940,5,0,0:0:0:0:
336,318,131107,1,0,0:0:0:0:
233,109,131273,1,0,0:0:0:0:
233,109,131440,1,0,0:0:0:0:
225,344,131607,5,0,0:0:0:0:
364,158,131773,1,0,0:0:0:0:
488,357,131940,1,0,0:0:0:0:
222,209,132107,1,0,0:0:0:0:
20,327,132273,5,0,0:0:0:0:
88,103,132440,1,0,0:0:0:0:
205,306,132607,1,0,0:0:0:0:
205,306,132773,1,0,0:0:0:0:
12,173,132940,5,0,0:0:0:0:
244,145,133107,1,0,0:0:0:0:
381,334,133273,1,0,0:0:0:0:
467,116,133440,1,0,0:0:0:0:
92,56,133606,2,0,B|110:148|110:148|197:89,1,135.000005149842
297,36,133940,1,0,0:0:0:0:
297,36,134106,1,0,0:0:0:0:
405,174,134273,6,0,L|324:201,1,67.5000025749208
411,189,134440,2,0,L|330:216,1,67.5000025749208
420,205,134606,2,0,B|354:266|354:266|282:255,1,135.000005149842
120,356,134940,6,0,B|212:338|212:338|153:251,1,135.000005149842
100,151,135274,1,0,0:0:0:0:
100,151,135440,1,0,0:0:0:0:
238,43,135607,6,0,L|265:124,1,67.5000025749208
253,37,135774,2,0,L|280:118,1,67.5000025749208
269,28,135940,2,0,B|330:94|330:94|319:166,1,135.000005149842
100,151,136273,6,0,B|166:212|166:212|238:201,1,135.000005149842
439,62,136606,1,0,0:0:0:0:
439,62,136773,1,0,0:0:0:0:
338,206,136940,6,0,L|338:304,1,67.5000025749208
338,206,137106,2,0,L|338:304,1,67.5000025749208
338,206,137273,2,0,B|331:113|331:113|232:115,1,135.000005149842
210,205,137606,6,0,B|271:271|271:271|260:343,1,135.000005149842
19,192,137940,1,0,0:0:0:0:
19,192,138106,1,0,0:0:0:0:
206,115,138273,6,0,L|209:37,1,67.5000025749208
206,115,138440,2,0,L|207:45,1,67.5000025749208
206,115,138606,2,0,B|205:210|205:210|280:205|280:204,1,135.000005149842
353,73,138940,6,0,B|448:72|448:72|443:147|442:147,1,135.000005149842
408,320,139273,1,0,0:0:0:0:
408,320,139440,1,0,0:0:0:0:
241,266,139606,6,0,P|203:258|187:277,1,67.5000025749208
238,253,139773,2,0,P|200:245|184:264,1,67.5000025749208
237,236,139940,2,0,B|178:232|178:232|174:317,1,135.000005149842
236,147,140273,6,0,B|177:151|177:151|156:89|156:89|173:66,1,135.000005149842
383,51,140606,1,0,0:0:0:0:
383,51,140773,1,0,0:0:0:0:
389,226,140940,6,0,P|428:244|445:217,1,67.5000025749208
391,242,141106,2,0,P|430:260|447:233,1,67.5000025749208
394,258,141273,2,0,B|447:281|447:281|468:193,1,135.000005149842
242,74,141606,6,0,B|152:49|152:49|157:124,1,135.000005149842
186,302,141940,1,0,0:0:0:0:
186,302,142106,1,0,0:0:0:0:
417,123,142273,5,0,0:0:0:0:
67,152,142606,5,0,0:0:0:0:
356,351,142940,6,0,B|401:298|401:298|370:231,1,135.000005149842
181,73,143273,1,0,0:0:0:0:
181,73,143440,1,0,0:0:0:0:
181,328,143606,5,0,0:0:0:0:
443,93,143940,5,0,0:0:0:0:
263,30,144273,6,0,B|260:86|287:117|287:117|264:177,1,135.000005149842
73,310,144606,5,0,0:0:0:0:
407,229,144773,1,0,0:0:0:0:
51,216,144940,5,0,0:0:0:0:
385,135,145107,1,0,0:0:0:0:
32,128,145273,5,0,0:0:0:0:
366,47,145440,1,0,0:0:0:0:
110,29,145606,5,0,0:0:0:0:
243,346,145773,1,0,0:0:0:0:
202,34,145940,5,0,0:0:0:0:
334,351,146107,1,0,0:0:0:0:
308,22,146273,5,0,0:0:0:0:
440,339,146440,1,0,0:0:0:0:
210,125,146606,5,0,0:0:0:0:
292,280,146773,1,0,0:0:0:0:
426,58,146940,5,0,0:0:0:0:
255,206,147106,1,0,0:0:0:0:
38,69,147273,1,0,0:0:0:0:
38,69,147440,1,0,0:0:0:0:
158,315,147606,5,0,0:0:0:0:
490,200,147940,5,0,0:0:0:0:
59,301,148273,5,0,0:0:0:0:
235,72,148440,1,0,0:0:0:0:
423,333,148606,1,0,0:0:0:0:
423,333,148773,1,0,0:0:0:0:
76,113,148940,5,0,0:0:0:0:
446,78,149273,5,0,0:0:0:0:
157,323,149606,5,0,0:0:0:0:
157,323,149773,1,0,0:0:0:0:
192,53,149940,5,0,0:0:0:0:
192,53,150106,1,0,0:0:0:0:
303,268,150273,6,0,L|448:266,1,135.000005149842
312,143,150606,2,0,L|462:140,1,135.000005149842
73,247,150940,5,0,0:0:0:0:
73,247,151106,1,0,0:0:0:0:
317,47,151273,5,0,0:0:0:0:
317,47,151440,1,0,0:0:0:0:
409,195,151606,6,0,L|426:346,1,135.000005149842
302,200,151940,2,0,L|326:367,1,135.000005149842
61,70,152273,5,0,0:0:0:0:
93,242,152440,1,0,0:0:0:0:
185,93,152606,1,0,0:0:0:0:
185,93,152773,1,0,0:0:0:0:
266,290,152940,5,0,0:0:0:0:
418,88,153106,1,0,0:0:0:0:
441,262,153273,1,0,0:0:0:0:
234,64,153606,5,0,0:0:0:0:
232,86,153773,5,0,0:0:0:0:
196,154,153940,5,0,0:0:0:0:
132,256,154106,5,0,0:0:0:0:
65,93,154273,5,0,0:0:0:0:
316,28,154440,5,0,0:0:0:0:
477,198,154606,5,0,0:0:0:0:
212,364,154773,5,0,0:0:0:0:
259,194,154940,5,0,0:0:0:0:
