osu file format v14

[General]
AudioFilename: audio.mp3
AudioLeadIn: 0
PreviewTime: 110790
Countdown: 0
SampleSet: Soft
StackLeniency: 0.7
Mode: 0
LetterboxInBreaks: 0
WidescreenStoryboard: 1

[Editor]
Bookmarks: 74490,77190,81390,99590,121990,133190,155590,166790,177990,189990,201190,212390,218790,234790,245990,257190,268390,277990,285990,290790,293990,305190,316390,327590,338790,349990,361190
DistanceSpacing: 2.4
BeatDivisor: 4
GridSize: 4
TimelineZoom: 2.300001

[Metadata]
Title:Selenium Forest
TitleUnicode:Selenium Forest
Artist:Plini
ArtistUnicode:Plini
Creator:OliBomby
Version:Heart of the Wild
Source:
Tags:Other Things Rock Rick Graham CrazyrabbitKGE
BeatmapID:1976006
BeatmapSetID:752254

[Difficulty]
HPDrainRate:5
CircleSize:4
OverallDifficulty:8.4
ApproachRate:9
SliderMultiplier:1.4
SliderTickRate:1

[Events]
//Background and Video events
0,0,"maxresdefault.jpg",0,0
//Break Periods
2,155790,166190
//Storyboard Layer 0 (Background)
//Storyboard Layer 1 (Fail)
//Storyboard Layer 2 (Pass)
//Storyboard Layer 3 (Foreground)
//Storyboard Sound Samples

[TimingPoints]
390,400,4,2,0,20,1,0
390,-250,4,2,0,20,0,0
1190,-166.666666666667,4,2,0,20,0,0
1990,-200,4,2,0,20,0,0
4390,-166.666666666667,4,2,0,20,0,0
5990,-142.857142857143,4,2,0,20,0,0
6390,-200,4,2,0,20,0,0
6790,-250,4,2,0,20,0,0
7590,-125,4,2,0,20,0,0
8390,-250,4,2,0,20,0,0
10790,-200,4,2,0,20,0,0
12290,-200,4,2,0,5,0,0
12390,-111.111111111111,4,2,0,20,0,0
13190,-200,4,2,0,20,0,0
13990,-142.857142857143,4,2,0,20,0,0
15190,-200,4,2,0,20,0,0
16790,-333.333333333333,4,2,0,20,0,0
17140,-333.333333333333,4,2,0,5,0,0
17190,-166.666666666667,4,2,0,20,0,0
18990,-125,4,2,0,20,0,0
19590,-200,4,2,0,20,0,0
20290,-200,4,2,0,5,0,0
20390,-142.857142857143,4,2,0,20,0,0
22390,-250,4,2,0,20,0,0
22490,-250,4,2,0,5,0,0
24990,-200,4,2,0,20,0,0
25990,-166.666666666667,4,2,1,30,0,0
26790,-200,4,2,2,30,0,0
27390,-200,4,2,3,30,0,0
27590,-200,4,2,1,30,0,0
28390,-166.666666666667,4,2,1,30,0,0
29990,-200,4,2,1,40,0,0
30090,-200,4,2,1,14,0,0
30190,-200,4,2,1,12,0,0
30390,-200,4,2,1,7,0,0
30590,-200,4,2,1,5,0,0
31190,-200,4,2,1,30,0,0
31590,-166.666666666667,4,2,2,30,0,0
31990,-166.666666666667,4,2,3,30,0,0
32190,-166.666666666667,4,2,1,30,0,0
32390,-125,4,2,2,30,0,0
33140,-142.857142857143,4,2,1,5,0,0
33190,-142.857142857143,4,2,1,30,0,0
33590,-166.666666666667,4,2,1,30,0,0
33723,-166.666666666667,4,2,3,30,0,0
33990,-125,4,2,1,30,0,0
36390,-200,4,2,1,40,0,0
36490,-200,4,2,1,14,0,0
36590,-200,4,2,1,12,0,0
36790,-200,4,2,1,7,0,0
36990,-200,4,2,1,5,0,0
37590,-200,4,2,1,30,0,0
38490,-200,4,2,0,30,0,0
38790,-166.666666666667,4,2,1,30,0,0
39290,-125,4,2,1,5,0,0
39390,-125,4,2,1,30,0,0
39490,-125,4,2,1,5,0,0
39590,-100,4,2,1,30,0,0
39990,-111.111111111111,4,2,1,40,0,0
40190,-142.857142857143,4,2,3,30,0,0
40390,-166.666666666667,4,2,1,30,0,0
40990,-166.666666666667,4,2,1,45,0,0
41590,-117.647058823529,4,2,1,45,0,0
42190,-117.647058823529,4,2,1,35,0,0
42790,-125,4,2,1,40,0,0
42890,-142.857142857143,4,2,1,14,0,0
42990,-142.857142857143,4,2,1,12,0,0
43190,-142.857142857143,4,2,1,7,0,0
43390,-142.857142857143,4,2,1,5,0,0
43690,-200,4,2,1,30,0,0
43990,-100,4,2,1,45,0,0
44290,-100,4,2,1,5,0,0
44390,-100,4,2,2,45,0,0
44590,-100,4,2,1,45,0,0
45190,-142.857142857143,4,2,1,45,0,0
45590,-166.666666666667,4,2,1,45,0,0
45940,-166.666666666667,4,2,1,5,0,0
45990,-133.333333333333,4,2,1,45,0,0
46590,-142.857142857143,4,2,3,20,0,0
46790,375,4,2,1,30,1,0
46790,-142.857142857143,4,2,1,30,0,0
47590,400,4,2,1,30,1,0
47590,-166.666666666667,4,2,1,30,0,0
47990,-200,4,2,1,40,0,0
49290,-200,4,2,1,10,0,0
49590,375,4,2,1,40,1,8
49965,344.827586206897,4,2,1,40,1,0
50309,382.165605095541,4,2,2,50,1,8
50786,400,4,2,2,50,1,0
51086,413.793103448276,4,2,1,50,1,8
51590,447.761194029851,4,2,1,40,1,0
51813,384.615384615385,4,2,1,30,1,0
52341,-100,4,2,1,5,0,0
52390,400,4,2,2,30,1,0
52390,-100,4,2,2,30,0,0
52790,-125,4,2,1,30,0,0
52990,-125,4,2,3,30,0,0
53190,-125,4,2,1,30,0,0
53590,454.545454545455,4,2,1,30,1,0
53817,346.820809248555,4,2,1,30,1,0
53990,400,4,2,1,30,1,0
53990,-100,4,2,1,30,0,0
54390,-83.3333333333333,4,2,1,30,0,0
54790,-100,4,2,1,30,0,0
55590,-125,4,2,1,40,0,0
55690,-125,4,2,1,10,0,0
55990,-100,4,2,1,30,0,0
56790,-100,4,2,1,40,0,0
57190,-100,4,2,2,40,0,0
57790,-100,4,2,1,30,0,0
58740,-100,4,2,1,5,0,0
58790,-100,4,2,2,30,0,0
59025,397.350993377483,4,2,1,30,1,0
59025,-100,4,2,1,40,0,0
59422,-100,4,2,3,40,0,0
59621,-100,4,2,1,40,0,0
60390,400,4,2,1,45,1,0
60639,392.156862745098,4,2,1,45,1,0
61990,400,4,2,1,55,1,0
62290,368.098159509202,4,2,1,55,1,0
62565,451.127819548872,4,2,1,55,1,0
62790,400,4,2,1,55,1,0
63090,368.098159509202,4,2,1,55,1,0
63365,451.127819548872,4,2,1,55,1,0
63590,400,4,2,1,55,1,0
64390,-100,4,2,1,40,0,0
65140,-100,4,2,1,5,0,0
65190,-100,4,2,2,40,0,0
65590,-100,4,2,1,40,0,0
65790,-100,4,2,3,40,0,0
65990,-100,4,2,1,40,0,0
66740,-100,4,2,1,5,0,0
66790,-100,4,2,1,40,0,0
67190,-133.333333333333,4,2,1,30,0,0
68390,300,4,2,1,40,1,0
68690,230.769230769231,4,2,1,50,1,0
68690,-100,4,2,1,50,0,0
69061,257.510729613734,4,2,1,50,1,0
69190,303.030303030303,4,2,1,50,1,0
69190,-133.333333333333,4,2,1,50,0,0
69341,-133.333333333333,4,2,1,40,0,0
69493,292.682926829268,4,2,1,40,1,0
69493,-133.333333333333,4,2,1,40,0,0
69785,410.958904109589,4,2,1,40,1,0
69990,400,4,2,1,45,1,0
70690,-100,4,2,1,20,0,0
70790,400,4,2,1,30,1,0
70790,-100,4,2,1,40,0,0
71540,-100,4,2,1,5,0,0
71590,-100,4,2,2,30,0,0
71790,-100,4,2,1,40,0,0
72190,-100,4,2,3,40,0,0
72390,-100,4,2,1,40,0,0
72740,-100,4,2,1,5,0,0
72790,-100,4,2,1,40,0,0
73140,-100,4,2,1,5,0,0
73190,-100,4,2,1,40,0,0
73590,-100,4,2,1,30,0,0
74740,-100,4,2,1,5,0,0
74790,-100,4,2,1,30,0,0
74890,-100,4,2,1,5,0,0
77190,400,7,2,0,10,1,0
77190,-100,7,2,0,10,0,0
88390,-100,7,2,1,20,0,0
92590,-100,7,2,0,20,0,0
93990,-100,7,2,1,20,0,0
95390,-100,7,2,0,20,0,0
95590,-100,7,2,1,20,0,0
99590,-100,7,2,1,50,0,0
99640,-100,7,2,1,5,0,0
100990,-100,7,2,1,50,0,0
101040,-100,7,2,1,5,0,0
101790,-100,7,2,1,50,0,0
101840,-100,7,2,1,5,0,0
102390,-83.3333333333333,7,2,1,50,0,0
102440,-83.3333333333333,7,2,1,5,0,0
104790,-100,7,2,0,50,0,0
105190,-111.111111111111,7,2,1,50,0,0
105240,-111.111111111111,7,2,1,5,0,0
107790,-111.111111111111,7,2,1,50,0,0
108040,-111.111111111111,7,2,1,5,0,0
108790,-111.111111111111,7,2,0,20,0,0
109190,-111.111111111111,7,2,1,40,0,0
110190,-99.9999999999999,7,2,1,50,0,0
113590,-76.9230769230769,7,2,1,50,0,0
114140,-76.9230769230769,7,2,1,5,0,0
114190,-76.9230769230769,7,2,1,50,0,0
114390,-99.9999999999999,7,2,1,50,0,0
114590,-99.9999999999999,7,2,0,50,0,0
114990,-99.9999999999999,7,2,1,50,0,0
115990,-99.9999999999999,7,2,0,50,0,0
116390,-99.9999999999999,7,2,1,50,0,0
117290,-99.9999999999999,7,2,0,50,0,0
117790,-99.9999999999999,7,2,1,50,0,0
119190,-99.9999999999999,7,2,1,40,0,0
120190,-99.9999999999999,7,2,0,40,0,0
120590,-99.9999999999999,7,2,1,40,0,0
120990,-200,7,2,1,40,0,0
121190,-200,7,2,1,30,0,0
121390,-200,7,2,1,40,0,0
121990,-83.3333333333333,7,2,1,50,0,0
123190,-83.3333333333333,7,2,0,50,0,0
123390,-83.3333333333333,7,2,1,50,0,0
123890,-83.3333333333333,7,2,0,50,0,0
124390,-83.3333333333333,7,2,1,50,0,0
125790,-83.3333333333333,7,2,0,50,0,0
126190,-83.3333333333333,7,2,1,50,0,0
126990,-83.3333333333333,7,2,1,40,0,0
127190,-100,7,2,0,40,0,0
127390,-125,7,2,0,40,0,0
127590,-100,7,2,1,40,0,0
128990,-100,7,2,1,50,0,0
129090,-100,7,2,0,50,0,0
129390,-100,7,2,1,50,0,0
129790,-71.4285714285714,7,2,1,50,0,0
129890,-71.4285714285714,7,2,1,5,0,0
129990,-100,7,2,0,50,0,0
130390,-100,7,2,1,50,0,0
130940,-100,7,2,1,5,0,0
130990,-100,7,2,1,40,0,0
131390,-100,7,2,0,40,0,0
131790,-100,7,2,1,50,0,0
132590,-100,7,2,0,50,0,0
132790,-100,7,2,1,50,0,0
133190,-76.9230769230769,7,2,5,60,0,0
135590,-76.9230769230769,7,2,0,60,0,0
135790,-76.9230769230769,7,2,5,60,0,0
135990,-100,7,2,5,60,0,0
137190,-100,7,2,6,60,0,0
137390,-100,7,2,5,60,0,0
138390,-100,7,2,0,60,0,0
138790,-100,7,2,5,60,0,0
139940,-100,7,2,5,5,0,0
139990,-100,7,2,5,60,0,0
142590,-100,7,2,0,60,0,0
142790,-100,7,2,6,60,0,0
142990,-100,7,2,5,60,0,0
143190,-100,7,2,0,60,0,0
143390,-200,7,2,2,60,0,0
143590,-200,7,2,2,30,0,0
143790,-100,7,2,0,60,0,0
143990,-100,7,2,5,60,0,0
144390,-76.9230769230769,7,2,5,60,0,0
145590,-76.9230769230769,7,2,6,60,0,0
145790,-76.9230769230769,7,2,5,60,0,0
146290,-76.9230769230769,7,2,6,60,0,0
146790,-76.9230769230769,7,2,5,60,0,0
146990,-66.6666666666667,7,2,5,60,0,0
147390,-83.3333333333333,7,2,5,60,0,0
148390,-83.3333333333333,7,2,6,60,0,0
148590,-76.9230769230769,7,2,5,60,0,0
149390,-76.9230769230769,7,2,5,60,0,0
149590,-95.2380952380952,7,2,0,60,0,0
149790,-125,7,2,0,60,0,0
149990,-100,7,2,5,60,0,0
150790,-76.9230769230769,7,2,5,60,0,0
151490,-76.9230769230769,7,2,0,60,0,0
151790,-76.9230769230769,7,2,5,60,0,0
152190,-71.4285714285714,7,2,5,60,0,0
152290,-71.4285714285714,7,2,5,5,0,0
152390,-100,7,2,3,60,0,0
152490,-100,7,2,0,60,0,0
152790,-100,7,2,5,60,0,0
153790,-100,7,2,0,60,0,0
154190,-100,7,2,5,60,0,0
155290,-100,7,2,0,60,0,0
155590,-100,7,2,5,30,0,0
166790,-66.6666666666667,7,2,1,80,0,1
167190,-66.6666666666667,7,2,7,80,0,1
167390,-66.6666666666667,7,2,1,80,0,1
167590,-66.6666666666667,7,2,7,80,0,1
167790,-66.6666666666667,7,2,1,80,0,1
168390,-66.6666666666667,7,2,7,80,0,1
168590,-66.6666666666667,7,2,1,80,0,1
168790,-66.6666666666667,7,2,7,80,0,1
168990,-66.6666666666667,7,2,1,80,0,1
169190,-66.6666666666667,7,2,7,80,0,1
169390,-66.6666666666667,7,2,1,80,0,1
169990,-66.6666666666667,7,2,7,80,0,1
170190,-66.6666666666667,7,2,1,80,0,1
170390,-66.6666666666667,7,2,7,80,0,1
170590,-66.6666666666667,7,2,1,80,0,1
171590,-66.6666666666667,7,2,7,80,0,1
171790,-66.6666666666667,7,2,1,80,0,1
171990,-66.6666666666667,7,2,7,80,0,1
172190,-66.6666666666667,7,2,1,80,0,1
172390,-58.8235294117647,7,2,1,80,0,1
175190,-52.6315789473684,7,2,1,80,0,1
177590,-52.6315789473684,7,2,0,80,0,0
177990,-100,7,2,1,40,0,1
178040,-100,7,2,1,5,0,1
178390,-76.9230769230769,7,2,1,40,0,1
178440,-76.9230769230769,7,2,1,5,0,1
178990,-90.9090909090909,7,2,1,40,0,1
179040,-90.9090909090909,7,2,1,5,0,1
179590,-90.9090909090909,7,2,0,40,0,1
179640,-90.9090909090909,7,2,1,5,0,1
180190,-66.6666666666667,7,2,0,40,0,1
180240,-66.6666666666667,7,2,1,5,0,1
180790,400,4,2,1,40,1,1
180790,-66.6666666666667,4,2,1,40,0,1
180840,-66.6666666666667,4,2,1,5,0,1
182190,-66.6666666666667,4,2,1,40,0,1
182990,-66.6666666666667,4,2,1,40,0,1
183040,-66.6666666666667,4,2,1,5,0,1
183390,-66.6666666666667,4,2,1,40,0,1
183790,-66.6666666666667,4,2,0,40,0,1
183990,400,7,2,1,40,1,1
183990,-76.9230769230769,7,2,1,40,0,1
184040,-76.9230769230769,7,2,1,5,0,1
184390,-66.6666666666667,7,2,1,40,0,1
184440,-66.6666666666667,7,2,1,5,0,1
184990,-83.3333333333333,7,2,1,40,0,1
185040,-83.3333333333333,7,2,1,5,0,1
185390,-83.3333333333333,7,2,1,40,0,1
185640,-83.3333333333333,7,2,1,5,0,1
186190,-71.4285714285714,7,2,0,40,0,1
186240,-71.4285714285714,7,2,1,5,0,1
186590,-71.4285714285714,7,2,1,40,0,1
186790,400,4,2,1,40,1,1
186790,-58.8235294117647,4,2,1,40,0,1
186840,-58.8235294117647,4,2,1,5,0,1
187390,-58.8235294117647,4,2,1,40,0,1
187440,-58.8235294117647,4,2,1,5,0,1
189390,-58.8235294117647,4,2,1,20,0,1
189990,400,7,2,1,40,1,0
189990,-133.333333333333,7,2,1,40,0,0
192390,-133.333333333333,7,2,0,40,0,0
192790,-133.333333333333,7,2,1,40,0,0
194390,-100,7,2,0,40,0,0
194590,-100,7,2,1,40,0,0
194690,-100,7,2,0,40,0,0
194990,-100,7,2,1,40,0,0
195190,-100,7,2,0,40,0,0
195590,-133.333333333333,7,2,1,40,0,0
197190,-100,7,2,0,40,0,0
197390,-100,7,2,1,40,0,0
197490,-100,7,2,4,40,0,0
198390,-100,7,2,1,40,0,0
199390,-100,7,2,4,40,0,0
199790,-100,7,2,1,40,0,0
200190,-100,7,2,0,40,0,0
200590,-100,7,2,1,40,0,0
201190,-100,7,2,5,40,0,0
203390,-100,7,2,4,40,0,0
203990,-100,7,2,5,40,0,0
204790,-66.6666666666667,7,2,5,40,0,0
205390,-100,7,2,5,40,0,0
206390,-100,7,2,0,40,0,0
206790,-100,7,2,5,40,0,0
208390,-83.3333333333333,7,2,5,40,0,0
208690,-83.3333333333333,7,2,4,40,0,0
209190,-83.3333333333333,7,2,0,40,0,0
209590,-100,7,2,5,40,0,0
210590,-100,7,2,0,40,0,0
210790,-100,7,2,5,40,0,0
211290,-100,7,2,1,5,0,0
211390,-100,7,2,5,40,0,0
211590,-100,7,2,0,40,0,0
211990,-100,7,2,4,40,0,0
212390,400,4,2,7,40,1,0
212390,-200,4,2,7,50,0,0
215590,-142.857142857143,4,2,7,50,0,0
218790,-142.857142857143,4,2,8,60,0,1
219590,-142.857142857143,4,2,8,55,0,1
220390,-142.857142857143,4,2,8,50,0,1
221190,-142.857142857143,4,2,8,45,0,1
221990,-125,4,2,8,40,0,1
222790,-125,4,2,8,50,0,1
225190,-125,4,2,8,55,0,1
225990,-125,4,2,8,55,0,1
228390,-125,4,2,7,60,0,1
228490,-125,4,2,8,60,0,1
231590,-83.3333333333333,4,2,1,60,0,1
231690,-83.3333333333333,4,2,1,5,0,1
232190,-83.3333333333333,4,2,1,60,0,1
232590,-83.3333333333333,4,2,0,60,0,1
232990,-83.3333333333333,4,2,0,50,0,1
233190,-133.333333333333,4,2,1,50,0,1
234590,-133.333333333333,4,2,0,40,0,1
234790,400,7,2,0,40,1,0
234790,-142.857142857143,7,2,0,40,0,0
243190,-111.111111111111,7,2,1,40,0,0
245190,-90.9090909090908,7,2,1,40,0,0
245590,-90.9090909090908,7,2,0,40,0,0
245990,-111.111111111111,7,2,1,40,0,0
247190,-111.111111111111,7,2,0,40,0,0
247390,-111.111111111111,7,2,1,40,0,0
248390,-111.111111111111,7,2,3,40,0,0
248590,-111.111111111111,7,2,1,40,0,0
249990,-111.111111111111,7,2,0,40,0,0
250190,-111.111111111111,7,2,1,40,0,0
251190,-111.111111111111,7,2,0,40,0,0
251590,-111.111111111111,7,2,1,40,0,0
252790,-111.111111111111,7,2,0,40,0,0
252990,-111.111111111111,7,2,1,40,0,0
253990,-111.111111111111,7,2,3,40,0,0
254190,-111.111111111111,7,2,1,40,0,0
255390,-111.111111111111,7,2,0,40,0,0
255790,-111.111111111111,7,2,1,40,0,0
256790,-111.111111111111,7,2,0,40,0,0
257190,400,4,2,5,40,1,0
257190,-111.111111111111,4,2,5,40,0,0
257990,-111.111111111111,4,2,8,40,0,0
258190,-111.111111111111,4,2,1,40,0,0
258390,-111.111111111111,4,2,5,40,0,0
258590,-74.0740740740741,4,2,2,40,0,0
258790,-74.0740740740741,4,2,5,40,0,0
258990,-74.0740740740741,4,2,2,40,0,0
259190,-74.0740740740741,4,2,5,40,0,0
259390,-100,4,2,2,40,0,0
259590,-100,4,2,5,40,0,0
259790,-100,4,2,2,40,0,0
259990,-100,4,2,8,40,0,0
260190,-100,4,2,5,40,0,0
260790,-100,4,2,8,40,0,0
260990,-83.3333333333333,4,2,5,40,0,0
261390,-83.3333333333333,4,2,1,40,0,0
261590,-83.3333333333333,4,2,5,40,0,0
261790,-200,4,2,5,30,0,0
261890,-200,4,2,6,20,0,0
262190,-166.666666666667,4,2,5,25,0,0
262290,-166.666666666667,4,2,0,25,0,0
262390,-142.857142857143,4,2,6,30,0,0
262590,-125,4,2,6,35,0,0
262790,-166.666666666667,4,2,1,25,0,0
262990,-125,4,2,1,30,0,0
263190,-100,4,2,8,35,0,0
263290,-100,4,2,0,35,0,0
263390,-83.3333333333333,4,2,0,40,0,0
263590,-83.3333333333333,4,2,8,50,0,0
263790,-83.3333333333333,4,2,5,50,0,0
263990,-83.3333333333333,4,2,6,50,0,0
264190,-83.3333333333333,4,2,5,50,0,0
264590,-83.3333333333333,4,2,1,50,0,0
264790,-83.3333333333333,4,2,5,50,0,0
264990,-83.3333333333333,4,2,0,50,0,0
265190,-83.3333333333333,4,2,5,50,0,0
265390,-83.3333333333333,4,2,1,50,0,0
265590,-83.3333333333333,4,2,8,50,0,0
265790,-142.857142857143,4,2,4,25,0,0
265990,-142.857142857143,4,2,6,30,0,0
266190,-100,4,2,6,35,0,0
266390,-100,4,2,8,40,0,0
266490,-100,4,2,2,45,0,0
266590,-76.923076923077,4,2,2,50,0,0
266790,-76.923076923077,4,2,8,60,0,0
266990,-76.923076923077,4,2,0,60,0,0
267390,-76.923076923077,4,2,5,40,0,0
267590,-66.6666666666667,4,2,0,40,0,0
268390,-66.6666666666667,4,2,7,45,0,0
270790,-66.6666666666667,4,2,1,45,0,0
271590,-57.1428571428571,4,2,7,45,0,0
273990,-57.1428571428571,4,2,1,45,0,0
274790,-50,4,2,7,45,0,0
277190,-47.6190476190476,4,2,1,45,0,0
277456,-40,4,2,1,55,0,0
277723,-34.4827586206897,4,2,1,65,0,0
277790,-34.4827586206897,4,2,99,75,0,0
277990,-28.5714285714286,4,2,7,90,0,1
278723,-28.5714285714286,4,2,7,5,0,1
278790,-50,4,2,7,80,0,1
279590,-66.6666666666667,4,2,7,75,0,1
280390,-66.6666666666667,4,2,9,60,0,1
281190,-50,4,2,1,60,0,1
281990,-66.6666666666667,4,2,1,50,0,1
283590,-66.6666666666667,4,2,1,80,0,1
283856,-66.6666666666667,4,2,0,80,0,1
284390,-76.9230769230769,4,2,1,80,0,1
285123,-76.9230769230769,4,2,1,5,0,1
285190,-83.3333333333333,4,2,1,70,0,1
285856,-83.3333333333333,4,2,1,40,0,1
285990,-83.3333333333333,4,2,1,90,0,1
286390,-83.3333333333333,4,2,1,80,0,1
286790,-76.9230769230769,4,2,0,70,0,1
287190,-76.9230769230769,4,2,0,60,0,1
287590,-90.9090909090909,4,2,1,60,0,1
287990,-76.9230769230769,4,2,9,70,0,1
289190,-76.9230769230769,4,2,1,60,0,1
289590,-76.9230769230769,4,2,1,80,0,1
289990,-50,4,2,1,100,0,1
290790,-50,4,2,1,80,0,1
293590,-50,4,2,1,5,0,1
293990,400,7,2,1,40,1,0
293990,-133.333333333333,7,2,1,40,0,0
296390,-133.333333333333,7,2,0,40,0,0
296790,-133.333333333333,7,2,1,40,0,0
298390,-100,7,2,0,40,0,0
298590,-100,7,2,1,40,0,0
298690,-100,7,2,0,40,0,0
298990,-100,7,2,1,40,0,0
299190,-100,7,2,0,40,0,0
299590,-133.333333333333,7,2,1,40,0,0
301190,-100,7,2,0,40,0,0
301390,-100,7,2,1,40,0,0
301490,-100,7,2,0,40,0,0
301790,-100,7,2,9,40,0,0
301890,-100,7,2,0,40,0,0
302390,-100,7,2,1,40,0,0
303390,-100,7,2,0,40,0,0
303790,-100,7,2,1,40,0,0
304290,-100,7,2,0,40,0,0
304590,-100,7,2,1,40,0,0
305590,-100,7,2,5,40,0,0
305790,-100,7,2,1,40,0,0
305990,-100,7,2,8,40,0,0
306590,-100,7,2,5,40,0,0
307390,-83.3333333333333,7,2,1,40,0,0
308390,-83.3333333333333,7,2,5,40,0,0
308590,-83.3333333333333,7,2,1,40,0,0
308790,-83.3333333333333,7,2,8,40,0,0
309390,-100,7,2,5,40,0,0
310390,-100,7,2,0,40,0,0
310790,-100,7,2,5,40,0,0
311590,-100,7,2,8,40,0,0
311790,-100,7,2,1,40,0,0
311990,-100,7,2,8,40,0,0
312090,-100,7,2,1,40,0,0
312390,-83.3333333333333,7,2,0,40,0,0
312590,-83.3333333333333,7,2,5,40,0,0
312690,-83.3333333333333,7,2,6,40,0,0
313190,-83.3333333333333,7,2,0,40,0,0
313590,-100,7,2,5,40,0,0
314390,-100,7,2,8,40,0,0
314590,-100,7,2,1,40,0,0
314790,-100,7,2,8,40,0,0
314990,-100,7,2,5,40,0,0
315390,-83.3333333333333,7,2,5,40,0,0
315990,-83.3333333333333,7,2,1,40,0,0
316390,-76.9230769230769,7,2,5,50,0,0
317590,-76.9230769230769,7,2,8,50,0,0
317790,-76.9230769230769,7,2,5,50,0,0
318590,-76.9230769230769,7,2,1,50,0,0
319190,-66.6666666666667,7,2,5,50,0,0
319990,-100,7,2,5,50,0,0
320190,-100,7,2,6,50,0,0
320590,-100,7,2,1,50,0,0
321590,-100,7,2,0,50,0,0
321990,-100,7,2,5,50,0,0
322790,-76.9230769230769,7,2,8,50,0,0
322990,-76.9230769230769,7,2,1,50,0,0
323190,-76.9230769230769,7,2,8,50,0,0
323290,-76.9230769230769,7,2,1,50,0,0
323390,-100,7,2,5,50,0,0
323990,-100,7,2,8,50,0,0
324190,-66.6666666666667,7,2,1,50,0,0
325190,-66.6666666666667,7,2,8,50,0,0
325390,-66.6666666666667,7,2,1,50,0,0
325590,-66.6666666666667,7,2,5,50,0,0
325790,-66.6666666666667,7,2,6,50,0,0
326190,-66.6666666666667,7,2,1,50,0,0
326390,-66.6666666666667,7,2,8,50,0,0
326590,-66.6666666666667,7,2,1,50,0,0
326790,-66.6666666666667,7,2,8,50,0,0
326890,-66.6666666666667,7,2,1,50,0,0
326990,-66.6666666666667,7,2,5,50,0,0
327590,-83.3333333333333,7,2,5,50,0,0
328190,-83.3333333333333,7,2,1,50,0,0
328390,-83.3333333333333,7,2,8,50,0,0
328590,-83.3333333333333,7,2,0,50,0,0
328790,-83.3333333333333,7,2,8,50,0,0
328990,-83.3333333333333,7,2,5,50,0,0
329390,-83.3333333333333,7,2,0,50,0,0
329990,-83.3333333333333,7,2,5,50,0,0
330990,-83.3333333333333,7,2,1,50,0,0
331190,-83.3333333333333,7,2,8,50,0,0
331390,-83.3333333333333,7,2,0,50,0,0
331790,-83.3333333333333,7,2,1,50,0,0
332790,-83.3333333333333,7,2,0,50,0,0
333190,-83.3333333333333,7,2,5,50,0,0
333990,-83.3333333333333,7,2,8,50,0,0
334190,-83.3333333333333,7,2,1,50,0,0
334390,-83.3333333333333,7,2,8,50,0,0
334490,-83.3333333333333,7,2,1,50,0,0
334590,-83.3333333333333,7,2,5,50,0,0
335090,-83.3333333333333,7,2,1,50,0,0
335190,-83.3333333333333,7,2,8,50,0,0
335290,-83.3333333333333,7,2,1,50,0,0
335390,-66.6666666666667,7,2,1,50,0,0
335590,-66.6666666666667,7,2,0,50,0,0
335990,-66.6666666666667,7,2,5,50,0,0
336390,-66.6666666666667,7,2,8,50,0,0
336590,-66.6666666666667,7,2,1,50,0,0
336790,-83.3333333333333,7,2,5,50,0,0
336990,-83.3333333333333,7,2,6,50,0,0
337390,-83.3333333333333,7,2,1,50,0,0
337590,-83.3333333333333,7,2,8,50,0,0
337790,-66.6666666666667,7,2,1,50,0,0
337990,-66.6666666666667,7,2,8,50,0,0
338090,-66.6666666666667,7,2,1,50,0,0
338390,-66.6666666666667,7,2,0,50,0,0
338790,-76.9230769230769,7,2,5,60,0,0
339590,-76.9230769230769,7,2,8,60,0,0
340190,-76.9230769230769,7,2,5,60,0,0
340990,-66.6666666666667,7,2,1,60,0,0
341590,-76.9230769230769,7,2,5,60,0,0
342190,-76.9230769230769,7,2,1,60,0,0
342390,-76.9230769230769,7,2,8,60,0,0
342590,-76.9230769230769,7,2,6,60,0,0
342990,-76.9230769230769,7,2,1,60,0,0
343990,-76.9230769230769,7,2,0,60,0,0
344390,-76.9230769230769,7,2,5,60,0,0
345190,-76.9230769230769,7,2,8,60,0,0
345390,-76.9230769230769,7,2,1,60,0,0
345590,-76.9230769230769,7,2,8,60,0,0
345690,-76.9230769230769,7,2,1,60,0,0
345990,-76.9230769230769,7,2,5,60,0,0
346190,-76.9230769230769,7,2,1,60,0,0
346390,-76.9230769230769,7,2,8,60,0,0
346590,-66.6666666666667,7,2,1,60,0,0
346790,-66.6666666666667,7,2,8,60,0,0
346890,-66.6666666666667,7,2,1,60,0,0
347190,-66.6666666666667,7,2,5,60,0,0
347590,-66.6666666666667,7,2,8,60,0,0
347790,-66.6666666666667,7,2,1,60,0,0
347990,-66.6666666666667,7,2,8,60,0,0
348190,-66.6666666666667,7,2,0,60,0,0
348390,-66.6666666666667,7,2,6,60,0,0
348590,-66.6666666666667,7,2,1,60,0,0
348790,-66.6666666666667,7,2,8,60,0,0
348990,-66.6666666666667,7,2,1,60,0,0
349190,-66.6666666666667,7,2,8,60,0,0
349290,-66.6666666666667,7,2,1,60,0,0
349390,-66.6666666666667,7,2,5,60,0,0
349990,-76.9230769230769,7,2,5,60,0,0
350590,-76.9230769230769,7,2,1,60,0,0
350790,-76.9230769230769,7,2,8,60,0,0
351190,-76.9230769230769,7,2,6,60,0,0
351390,-76.9230769230769,7,2,5,60,0,0
351790,-76.9230769230769,7,2,0,60,0,0
352390,-76.9230769230769,7,2,5,60,0,0
352590,-66.6666666666667,7,2,5,60,0,0
352990,-83.3333333333333,7,2,5,60,0,0
353390,-83.3333333333333,7,2,1,60,0,0
353590,-83.3333333333333,7,2,8,60,0,0
353790,-83.3333333333333,7,2,6,60,0,0
354190,-83.3333333333333,7,2,1,60,0,0
355190,-83.3333333333333,7,2,0,60,0,0
355590,-76.9230769230769,7,2,5,60,0,0
356390,-76.9230769230769,7,2,8,60,0,0
356590,-76.9230769230769,7,2,1,60,0,0
356790,-76.9230769230769,7,2,8,60,0,0
356890,-76.9230769230769,7,2,1,60,0,0
357090,-76.9230769230769,7,2,6,60,0,0
357390,-76.9230769230769,7,2,1,60,0,0
357590,-76.9230769230769,7,2,8,60,0,0
357690,-76.9230769230769,7,2,1,60,0,0
357790,-66.6666666666667,7,2,1,60,0,0
357990,-66.6666666666667,7,2,0,60,0,0
358390,-66.6666666666667,7,2,5,60,0,0
358590,-66.6666666666667,7,2,0,60,0,0
358790,-66.6666666666667,7,2,8,60,0,0
358990,-66.6666666666667,7,2,1,60,0,0
359190,-100,7,2,5,60,0,0
359390,-100,7,2,6,60,0,0
359790,-100,7,2,1,60,0,0
360190,-66.6666666666667,7,2,1,60,0,0
360990,-66.6666666666667,7,2,0,60,0,0
361190,-66.6666666666667,7,2,5,30,0,0

[Colours]
Combo1 : 255,100,104
Combo2 : 254,175,152
Combo3 : 148,67,123

[HitObjects]
275,207,390,6,0,L|280:140,1,56,0|0,3:0|2:0,0:0:0:0:
495,153,1190,2,0,P|502:191|496:245,1,83.9999974365235,2|0,2:0|2:0,0:0:0:0:
456,351,1990,1,0,2:0:0:0:
412,288,2390,1,0,2:0:0:0:
421,176,2790,1,2,2:0:0:0:
322,356,3190,2,0,P|256:367|184:347,1,140,0|0,2:0|2:0,0:0:0:0:
261,219,4390,2,0,P|150:207|44:296,1,251.999992309571,2|0,2:0|2:0,0:0:0:0:
0,132,5990,6,0,L|1:97,1,24.4999992523194,2|0,2:0|2:0,0:0:0:0:
8,0,6390,2,0,P|17:21|22:39,1,35,0|0,2:0|2:0,0:0:0:0:
110,203,6790,6,0,P|146:219|171:221,1,56,0|0,3:0|2:0,0:0:0:0:
320,212,7590,1,0,2:0:0:0:
320,212,7656,1,0,2:0:0:0:
320,212,7723,1,0,2:0:0:0:
163,133,7990,1,0,2:0:0:0:
172,330,8390,1,0,2:0:0:0:
239,291,8790,1,0,2:0:0:0:
226,177,9190,2,0,P|222:207|222:232,1,56,2|0,2:0|2:0,0:0:0:0:
260,77,9990,5,0,2:0:0:0:
262,87,10390,1,0,2:0:0:0:
350,312,10790,2,0,P|472:303|505:178,1,262.5,2|0,2:0|2:0,0:0:0:0:
474,123,12390,2,0,P|448:122|404:134,2,62.9999980773926,2|0|0,2:0|2:0|2:0,0:0:0:0:
224,82,13190,6,0,L|217:151,1,70,0|0,3:0|2:0,0:0:0:0:
318,265,13990,2,0,P|313:226|299:260,1,97.9999970092774,2|0,2:0|2:0,0:0:0:0:
321,110,14790,1,0,2:0:0:0:
219,240,15190,2,0,P|224:290|252:325,2,70,2|0|0,2:0|2:0|2:0,0:0:0:0:
68,195,16790,2,0,P|71:177|77:159,1,36.749998878479,2|0,0:0|0:0,0:0:0:0:
87,153,17190,2,0,B|116:189|91:230|86:230|77:230|49:259|57:308,1,167.999994873047
137,294,18390,5,2,2:0:0:0:
138,301,18790,1,0,2:0:0:0:
312,361,18990,2,0,P|368:361|421:341,1,112,2|0,2:0|2:0,0:0:0:0:
477,246,19590,6,0,P|416:242|346:259,1,122.5,0|0,3:0|2:0,0:0:0:0:
287,249,20390,2,0,P|261:221|293:231,1,97.9999970092774,2|0,2:0|2:0,0:0:0:0:
246,343,21190,1,0,2:0:0:0:
197,180,21590,1,0,2:0:0:0:
162,278,21990,1,2,2:0:0:0:
103,339,22390,2,0,P|77:275|96:226,1,112,0|0,2:0|2:0,0:0:0:0:
248,200,24990,6,0,P|268:200|288:197,2,35,0|2|2,3:0|2:0|2:0,0:0:0:0:
377,75,25990,6,0,P|423:75|460:87,1,84.2099974365235,4|0,3:1|2:0,0:0:0:0:
396,280,26790,2,8,L|405:172,1,105,12|2,2:0|2:0,0:0:0:0:
507,228,27590,2,0,L|512:297,1,70,4|0,3:0|2:0,0:0:0:0:
250,384,28390,6,0,P|249:363|243:338,1,42.2099987182618,14|0,2:0|2:0,0:0:0:0:
115,173,28790,2,0,P|142:207|172:234,1,84.2099974365235,2|4,2:0|2:3,0:0:0:0:
284,251,29590,1,0,3:0:0:0:
174,74,29990,2,0,L|159:50,8,17.5,10|2|2|2|2|2|2|2|2,2:0|2:0|2:0|2:0|2:0|2:0|2:0|2:0|2:0,0:0:0:0:
214,137,31190,1,0,3:0:0:0:
0,288,31590,6,0,P|56:280|82:267,1,84.2099974365235,14|2,2:0|2:0,0:0:0:0:
139,205,32190,1,0,2:0:0:0:
293,269,32390,2,0,P|380:288|482:247,1,196,4|0,3:1|2:0,0:0:0:0:
512,190,33190,5,8,2:0:0:0:
477,66,33390,1,0,3:0:0:0:
477,66,33490,1,0,3:0:0:0:
477,66,33590,2,0,P|467:94|468:113,1,27.9999991455078,2|2,2:0|2:0,0:0:0:0:
322,184,33990,2,0,B|306:136|344:126|326:75,1,112,2|0,3:2|2:0,0:0:0:0:
308,365,34790,1,14,2:0:0:0:
141,266,35190,2,0,P|84:268|31:299,1,112,2|0,3:2|2:0,0:0:0:0:
115,381,35990,1,0,3:0:0:0:
167,150,36390,2,0,L|173:124,8,17.5,10|2|2|2|2|2|2|2|2,2:0|2:0|2:0|2:0|2:0|2:0|2:0|2:0|2:0,0:0:0:0:
151,221,37590,1,0,3:0:0:0:
319,355,37990,5,10,2:0:0:0:
388,317,38256,5,10,2:0:0:0:
435,253,38490,5,2,3:2:0:0:
459,178,38790,6,0,B|478:127|457:68,1,104.999996795654,4|0,3:1|2:0,0:0:0:0:
448,61,39390,2,0,P|440:75|438:90,1,28
359,311,39590,2,0,L|346:215,1,70,10|0,2:0|2:0,0:0:0:0:
99,55,39990,2,0,P|97:82|107:116,1,62.9999980773926,2|2,2:0|2:0,0:0:0:0:
147,186,40390,2,0,L|244:177,1,83.9999974365235,0|0,3:0|2:0,0:0:0:0:
286,103,40990,5,2,2:0:0:0:
106,261,41190,1,14,2:0:0:0:
188,110,41390,1,0,2:0:0:0:
150,348,41590,2,0,P|241:376|304:328,1,178.500003404617,2|0,3:2|2:0,0:0:0:0:
219,283,42390,1,2,3:2:0:0:
53,177,42790,2,0,B|41:170|41:170|17:164,8,28,10|2|2|2|2|2|2|2|2,2:0|2:0|2:0|2:0|2:0|2:0|2:0|2:0|2:0,0:0:0:0:
96,182,43690,6,0,L|122:179,1,23.3333333333347,0|0,2:0|2:0,0:0:0:0:
330,129,43990,6,0,P|376:99|398:39,1,105,2|0,3:2|2:0,0:0:0:0:
390,21,44390,1,12,2:0:0:0:
235,144,44590,1,2,3:2:0:0:
400,212,44790,2,0,P|383:167|387:130,1,70,2|0,2:0|2:0,0:0:0:0:
337,365,45190,6,0,P|301:373|264:364,1,65.3333313395183,4|2,3:1|2:0,0:0:0:0:
224,314,45590,2,0,P|188:306|150:314,1,73.7099977569581,2|0,2:0|2:0,0:0:0:0:
124,373,45990,2,0,P|135:313|136:214,1,157.500006008148,10|2,2:0|2:0,0:0:0:0:
109,111,46790,2,0,P|95:90|77:73,1,49.2449985046387,2|0,3:2|2:0,0:0:0:0:
240,56,47165,2,0,P|238:34|232:13,1,24.7449992523194,2|0,2:0|2:0,0:0:0:0:
409,133,47590,2,0,P|417:148|421:162,1,27.9999991455078,14|2,2:0|2:0,0:0:0:0:
436,259,47990,2,0,P|429:300|432:338,1,70,2|4,3:2|2:3,0:0:0:0:
474,347,48790,1,0,3:0:0:0:
325,294,49190,2,0,L|297:282,3,17.5,10|2|2|2,2:0|2:0|2:0|2:0,0:0:0:0:
218,356,49590,6,0,P|204:353|183:354,3,35.0933333333333,2|2|2|2,2:0|2:0|2:0|2:0,0:0:0:0:
102,287,49965,2,0,P|111:301|117:318,3,35.1166666666653,2|2|2|2,2:0|2:0|2:0|2:0,0:0:0:0:
221,211,50309,5,2,2:0:0:0:
217,171,50404,1,2,2:0:0:0:
212,131,50500,1,2,2:0:0:0:
207,96,50595,6,0,L|177:114,1,35,2|2,2:0|2:0,0:0:0:0:
227,253,50786,2,0,L|282:219,1,35,14|2,2:0|2:0,0:0:0:0:
407,143,50986,1,14,2:0:0:0:
418,157,51086,2,0,L|440:183,4,35.0320833333333,2|2|2|2|2,2:0|2:0|2:0|2:0|2:0,0:0:0:0:
436,260,51590,5,4,3:1:0:0:
366,295,51701,1,2,2:0:0:0:
296,330,51813,2,0,P|186:344|101:303,1,175,2|0,2:0|2:0,0:0:0:0:
76,273,52390,1,12,2:0:0:0:
2,139,52790,2,0,L|70:145,1,56,2|2,2:0|2:0,0:0:0:0:
227,160,53190,1,4,3:0:0:0:
227,160,53590,1,0,2:0:0:0:
228,243,53817,5,0,2:0:0:0:
411,145,53990,2,0,P|373:184|304:196,1,105,14|2,2:0|2:0,0:0:0:0:
297,196,54390,2,0,P|267:168|227:160,1,83.9999974365235,0|2,2:0|2:0,0:0:0:0:
111,211,54790,2,0,P|161:256|228:243,1,140,4|0,2:3|3:0,0:0:0:0:
358,68,55590,2,0,L|377:42,3,28,10|2|2|2,2:0|2:0|2:0|2:0,0:0:0:0:
429,178,55990,6,0,P|424:221|434:258,1,70,2|2,2:0|2:0,0:0:0:0:
481,304,56390,2,0,P|405:321|357:278,1,140,4|0,2:3|3:0,0:0:0:0:
338,201,56990,1,2,2:0:0:0:
201,323,57190,2,0,P|91:288|61:198,1,210,12|2,2:0|2:0,0:0:0:0:
71,137,57890,1,2,2:0:0:0:
94,123,57990,2,0,B|220:61|224:178|345:112,1,262.5,4|0,3:1|2:0,0:0:0:0:
411,88,58790,1,12,2:0:0:0:
423,376,59025,5,2,2:0:0:0:
397,171,59223,1,2,2:0:0:0:
343,357,59422,1,0,2:0:0:0:
328,214,59621,1,4,3:0:0:0:
263,338,59819,1,2,2:0:0:0:
258,257,60018,1,0,2:0:0:0:
190,301,60217,1,2,2:0:0:0:
459,261,60390,5,14,2:0:0:0:
257,351,60639,1,0,2:0:0:0:
365,157,60835,1,2,2:0:0:0:
186,313,61031,1,2,2:0:0:0:
246,128,61227,5,4,2:3:0:0:
336,361,61423,1,0,2:0:0:0:
141,171,61619,1,2,3:2:0:0:
405,323,61815,1,2,2:0:0:0:
36,384,61990,5,10,2:0:0:0:
320,242,62290,1,2,2:0:0:0:
31,161,62565,1,2,2:0:0:0:
320,384,62790,5,2,2:0:0:0:
36,242,63090,1,2,2:0:0:0:
323,152,63365,1,2,2:0:0:0:
36,384,63590,5,10,2:0:0:0:
179,86,63856,1,10,2:0:0:0:
320,384,64123,1,2,3:2:0:0:
0,243,64390,6,0,P|68:168|215:195,1,262.5,4|0,3:1|2:0,0:0:0:0:
249,258,65190,1,12,2:0:0:0:
121,288,65590,5,2,2:0:0:0:
200,347,65790,1,2,2:0:0:0:
297,358,65990,2,0,P|333:332|357:293,1,70,2|2,3:2|2:0,0:0:0:0:
249,258,66390,2,0,P|303:206|350:198,1,122.5,2|0,2:0|2:0,0:0:0:0:
419,199,66790,1,12,2:0:0:0:
430,202,67190,2,0,L|420:311,1,105.000004005432,0|0,2:0|2:0,0:0:0:0:
287,345,67890,5,2,2:0:0:0:
282,330,67990,1,2,2:0:0:0:
272,311,68090,1,0,2:0:0:0:
252,289,68190,1,0,2:0:0:0:
220,269,68290,1,0,2:0:0:0:
143,270,68390,6,0,P|148:296|157:314,3,35,10|2|2|2,2:0|2:0|2:0|2:0,0:0:0:0:
73,241,68690,5,0,0:0:0:0:
75,230,68747,1,0,0:0:0:0:
77,219,68805,1,0,0:0:0:0:
79,208,68863,1,0,0:0:0:0:
81,197,68920,1,0,0:0:0:0:
83,186,68978,1,0,0:0:0:0:
83,150,69061,6,0,L|76:106,1,35,2|0,2:0|2:0,0:0:0:0:
124,40,69190,2,0,L|124:-4,1,26.3445010013509,2|0,2:0|2:0,0:0:0:0:
228,87,69341,5,2,2:0:0:0:
230,109,69417,1,2,2:0:0:0:
232,132,69493,2,0,L|281:128,3,26.3141676680236,2|0|0|0,2:0|3:2|2:0|2:0,0:0:0:0:
234,160,69785,2,0,L|217:161,2,17.5,0|0|0,2:0|2:0|2:0,0:0:0:0:
240,223,69990,5,8,2:0:0:0:
419,207,70190,2,0,P|501:246|499:335,1,175,4|0,2:3|2:0,0:0:0:0:
484,351,70790,2,0,B|431:322|379:346|379:346|340:324|340:324|283:353|225:327,1,262.5,4|0,3:1|2:0,0:0:0:0:
167,304,71590,1,12,2:0:0:0:
5,189,71790,5,2,2:0:0:0:
94,187,71990,1,2,2:0:0:0:
16,280,72190,1,2,2:0:0:0:
173,93,72390,2,0,P|235:98|274:144,1,122.5,4|2,3:0|2:0,0:0:0:0:
277,154,72790,1,2,2:0:0:0:
188,290,72990,2,0,P|185:261|190:222,1,52.5,2|0,2:0|2:0,0:0:0:0:
200,166,73190,1,12,2:0:0:0:
200,166,73590,2,0,P|224:213|243:156,1,140,0|4,2:0|2:3,0:0:0:0:
246,159,74390,5,0,3:2:0:0:
238,248,74590,2,0,P|236:276|238:305,1,52.5,2|0,2:0|2:0,0:0:0:0:
249,369,74790,2,0,B|351:368|359:266|359:266|368:173|433:106|433:106|468:195|428:292|428:292|392:397|512:403|513:249,1,770,8|0,2:0|2:0,0:0:0:0:
268,201,77190,6,0,P|261:234|267:272,2,70,2|0|0,3:2|2:0|2:0,0:0:0:0:
310,127,77790,1,0,2:0:0:0:
189,186,77990,2,0,P|202:154|225:128,2,70,2|0|0,2:0|2:0|2:0,0:0:0:0:
184,265,78590,5,2,3:2:0:0:
118,221,78790,2,0,P|83:216|49:223,2,70,0|0|0,2:0|2:0|2:0,0:0:0:0:
53,358,79390,2,0,P|74:331|85:298,2,70,2|0|0,2:0|2:0|2:0,0:0:0:0:
184,265,79990,6,0,P|194:298|216:324,1,70,2|0,3:2|2:0,0:0:0:0:
312,311,80390,2,0,P|300:276|279:249,1,70,0|0,2:0|2:0,0:0:0:0:
365,384,80790,2,0,P|388:357|400:325,2,70,2|0|0,2:0|2:0|2:0,0:0:0:0:
368,242,81390,6,0,P|402:236|436:242,1,70,2|0,3:2|2:0,0:0:0:0:
512,155,81790,2,0,P|477:160|443:154,1,70,0|0,2:0|2:0,0:0:0:0:
420,39,82190,2,0,P|452:51|479:74,2,70,2|0|0,2:0|2:0|2:0,0:0:0:0:
200,68,82790,6,0,P|193:33|196:0,2,70,2|0|0,3:2|2:0|2:0,0:0:0:0:
255,127,83390,1,0,2:0:0:0:
125,155,83590,2,0,P|128:120|121:86,2,70,2|0|0,2:0|2:0|2:0,0:0:0:0:
264,213,84190,6,0,P|235:192|202:181,1,70,2|0,3:2|2:0,0:0:0:0:
145,305,84590,2,0,P|176:290|202:267,1,70,0|0,2:0|2:0,0:0:0:0:
125,155,84990,2,0,P|121:189|128:223,2,70,2|0|0,2:0|2:0|2:0,0:0:0:0:
287,297,85590,6,0,P|293:332|291:366,1,70,2|0,3:2|2:0,0:0:0:0:
213,244,85990,2,0,P|239:222|271:208,1,70,0|0,2:0|2:0,0:0:0:0:
206,336,86390,2,0,P|173:325|144:304,2,70,2|0|0,2:0|2:0|2:0,0:0:0:0:
287,297,86990,5,2,3:2:0:0:
287,297,87190,2,0,P|283:331|290:365,2,70,0|0|0,2:0|2:0|2:0,0:0:0:0:
308,196,87790,1,2,2:0:0:0:
316,170,87990,1,0,2:0:0:0:
324,144,88190,1,0,2:0:0:0:
189,172,88390,6,0,P|161:209|125:222,1,70,4|0,3:1|2:0,0:0:0:0:
64,180,88790,2,0,P|34:197|16:227,1,70,0|0,2:0|2:0,0:0:0:0:
142,307,89190,1,2,2:0:0:0:
226,309,89390,1,0,2:0:0:0:
310,311,89590,1,0,2:0:0:0:
467,169,89790,6,0,P|454:136|428:113,3,70,6|0|0|0,3:2|2:0|2:0|2:0,0:0:0:0:
345,65,90590,6,0,P|367:38|400:20,2,70,4|0|0,3:1|2:0|2:0,0:0:0:0:
270,240,91190,6,0,P|247:266|214:278,1,70,6|0,3:2|2:0,0:0:0:0:
229,164,91590,2,0,P|270:152|297:157,1,70,0|0,2:0|2:0,0:0:0:0:
427,214,91990,1,2,2:0:0:0:
399,294,92190,1,0,2:0:0:0:
371,374,92390,1,0,0:0:0:0:
343,384,92590,1,0,3:0:0:0:
337,299,92790,1,0,2:0:0:0:
331,214,92990,1,0,2:0:0:0:
175,366,93190,6,0,L|170:310,1,35,4|4,3:0|3:0,0:0:0:0:
162,252,93390,1,8,3:0:0:0:
151,120,93590,1,0,3:0:0:0:
162,141,93790,1,0,3:0:0:0:
175,162,93990,6,0,P|222:175|253:170,1,70,6|0,3:2|2:0,0:0:0:0:
374,97,94390,2,0,P|327:84|296:89,1,70,0|0,2:0|2:0,0:0:0:0:
303,236,94790,2,0,P|324:193|325:147,2,70,2|0|0,2:0|2:0|2:0,0:0:0:0:
402,236,95390,1,0,3:0:0:0:
497,235,95590,2,0,P|490:269|473:299,1,70,0|0,2:0|2:0,0:0:0:0:
431,151,95990,1,0,0:0:0:0:
303,236,96190,2,0,P|309:201|326:171,1,70,2|0,2:0|2:0,0:0:0:0:
401,352,96590,5,4,3:2:0:0:
140,338,96790,2,0,P|131:303|135:267,1,70,4|0,3:1|2:0,0:0:0:0:
64,216,97190,2,0,P|89:190|122:176,1,70,0|0,2:0|2:0,0:0:0:0:
199,137,97590,2,0,P|208:171|204:207,2,70,2|0|0,2:0|2:0|2:0,0:0:0:0:
403,74,98190,6,0,P|430:108|435:138,1,70,4|0,3:2|2:0,0:0:0:0:
317,197,98590,2,0,P|328:159|356:137,1,70,0|0,2:0|2:0,0:0:0:0:
492,241,98990,1,2,2:0:0:0:
416,278,99190,1,0,2:0:0:0:
340,315,99390,1,0,2:0:0:0:
214,365,99590,6,0,B|202:296|140:241|67:238|67:238|17:194|34:130|34:130|54:70|123:61,1,420,4|0,3:1|2:0,0:0:0:0:
306,106,100990,2,0,P|230:171|127:158,1,210,4|0,3:2|2:0,0:0:0:0:
312,9,101790,2,0,P|374:37|402:109,1,140,4|0,3:2|2:0,0:0:0:0:
403,349,102390,6,0,B|340:388|257:370|231:295|231:295|193:177|317:64|426:149|484:294|423:387|271:405|197:320|208:193|294:103|399:147|397:267|515:319|556:198|526:98|443:128|433:189,1,923.999971801759,4|0,3:1|2:0,0:0:0:0:
445,167,104790,6,0,L|448:208,2,35,0|0|0,3:0|3:0|3:0,0:0:0:0:
303,28,105190,6,0,B|216:-12|142:39|139:113|135:187|41:187|4:155|-21:117|-9:57|43:27|86:42|106:69|115:105|101:134|101:134|73:175|59:246|81:290|81:290|111:232|161:207,1,787.814975967408,4|0,3:1|2:0,0:0:0:0:
175,201,107790,1,4,3:2:0:0:
417,299,107990,2,0,P|333:384|220:346,1,252.314992309571,4|4,3:1|3:0,0:0:0:0:
303,271,109190,5,0,3:0:0:0:
308,276,109290,1,0,3:0:0:0:
313,281,109390,1,8,3:2:0:0:
318,286,109790,1,8,3:2:0:0:
323,291,110190,2,0,P|365:221|421:196,1,140,8|0,3:2|2:0,0:0:0:0:
201,342,110790,6,0,P|166:333|136:314,1,70,4|0,3:1|2:0,0:0:0:0:
62,205,111190,1,0,2:0:0:0:
213,229,111390,1,0,3:0:0:0:
56,86,111590,2,0,P|90:88|122:103,1,70,8|0,2:0|2:0,0:0:0:0:
217,235,111990,1,0,2:0:0:0:
458,121,112190,6,0,L|376:125,1,70,2|0,3:0|2:0,0:0:0:0:
186,135,112590,2,0,L|255:131,1,70,2|0,3:0|2:0,0:0:0:0:
471,215,112990,2,0,P|463:253|463:286,1,70,8|0,2:0|2:0,0:0:0:0:
485,356,113390,1,0,3:0:0:0:
320,223,113590,6,0,P|159:269|150:334,1,250.704988544465,4|0,3:1|2:0,0:0:0:0:
152,344,114190,1,0,3:0:0:0:
10,237,114390,2,0,L|13:194,1,35,8|0,2:0|2:0,0:0:0:0:
104,119,114590,1,0,3:0:0:0:
109,135,114690,1,0,3:0:0:0:
114,150,114790,2,0,L|62:154,1,35,4|4,2:3|2:3,0:0:0:0:
229,140,114990,6,0,L|300:133,1,70,2|0,3:0|2:0,0:0:0:0:
485,116,115390,2,0,L|415:122,1,70,2|0,3:0|2:0,0:0:0:0:
197,0,115790,5,8,2:0:0:0:
185,167,115990,1,4,3:0:0:0:
263,277,116190,1,4,3:0:0:0:
373,291,116390,2,0,P|414:288|462:254,2,70,4|0|0,3:2|2:0|2:0,0:0:0:0:
279,259,116990,1,0,3:0:0:0:
82,261,117190,5,8,2:0:0:0:
76,285,117290,1,0,3:0:0:0:
69,307,117390,1,0,3:0:0:0:
62,329,117490,1,0,3:0:0:0:
55,351,117590,2,0,L|99:347,1,35,0|0,3:0|3:0,0:0:0:0:
324,332,117790,6,0,L|282:266,1,70,2|0,3:0|2:0,0:0:0:0:
176,99,118190,2,0,L|213:158,1,70,2|0,3:0|2:0,0:0:0:0:
480,264,118590,2,0,P|418:213|357:217,1,140,8|0,2:0|2:0,0:0:0:0:
463,145,119190,6,0,P|489:122|500:89,1,70,4|0,3:1|2:0,0:0:0:0:
460,21,119590,2,0,P|433:43|422:76,1,70,0|0,2:0|3:0,0:0:0:0:
480,304,119990,2,0,P|489:337|494:377,2,70,8|4|4,2:0|3:0|3:0,0:0:0:0:
305,249,120590,1,0,3:0:0:0:
410,348,120790,1,0,2:0:0:0:
403,87,120990,2,0,L|402:49,1,35,0|0,3:0|3:0,0:0:0:0:
319,61,121390,5,8,2:0:0:0:
300,52,121490,1,8,2:0:0:0:
274,44,121590,1,8,2:0:0:0:
233,40,121690,1,8,2:0:0:0:
182,52,121790,1,8,2:0:0:0:
130,94,121890,1,8,2:0:0:0:
105,171,121990,6,0,P|130:257|191:305,1,168.419994873047,4|0,3:1|2:0,0:0:0:0:
230,180,122590,1,0,3:0:0:0:
1,124,122790,2,0,B|-8:166|-8:166|3:205,1,84.4199974365235,8|0,2:0|2:0,0:0:0:0:
273,329,123190,1,0,3:0:0:0:
289,294,123290,1,0,3:0:0:0:
305,259,123390,2,0,L|214:251,1,84.4199974365235,2|0,3:0|2:0,0:0:0:0:
37,334,123790,5,0,3:0:0:0:
49,343,123890,1,0,3:0:0:0:
74,349,123990,1,0,3:0:0:0:
112,351,124090,1,0,3:0:0:0:
154,337,124190,1,0,3:0:0:0:
196,306,124290,1,0,3:0:0:0:
221,251,124390,6,0,L|174:247,1,42.4199987182618,8|8,3:2|2:0,0:0:0:0:
0,175,124590,2,0,L|41:178,1,42.4199987182618,8|8,2:0|2:0,0:0:0:0:
373,203,124790,5,4,3:1:0:0:
292,325,124990,2,0,P|309:364|343:384,1,84.4199974365235,0|0,3:0|2:0,0:0:0:0:
375,309,125390,1,0,3:0:0:0:
175,177,125590,1,8,2:0:0:0:
222,59,125790,1,0,3:0:0:0:
227,73,125890,1,0,3:0:0:0:
232,86,125990,2,0,L|186:93,1,41.9999987182618,4|4,2:3|2:3,0:0:0:0:
399,80,126190,6,0,L|376:170,1,83.9999974365235,2|0,3:0|0:0,0:0:0:0:
207,321,126590,2,0,L|230:231,1,83.9999974365235,2|0,3:0|0:0,0:0:0:0:
417,383,126990,6,0,P|435:367|445:351,1,41.9999987182618,8|0,2:0|0:0,0:0:0:0:
411,261,127190,2,0,P|419:237|420:227,1,35,8|0,3:0|0:0,0:0:0:0:
311,210,127390,2,0,P|307:186|303:177,1,28,4|0,3:0|0:0,0:0:0:0:
228,240,127590,2,0,P|122:235|72:204,1,140,4|0,3:1|2:0,0:0:0:0:
30,154,128190,1,0,3:0:0:0:
203,320,128390,2,0,B|262:302|279:346|345:320,1,140,8|0,2:0|2:0,0:0:0:0:
411,211,128990,5,2,3:0:0:0:
393,212,129090,1,0,3:0:0:0:
376,214,129190,1,0,3:0:0:0:
481,100,129390,1,2,3:0:0:0:
295,116,129590,1,0,2:0:0:0:
484,305,129790,2,0,B|471:321|471:321|440:327,1,48.9999985046387,8|0,2:0|2:0,0:0:0:0:
355,363,129990,5,0,3:0:0:0:
291,321,130090,1,0,3:0:0:0:
221,354,130190,1,0,3:0:0:0:
168,324,130290,1,0,3:0:0:0:
128,341,130390,6,0,B|82:321|34:339|34:339|61:292|46:234,1,192.5,4|0,3:1|2:0,0:0:0:0:
44,223,130990,1,0,3:0:0:0:
232,18,131190,2,0,B|205:46|205:46|185:95,1,70,8|8,2:0|3:0,0:0:0:0:
189,163,131590,5,4,3:0:0:0:
404,157,131790,1,2,3:0:0:0:
100,166,132190,1,4,3:1:0:0:
489,153,132590,1,0,3:0:0:0:
489,153,132690,1,0,3:0:0:0:
489,153,132790,5,8,2:0:0:0:
494,190,132890,1,8,2:0:0:0:
473,236,132990,1,8,2:0:0:0:
411,273,133090,1,8,2:0:0:0:
323,266,133190,6,0,P|224:225|161:255,1,182.454991668702,4|2,3:1|2:0,0:0:0:0:
237,335,133790,1,0,3:0:0:0:
70,159,133990,2,0,P|32:184|0:215,1,91.4549958343508,8|0,2:0|2:0,0:0:0:0:
200,194,134390,1,2,2:0:0:0:
70,293,134590,6,0,B|57:339|57:339|57:382,1,91.4549958343508,2|0,3:0|2:0,0:0:0:0:
209,193,134990,2,0,B|221:146|221:146|221:103,1,91.4549958343508,2|2,3:0|2:0,0:0:0:0:
0,97,135390,1,8,2:0:0:0:
305,107,135590,1,0,3:2:0:0:
143,244,135790,1,0,3:0:0:0:
364,57,135990,6,0,P|462:51|499:91,1,140,4|2,3:1|2:0,0:0:0:0:
502,146,136590,1,0,3:0:0:0:
293,10,136790,1,8,2:0:0:0:
181,134,136990,1,0,3:0:0:0:
188,147,137090,1,0,3:0:0:0:
195,161,137190,2,0,L|228:151,1,35,6|4,2:3|2:3,0:0:0:0:
344,96,137390,6,0,B|334:58|334:58|313:29,1,70,2|0,3:0|0:0,0:0:0:0:
241,285,137790,2,0,B|250:322|250:322|271:351,1,70,2|0,3:0|0:0,0:0:0:0:
512,384,138190,5,8,2:0:0:0:
306,233,138390,1,8,3:0:0:0:
135,268,138590,1,4,3:0:0:0:
88,357,138790,2,0,P|48:324|40:234,1,140,4|2,3:2|2:0,0:0:0:0:
124,272,139390,1,0,3:0:0:0:
419,375,139590,2,0,B|391:311|391:311|341:282,1,122.5,8|0,2:0|2:0,0:0:0:0:
317,273,139990,1,2,2:0:0:0:
175,384,140190,6,0,B|190:351|190:351|215:320,1,70,2|0,3:0|2:0,0:0:0:0:
451,231,140590,2,0,B|436:264|436:264|415:291,1,70,2|2,3:0|2:0,0:0:0:0:
256,99,140990,2,0,P|292:94|331:101,1,70,8|4,2:0|2:3,0:0:0:0:
406,135,141390,1,0,3:0:0:0:
239,362,141590,6,0,P|198:384|154:378,1,70,4|0,3:2|2:0,0:0:0:0:
39,349,141990,1,2,2:0:0:0:
181,290,142190,1,0,3:0:0:0:
66,97,142390,2,0,P|25:81|-21:85,1,70,8|8,2:0|3:0,0:0:0:0:
12,171,142790,1,6,3:0:0:0:
114,27,142990,1,0,3:0:0:0:
190,283,143190,1,0,3:0:0:0:
469,36,143390,2,0,P|492:42|513:57,1,35
460,35,143790,5,0,3:0:0:0:
420,38,143890,1,0,3:0:0:0:
366,63,143990,1,8,2:0:0:0:
319,107,144090,1,8,2:0:0:0:
263,154,144190,1,8,2:0:0:0:
178,174,144290,1,8,2:0:0:0:
84,145,144390,6,0,P|118:93|144:79,1,91.4549958343508,4|0,3:1|2:0,0:0:0:0:
105,240,144790,1,2,2:0:0:0:
11,211,144990,1,0,3:0:0:0:
376,325,145190,2,0,B|419:308|419:308|443:271,1,91.4549958343508,8|0,2:0|2:0,0:0:0:0:
459,107,145590,6,0,L|415:160,1,45.9549979171754,2|0,3:2|3:0,0:0:0:0:
290,299,145790,2,0,P|287:346|311:390,1,91.4549958343508,2|0,3:0|2:0,0:0:0:0:
393,96,146190,6,0,L|346:115,1,45.9549979171754,0|0,3:0|3:0,0:0:0:0:
186,196,146390,2,0,L|226:226,1,45.9549979171754,2|0,3:2|3:0,0:0:0:0:
376,325,146590,2,0,L|382:275,1,45.9549979171754,0|0,3:0|3:0,0:0:0:0:
318,43,146790,5,8,2:0:0:0:
246,21,146890,1,8,2:0:0:0:
172,37,146990,2,0,P|147:57|132:80,1,52.5000020027161,8|8,2:0|2:0,0:0:0:0:
132,377,147190,5,4,3:2:0:0:
290,299,147390,2,0,P|315:257|315:209,1,84.4199974365235,0|2,3:0|2:0,0:0:0:0:
294,148,147790,1,0,3:0:0:0:
7,248,147990,1,8,2:0:0:0:
98,149,148190,1,0,3:0:0:0:
110,159,148290,1,0,3:0:0:0:
121,168,148390,2,0,L|104:207,1,42.4199987182618,6|4,2:3|2:3,0:0:0:0:
0,384,148590,6,0,B|45:382|45:382|89:365,1,91.4549958343508,2|0,3:0|2:0,0:0:0:0:
315,149,148990,2,0,B|296:190|296:190|265:225,1,91.4549958343508,2|2,3:0|2:0,0:0:0:0:
449,347,149390,6,0,P|470:346|498:334,1,45.4999979171754,8|0,2:0|0:0,0:0:0:0:
481,180,149590,2,0,P|499:168|517:144,1,36.749998878479,8|0,3:0|0:0,0:0:0:0:
434,66,149790,2,0,P|444:47|448:17,1,28,4|0,3:0|0:0,0:0:0:0:
350,17,149990,2,0,P|295:11|205:58,1,140,4|2,3:1|2:0,0:0:0:0:
302,136,150590,1,0,3:0:0:0:
139,0,150790,2,0,P|92:44|68:160,1,182.454991668702,8|2,2:0|2:0,0:0:0:0:
207,350,151390,5,2,3:0:0:0:
184,348,151490,1,0,3:0:0:0:
161,346,151590,1,0,3:0:0:0:
294,266,151790,1,2,3:0:0:0:
152,251,151990,1,2,2:0:0:0:
402,178,152190,2,0,B|373:169|373:169|354:150,1,48.9999985046387,8|0,2:0|2:0,0:0:0:0:
285,150,152390,5,2,2:0:0:0:
216,119,152490,1,0,3:0:0:0:
144,147,152590,1,0,3:0:0:0:
82,126,152690,1,0,3:0:0:0:
44,145,152790,6,0,B|50:181|88:198|88:198|127:216|142:251,1,140,4|2,3:1|2:0,0:0:0:0:
51,288,153390,1,0,3:0:0:0:
307,154,153590,2,0,P|286:188|257:205,1,70,8|8,2:0|3:0,0:0:0:0:
229,125,153990,1,4,3:0:0:0:
422,108,154190,6,0,L|492:102,1,70,2|0,3:0|2:0,0:0:0:0:
291,297,154590,2,0,L|221:303,1,70,4|0,3:1|2:0,0:0:0:0:
0,248,154990,6,0,L|33:250,1,35,8|8,2:0|2:0,0:0:0:0:
162,261,155190,1,8,2:0:0:0:
215,289,155290,1,4,3:0:0:0:
229,328,155390,1,4,3:0:0:0:
228,353,155490,1,4,3:0:0:0:
269,336,155590,5,4,3:1:0:0:
256,384,166790,5,4,3:1:0:0:
256,384,166990,1,0,2:0:0:0:
390,384,167190,5,2,2:0:0:0:
330,258,167390,1,0,2:0:0:0:
0,265,167590,5,10,2:0:0:0:
63,226,167790,1,2,2:0:0:0:
63,300,167990,1,2,2:3:0:0:
256,288,168190,5,0,3:0:0:0:
256,288,168390,1,2,2:0:0:0:
159,297,168590,2,0,B|161:243|161:243|199:199,1,105.000004005432,2|2,3:2|2:0,0:0:0:0:
512,193,168990,5,10,2:0:0:0:
432,177,169190,1,2,2:0:0:0:
460,254,169390,1,4,3:2:0:0:
256,192,169590,5,4,3:1:0:0:
256,192,169790,1,0,2:0:0:0:
358,44,169990,5,2,2:0:0:0:
350,196,170190,1,0,2:0:0:0:
81,107,170390,5,10,2:0:0:0:
78,199,170590,1,2,2:0:0:0:
0,148,170790,1,0,2:0:0:0:
256,96,170990,5,2,3:2:0:0:
256,96,171190,1,0,2:0:0:0:
114,97,171390,2,0,B|96:79|96:79|134:49|127:-4,1,105.000004005432,2|2,3:2|2:0,0:0:0:0:
401,83,171790,5,10,2:0:0:0:
394,213,171990,1,2,2:0:0:0:
512,159,172190,1,0,3:0:0:0:
256,0,172390,5,4,3:1:0:0:
213,119,172590,1,0,2:0:0:0:
352,0,172790,5,2,2:3:0:0:
267,238,172990,1,0,2:0:0:0:
512,384,173190,5,10,2:3:0:0:
251,373,173390,1,2,2:0:0:0:
392,152,173590,1,2,2:3:0:0:
383,303,173790,5,4,3:1:0:0:
383,303,173990,1,2,2:3:0:0:
69,126,174190,5,2,3:2:0:0:
168,182,174390,1,2,2:3:0:0:
381,41,174590,5,10,2:0:0:0:
154,173,174790,1,2,2:3:0:0:
383,303,174990,1,0,3:0:0:0:
393,199,175190,5,4,3:1:0:0:
226,298,175390,1,0,2:0:0:0:
512,48,175590,5,2,2:3:0:0:
171,246,175790,1,0,2:0:0:0:
0,0,175990,5,10,2:3:0:0:
125,303,176190,1,2,2:0:0:0:
325,44,176390,1,2,2:3:0:0:
422,310,176590,5,4,3:1:0:0:
422,310,176790,1,2,2:3:0:0:
103,87,176990,5,2,3:2:0:0:
45,268,177190,2,0,P|37:300|43:332,1,66.4999982242585,10|8,2:3|2:0,0:0:0:0:
512,384,177390,2,0,P|517:351|510:319,1,66.4999982242585,8|8,2:0|2:0,0:0:0:0:
313,342,177590,5,8,2:3:0:0:
424,355,177790,1,4,2:3:0:0:
495,261,177990,6,0,P|487:209|508:135,1,122.5,4|0,3:1|2:0,0:0:0:0:
512,118,178390,2,0,P|504:38|410:10,1,182.454991668702,2|0,2:0|2:0,0:0:0:0:
439,85,178990,2,0,P|329:104|271:92,1,154.000004699707,2|0,2:0|2:0,0:0:0:0:
160,60,179590,6,0,P|160:24|188:72,1,154.000004699707,8|0,3:0|2:0,0:0:0:0:
74,172,180190,2,0,P|42:107|105:157,1,210.000008010865,4|0,3:0|2:0,0:0:0:0:
67,325,180790,2,0,B|42:353|-2:343|-2:343|-14:266|44:228|109:243|133:272|142:325|142:325|224:377|291:375|339:315|345:248|333:207|279:154|223:172|189:228|218:271|247:278,1,735.000028038026,4|0,3:1|2:0,0:0:0:0:
223,119,182990,6,0,B|302:124|302:124|367:179,1,157.500006008148,2|0,2:0|2:0,0:0:0:0:
376,224,183390,1,0,3:0:0:0:
131,108,183590,1,8,2:0:0:0:
256,250,183790,1,4,3:0:0:0:
167,186,183990,6,0,P|147:255|183:333,1,159.704992710114,4|0,3:1|2:0,0:0:0:0:
202,344,184390,2,0,B|253:316|301:340|301:340|358:370|403:347,1,210.000008010865,2|0,2:0|2:0,0:0:0:0:
512,180,184990,6,0,P|464:213|477:303,1,126.419996154785,2|0,2:0|2:0,0:0:0:0:
484,310,185390,1,0,3:0:0:0:
477,84,185590,2,0,P|376:113|343:166,1,167.999994873047,8|0,2:0|2:0,0:0:0:0:
254,15,186190,6,0,P|279:78|229:56,1,147.489995513916,8|0,3:0|2:0,0:0:0:0:
228,63,186590,1,0,3:0:0:0:
190,219,186790,2,0,P|99:212|174:161,1,238.00000453949,4|0,3:1|2:0,0:0:0:0:
252,284,187390,2,0,B|217:331|153:336|153:336|223:379|317:376|380:288|380:288|419:220|381:135|281:182|284:267|387:278|387:278|494:300|519:330|517:361|510:385|486:403|462:407|425:389|407:355|454:291|454:291|493:189|410:101|326:121,1,1190.00002269745,6|0,2:0|2:0,0:0:0:0:
366,120,189490,5,0,2:0:0:0:
359,118,189590,1,2,2:0:0:0:
234,176,189990,6,0,P|183:187|136:163,1,105.000004005432,4|0,3:1|2:0,0:0:0:0:
193,106,190590,1,0,3:0:0:0:
291,266,190790,2,0,B|321:312|321:312|385:329,1,105.000004005432,8|0,2:0|2:0,0:0:0:0:
480,208,191390,6,0,L|404:232,1,52.5000020027161,2|0,3:0|2:0,0:0:0:0:
164,304,191790,2,0,L|216:288,1,52.5000020027161,2|0,3:0|2:0,0:0:0:0:
250,38,192190,5,8,2:0:0:0:
119,93,192390,1,8,2:3:0:0:
56,184,192590,1,4,2:3:0:0:
64,264,192790,6,0,P|100:288|120:324,2,52.5000020027161,0|0|0,3:0|2:0|2:0,0:0:0:0:
40,340,193390,1,0,3:0:0:0:
232,220,193590,2,0,L|227:272,2,52.5000020027161,8|0|0,2:0|2:0|2:0,0:0:0:0:
336,331,194190,5,2,3:0:0:0:
438,196,194390,2,0,P|455:192|474:192,1,35,2|0,2:3|2:0,0:0:0:0:
339,197,194590,5,2,3:0:0:0:
347,160,194690,1,0,3:0:0:0:
344,132,194790,1,0,3:0:0:0:
317,47,194990,1,8,2:0:0:0:
204,0,195190,1,8,2:3:0:0:
81,61,195390,1,4,2:3:0:0:
49,195,195590,6,0,P|49:227|53:251,2,52.5000020027161,4|0|0,3:1|2:0|2:0,0:0:0:0:
141,211,196190,1,0,3:0:0:0:
11,358,196390,2,0,L|62:367,2,52.5000020027161,8|0|0,2:0|2:0|2:0,0:0:0:0:
211,291,196990,5,2,3:0:0:0:
327,329,197190,2,0,P|332:344|334:363,1,35,2|0,2:3|2:0,0:0:0:0:
340,180,197390,5,2,3:0:0:0:
352,164,197490,1,0,3:2:0:0:
380,152,197590,1,0,3:2:0:0:
416,151,197690,1,0,3:2:0:0:
457,170,197790,1,8,3:2:0:0:
472,220,197890,1,0,3:2:0:0:
448,276,197990,6,0,L|429:243,1,35,8|8,3:0|3:0,0:0:0:0:
472,71,198190,2,0,L|494:111,1,35,4|4,3:0|3:0,0:0:0:0:
284,224,198390,5,4,3:1:0:0:
277,230,198990,1,0,3:0:0:0:
67,214,199190,1,8,2:0:0:0:
80,40,199390,5,2,3:2:0:0:
128,128,199590,1,0,3:0:0:0:
18,281,199790,2,0,P|62:325|142:333,1,140,4|0,3:2|3:0,0:0:0:0:
176,324,200290,1,0,3:0:0:0:
196,296,200390,1,0,3:0:0:0:
108,244,200590,1,8,2:0:0:0:
284,344,200790,1,0,3:0:0:0:
312,316,200890,1,0,3:0:0:0:
320,276,200990,1,0,3:0:0:0:
395,135,201190,6,0,P|403:177|434:211,1,70,4|0,3:1|2:0,0:0:0:0:
496,238,201590,1,2,2:0:0:0:
478,139,201790,1,0,3:0:0:0:
214,130,201990,2,0,P|226:93|259:59,1,70,10|0,2:0|2:0,0:0:0:0:
334,36,202390,1,2,2:0:0:0:
324,192,202590,6,0,L|243:202,1,70,2|2,3:0|2:0,0:0:0:0:
137,13,202990,2,0,L|212:7,1,70,2|2,3:0|2:0,0:0:0:0:
97,248,203390,6,0,P|110:238|123:224,1,35,8|0,3:2|3:0,0:0:0:0:
126,141,203590,2,0,P|110:133|93:131,1,35,0|0,3:2|3:0,0:0:0:0:
20,168,203790,2,0,P|22:188|28:203,1,35,0|0,3:2|3:0,0:0:0:0:
157,321,203990,6,0,P|106:339|71:327,1,70,0|0,3:0|2:0,0:0:0:0:
16,351,204390,1,2,2:0:0:0:
108,259,204590,1,0,3:0:0:0:
330,354,204790,2,0,P|414:332|418:216,1,210.000008010865,10|2,2:0|2:0,0:0:0:0:
272,117,205390,6,0,L|195:93,1,70,2|2,3:0|2:0,0:0:0:0:
289,251,205790,2,0,L|355:271,1,70,2|0,3:0|2:0,0:0:0:0:
400,66,206190,5,8,2:0:0:0:
194,58,206390,1,8,2:3:0:0:
92,156,206590,1,4,2:3:0:0:
71,275,206790,6,0,P|110:252|122:229,1,70,4|0,3:1|2:0,0:0:0:0:
172,168,207190,1,2,2:0:0:0:
172,168,207390,1,0,3:0:0:0:
321,317,207590,2,0,L|254:289,1,70,10|0,2:0|2:0,0:0:0:0:
185,345,207990,1,2,2:0:0:0:
397,172,208190,5,2,3:0:0:0:
266,195,208390,2,0,P|250:185|223:179,1,42.4199987182618,2|0,2:0|2:0,0:0:0:0:
445,271,208590,5,2,3:0:0:0:
456,264,208690,1,0,0:0:0:0:
476,249,208790,1,0,0:0:0:0:
494,216,208890,1,0,0:0:0:0:
501,165,208990,1,0,0:0:0:0:
475,109,209090,1,0,0:0:0:0:
415,64,209190,6,0,L|371:53,1,42.4199987182618,8|8,3:0|3:0,0:0:0:0:
272,205,209390,2,0,L|315:215,1,42.4199987182618,4|4,3:0|3:0,0:0:0:0:
286,26,209590,6,0,P|210:27|167:95,1,140,4|2,3:2|2:0,0:0:0:0:
247,94,210190,1,0,3:0:0:0:
61,89,210390,5,10,2:0:0:0:
27,260,210590,1,0,3:0:0:0:
102,362,210790,1,2,2:0:0:0:
231,265,210990,2,0,P|177:238|118:268,1,105,0|0,3:0|2:0,0:0:0:0:
110,277,211390,2,0,P|144:299|180:306,2,70,0|8|4,3:0|2:3|2:3,0:0:0:0:
292,115,211990,5,8,3:2:0:0:
321,124,212090,1,0,3:0:0:0:
348,143,212190,1,0,3:0:0:0:
374,174,212290,1,0,3:0:0:0:
385,220,212390,6,0,L|340:226,1,35,4|0,3:1|2:0,0:0:0:0:
283,283,212790,2,0,L|241:288,1,35,2|0,2:0|2:0,0:0:0:0:
18,184,213190,6,0,L|55:189,1,35,10|0,2:0|2:0,0:0:0:0:
124,232,213590,2,0,L|161:237,1,35,2|0,2:0|3:0,0:0:0:0:
241,378,213990,5,2,3:2:0:0:
217,163,214190,1,8,2:0:0:0:
308,295,214390,2,0,L|347:300,1,35,2|0,2:0|3:0,0:0:0:0:
487,247,214790,6,0,L|448:251,1,35,10|0,2:0|2:0,0:0:0:0:
365,371,215190,2,0,L|326:375,1,35,2|0,2:0|3:0,0:0:0:0:
100,239,215590,6,0,L|152:246,1,49.2449985046387,4|0,3:1|2:0,0:0:0:0:
319,171,215990,2,0,L|270:164,1,49.2449985046387,2|0,2:0|3:0,0:0:0:0:
86,41,216390,6,0,L|27:51,1,49.2449985046387,10|0,2:0|2:0,0:0:0:0:
309,95,216790,2,0,L|357:86,1,49.2449985046387,2|0,2:0|2:0,0:0:0:0:
176,6,217190,5,2,3:2:0:0:
248,307,217390,1,8,2:0:0:0:
214,165,217590,2,0,L|203:114,1,49.2449985046387,2|0,2:0|3:0,0:0:0:0:
71,217,217990,5,10,2:0:0:0:
33,384,218190,1,0,3:0:0:0:
0,196,218390,5,10,2:0:0:0:
448,196,218590,1,8,2:0:0:0:
344,375,218790,5,4,3:2:0:0:
284,372,218890,1,0,3:0:0:0:
230,348,218990,1,0,3:0:0:0:
188,307,219090,1,0,3:0:0:0:
163,253,219190,1,4,3:2:0:0:
158,194,219290,1,0,3:0:0:0:
174,137,219390,1,0,3:0:0:0:
210,90,219490,1,0,3:0:0:0:
260,59,219590,5,12,3:2:0:0:
265,107,219690,1,0,3:0:0:0:
257,155,219790,1,0,3:0:0:0:
236,199,219890,1,0,3:0:0:0:
204,236,219990,1,4,3:2:0:0:
163,263,220090,1,0,3:0:0:0:
117,278,220190,1,0,3:0:0:0:
68,279,220290,1,0,3:0:0:0:
21,267,220390,5,4,3:2:0:0:
51,243,220490,1,0,3:0:0:0:
87,230,220590,1,0,3:0:0:0:
125,229,220690,1,0,3:0:0:0:
162,239,220790,1,4,3:2:0:0:
194,261,220890,1,0,3:0:0:0:
217,291,220990,1,0,3:0:0:0:
230,327,221090,1,0,3:0:0:0:
229,368,221190,5,12,3:2:0:0:
203,358,221290,1,0,3:0:0:0:
184,338,221390,1,0,3:0:0:0:
175,312,221490,1,0,3:0:0:0:
179,284,221590,1,4,3:2:0:0:
194,261,221690,1,0,3:0:0:0:
217,246,221790,1,0,3:0:0:0:
245,243,221890,1,0,3:0:0:0:
271,252,221990,6,0,P|276:229|275:206,7,28,4|0|0|0|4|0|0|0,3:2|3:0|3:0|3:0|3:2|3:0|3:0|3:0,0:0:0:0:
371,297,222790,5,12,3:2:0:0:
372,344,222890,1,0,3:0:0:0:
408,381,222990,1,0,3:0:0:0:
457,379,223090,1,0,3:0:0:0:
498,351,223190,1,4,3:2:0:0:
505,300,223290,1,0,3:0:0:0:
476,258,223390,1,0,3:0:0:0:
426,247,223490,1,0,3:0:0:0:
375,260,223590,1,4,3:2:0:0:
331,288,223690,1,0,3:0:0:0:
292,323,223790,1,0,3:0:0:0:
251,355,223890,1,0,3:0:0:0:
202,372,223990,1,4,3:2:0:0:
149,374,224090,1,0,3:0:0:0:
105,348,224190,1,0,3:0:0:0:
86,301,224290,1,0,3:0:0:0:
102,247,224390,5,12,3:2:0:0:
130,296,224490,1,0,3:0:0:0:
105,348,224590,1,0,3:0:0:0:
48,355,224690,1,0,3:0:0:0:
10,312,224790,1,4,3:2:0:0:
27,258,224890,1,0,3:0:0:0:
68,220,224990,1,0,3:0:0:0:
83,166,225090,1,0,3:0:0:0:
71,111,225190,5,4,3:2:0:0:
109,162,225290,1,0,3:0:0:0:
172,175,225390,1,0,3:0:0:0:
230,148,225490,1,0,3:0:0:0:
263,93,225590,1,4,3:2:0:0:
314,53,225690,1,0,3:0:0:0:
376,38,225790,1,0,3:0:0:0:
438,53,225890,1,0,3:0:0:0:
470,108,225990,5,12,3:2:0:0:
406,121,226090,1,0,3:0:0:0:
341,106,226190,1,0,3:0:0:0:
288,67,226290,1,0,3:0:0:0:
233,32,226390,1,4,3:2:0:0:
170,44,226490,1,0,3:0:0:0:
132,97,226590,1,0,3:0:0:0:
140,161,226690,1,0,3:0:0:0:
190,202,226790,1,4,3:2:0:0:
256,205,226890,1,0,3:0:0:0:
313,239,226990,1,0,3:0:0:0:
345,296,227090,1,0,3:0:0:0:
375,353,227190,1,4,3:2:0:0:
438,370,227290,1,0,3:0:0:0:
493,337,227390,1,0,3:0:0:0:
507,274,227490,1,0,3:0:0:0:
471,220,227590,5,12,3:2:0:0:
417,259,227690,1,0,3:0:0:0:
364,299,227790,1,0,3:0:0:0:
311,339,227890,1,0,3:0:0:0:
249,363,227990,1,4,3:2:0:0:
183,368,228090,1,0,3:0:0:0:
119,351,228190,1,0,3:0:0:0:
63,316,228290,1,0,3:0:0:0:
20,265,228390,5,4,3:1:0:0:
57,206,228490,1,0,3:0:0:0:
113,164,228590,1,0,3:0:0:0:
179,144,228690,1,0,3:0:0:0:
249,150,228790,1,4,3:2:0:0:
312,180,228890,1,0,3:0:0:0:
377,203,228990,1,0,3:0:0:0:
445,190,229090,1,0,3:0:0:0:
496,144,229190,5,12,3:2:0:0:
440,112,229290,1,0,3:0:0:0:
379,101,229390,1,0,3:0:0:0:
318,113,229490,1,0,3:0:0:0:
263,145,229590,1,4,3:2:0:0:
203,161,229690,1,0,3:0:0:0:
141,154,229790,1,0,3:0:0:0:
85,126,229890,1,0,3:0:0:0:
44,79,229990,5,4,3:2:0:0:
114,62,230090,1,0,3:0:0:0:
184,78,230190,1,0,3:0:0:0:
240,125,230290,1,0,3:0:0:0:
270,192,230390,1,4,3:2:0:0:
293,261,230490,1,0,3:0:0:0:
355,296,230590,1,0,3:0:0:0:
425,280,230690,1,0,3:0:0:0:
467,221,230790,5,12,3:2:0:0:
408,213,230890,1,0,3:0:0:0:
350,226,230990,1,0,3:0:0:0:
300,257,231090,1,0,3:0:0:0:
242,281,231190,1,4,3:2:0:0:
185,289,231290,1,0,3:0:0:0:
136,259,231390,1,0,3:0:0:0:
116,204,231490,1,0,3:0:0:0:
137,149,231590,6,0,P|225:174|242:280,1,210.419993591309,4|0,3:1|2:0,0:0:0:0:
228,305,232190,1,0,3:0:0:0:
452,105,232390,1,8,2:0:0:0:
364,40,232590,1,8,2:3:0:0:
364,40,232990,5,4,2:3:0:0:
364,360,233190,2,0,P|249:323|390:296,1,367.500014019013,4|0,2:1|3:0,0:0:0:0:
327,303,234690,5,0,3:0:0:0:
318,304,234790,2,0,L|312:238,1,49.2449985046387,0|0,3:0|2:0,0:0:0:0:
218,87,235190,2,0,L|224:149,1,49.2449985046387,2|0,2:0|2:0,0:0:0:0:
382,186,235590,5,2,2:0:0:0:
234,215,235790,1,0,2:0:0:0:
171,291,235990,1,0,2:0:0:0:
150,367,236190,6,0,B|137:345|137:345|126:319,1,49.2449985046387,0|0,3:0|2:0,0:0:0:0:
46,311,236590,2,0,B|33:289|33:289|22:263,1,49.2449985046387,2|0,2:0|2:0,0:0:0:0:
110,51,236990,5,2,2:0:0:0:
64,172,237190,1,0,2:0:0:0:
120,269,237390,1,0,2:0:0:0:
203,312,237590,6,0,L|267:303,1,49.2449985046387,0|0,3:0|2:0,0:0:0:0:
413,222,237990,2,0,L|352:229,1,49.2449985046387,2|0,2:0|2:0,0:0:0:0:
0,292,238390,5,2,2:0:0:0:
136,343,238590,1,0,2:0:0:0:
241,297,238790,1,0,2:0:0:0:
266,199,238990,6,0,B|278:175|278:175|292:158,1,49.2449985046387,0|0,3:0|2:0,0:0:0:0:
370,155,239390,2,0,B|382:131|382:131|396:114,1,49.2449985046387,2|0,2:0|2:0,0:0:0:0:
512,345,239790,5,2,2:0:0:0:
413,242,239990,1,0,2:0:0:0:
308,228,240190,1,0,2:0:0:0:
243,288,240390,6,0,L|221:332,1,49.2449985046387,0|0,3:0|2:0,0:0:0:0:
186,170,240790,2,0,L|214:111,1,49.2449985046387,2|0,2:0|2:0,0:0:0:0:
420,23,241190,5,2,2:0:0:0:
241,6,241390,1,0,2:0:0:0:
134,53,241590,1,0,2:0:0:0:
72,144,241790,6,0,B|76:112|76:112|72:92,1,49.2449985046387,0|0,3:0|2:0,0:0:0:0:
132,192,242190,2,0,B|147:163|147:163|150:143,1,49.2449985046387,2|0,2:0|2:0,0:0:0:0:
8,240,242590,5,2,2:0:0:0:
180,260,242790,1,0,2:0:0:0:
92,324,242990,1,0,2:0:0:0:
266,192,243190,6,0,B|300:176|300:176|332:168,1,63.3149980773926,4|0,3:1|2:0,0:0:0:0:
512,288,243590,2,0,B|478:304|478:304|446:312,1,63.3149980773926,2|0,2:0|2:0,0:0:0:0:
248,260,243990,5,6,3:2:0:0:
480,184,244190,1,0,3:0:0:0:
328,336,244390,1,0,3:0:0:0:
397,113,244590,5,4,3:1:0:0:
424,356,244790,1,0,2:0:0:0:
312,68,244990,1,2,2:0:0:0:
104,196,245190,6,0,L|160:160,1,38.5000011749268,8|8,2:0|2:0,0:0:0:0:
392,24,245390,1,8,2:0:0:0:
238,115,245590,1,8,2:3:0:0:
348,184,245790,1,4,2:3:0:0:
232,236,245990,6,0,L|166:266,1,63.3149980773926,4|0,3:1|2:0,0:0:0:0:
60,317,246390,1,2,2:0:0:0:
169,367,246590,1,0,3:0:0:0:
86,110,246790,5,10,2:0:0:0:
143,277,246990,1,0,2:0:0:0:
254,329,247190,1,0,3:0:0:0:
378,248,247390,6,0,L|296:242,1,63.3149980773926,2|0,3:0|2:0,0:0:0:0:
145,184,247790,2,0,L|218:193,1,63.3149980773926,2|0,3:0|2:0,0:0:0:0:
491,83,248190,5,10,2:0:0:0:
476,243,248390,1,2,2:0:0:0:
380,302,248590,1,0,3:0:0:0:
273,297,248790,6,0,P|262:267|239:245,2,63.1574980773926,0|0|2,3:0|2:0|2:0,0:0:0:0:
199,307,249390,1,0,3:0:0:0:
387,136,249590,5,10,2:0:0:0:
221,128,249790,1,0,2:0:0:0:
132,207,249990,1,0,3:0:0:0:
56,340,250190,6,0,L|51:268,1,63.3149980773926,2|0,3:0|2:0,0:0:0:0:
68,86,250590,2,0,L|76:167,1,63.3149980773926,2|0,3:0|2:0,0:0:0:0:
287,269,250990,5,10,2:0:0:0:
256,119,251190,1,8,2:3:0:0:
323,34,251390,1,4,2:3:0:0:
442,28,251590,6,0,P|435:58|440:95,1,63.3149980773926,4|0,3:1|2:0,0:0:0:0:
473,249,251990,2,0,P|482:217|477:172,1,63.3149980773926,2|0,2:0|3:0,0:0:0:0:
208,28,252390,5,10,2:0:0:0:
296,135,252590,1,0,2:0:0:0:
277,231,252790,1,0,3:0:0:0:
142,324,252990,6,0,L|151:250,1,63.3149980773926,2|0,3:0|2:0,0:0:0:0:
69,52,253390,2,0,L|58:134,1,63.3149980773926,2|0,3:0|2:0,0:0:0:0:
289,384,253790,5,10,2:0:0:0:
320,200,253990,1,2,2:0:0:0:
240,106,254190,1,0,3:0:0:0:
214,220,254390,5,0,3:0:0:0:
130,200,254590,1,0,2:0:0:0:
320,200,254790,1,2,2:0:0:0:
279,301,254990,1,0,3:0:0:0:
61,166,255190,2,0,P|8:166|-20:178,2,63.1574980773926,10|0|0,2:0|2:0|3:0,0:0:0:0:
187,74,255790,5,2,3:0:0:0:
231,303,255990,1,0,2:0:0:0:
447,35,256190,1,2,3:0:0:0:
447,35,256590,5,10,2:0:0:0:
99,87,256790,1,8,2:3:0:0:
329,182,256990,1,4,2:3:0:0:
127,255,257190,6,0,P|102:236|85:209,1,63.3149980773926,4|0,3:1|2:0,0:0:0:0:
206,243,257590,2,0,P|205:275|191:303,1,63.3149980773926,2|0,2:0|2:0,0:0:0:0:
30,90,257990,5,10,2:0:0:0:
399,151,258190,1,2,2:3:0:0:
192,303,258390,1,2,2:0:0:0:
188,0,258590,2,0,P|224:36|235:80,1,94.972497116089,2|2,3:2|2:0,0:0:0:0:
154,382,258990,2,0,P|118:346|107:302,1,94.972497116089,2|2,3:2|2:0,0:0:0:0:
304,155,259390,6,0,L|311:71,1,70,2|10,2:0|2:0,0:0:0:0:
313,47,259790,1,2,2:0:0:0:
293,280,259990,2,0,L|286:349,1,70,2|0,2:0|2:0,0:0:0:0:
408,106,260390,5,4,3:1:0:0:
487,249,260590,1,0,2:0:0:0:
171,183,260790,1,2,2:0:0:0:
112,64,260990,6,0,L|98:103,1,42.4199987182618,8|8,2:0|2:0,0:0:0:0:
40,288,261190,1,10,2:0:0:0:
128,288,261390,2,0,P|116:240|80:200,1,84.4199974365235,2|2,2:3|2:0,0:0:0:0:
216,249,261790,6,0,L|228:236,1,17.5,0|0,3:2|3:0,3:0:0:0:
274,326,261990,2,0,L|286:313,1,17.5,0|0,3:2|3:0,0:0:0:0:
279,145,262190,6,0,L|284:165,1,20.9999993591309,0|0,3:0|3:0,0:0:0:0:
418,190,262390,2,0,L|405:235,1,24.7449992523194,2|0,3:2|3:0,0:0:0:0:
512,302,262590,2,0,L|492:321,1,28,0|0,3:0|3:0,0:0:0:0:
512,115,262790,6,0,L|492:127,1,21.2099993591309,14|2,2:0|2:0,0:0:0:0:
402,241,262990,2,0,L|412:214,1,28,2|2,2:0|2:0,0:0:0:0:
485,31,263190,2,0,L|447:46,1,35,2|2,2:0|2:0,0:0:0:0:
251,213,263390,2,0,L|273:145,1,42.4199987182618,2|2,2:0|2:0,0:0:0:0:
368,0,263590,5,2,3:2:0:0:
208,56,263790,1,0,2:0:0:0:
128,188,263990,1,2,3:2:0:0:
188,320,264190,5,0,3:0:0:0:
52,272,264390,1,10,2:0:0:0:
16,120,264590,5,2,3:2:0:0:
8,200,264790,1,2,2:0:0:0:
208,16,264990,5,2,2:0:0:0:
96,200,265190,1,2,3:2:0:0:
104,72,265390,1,2,2:3:0:0:
248,380,265590,5,2,2:0:0:0:
308,312,265790,2,0,P|290:307|268:308,1,24.4999992523194,0|0,3:0|3:0,0:0:0:0:
176,292,265990,2,0,P|195:288|216:288,1,24.4999992523194,10|0,3:2|3:0,0:0:0:0:
356,236,266190,2,0,P|330:230|294:232,1,35,0|0,3:0|3:0,0:0:0:0:
120,204,266390,2,0,P|148:197|185:200,1,35,2|2,2:0|2:0,0:0:0:0:
404,156,266590,2,0,P|381:150|352:152,1,45.4999979171754,2|2,3:2|2:0,0:0:0:0:
64,120,266790,5,2,3:2:0:0:
456,84,266990,1,2,2:0:0:0:
248,380,267190,1,0,3:2:0:0:
250,245,267390,5,8,2:0:0:0:
249,234,267490,1,8,2:0:0:0:
248,224,267590,6,0,P|209:227|172:240,2,70.0000026703035,8|8|8,2:3|2:3|2:3,0:0:0:0:
256,144,267990,2,0,P|297:147|332:160,2,70.0000026703035,4|4|4,2:3|2:3|2:3,0:0:0:0:
256,55,268390,6,0,B|203:20|128:46|113:105|113:105|102:84|104:58,1,210.000008010865,4|2,3:1|0:0,0:0:0:0:
22,1,268990,2,0,P|29:32|28:69,1,52.5000020027161
11,202,269190,2,0,P|3:243|6:331,1,105.000004005432,8|0,0:0|0:0,0:0:0:0:
101,366,269590,2,0,P|100:330|116:240,1,105.000004005432,2|0,0:0|0:0,0:0:0:0:
151,161,269990,1,0,3:2:0:0:
292,331,270190,1,8,0:0:0:0:
352,240,270390,2,0,L|229:250,1,105.000004005432,2|0,2:0|0:0,0:0:0:0:
483,365,270790,6,0,B|464:348|464:348|452:286|489:235,1,140.000005340576,10|2,2:0|0:0,0:0:0:0:
512,209,271323,5,2,0:0:0:0:
467,3,271590,6,0,B|410:57|490:110|442:172|442:172|397:163|376:121,1,245.000002336502,4|2,3:1|0:0,0:0:0:0:
373,108,272190,1,0,0:0:0:0:
172,1,272390,2,0,B|218:46|218:46|158:122|252:156|154:220,1,245.000002336502,8|2,0:0|0:0,0:0:0:0:
42,341,272990,1,0,3:0:0:0:
19,319,273090,1,0,2:0:0:0:
7,286,273190,2,0,P|43:193|187:247,1,245.000002336502,0|2,3:2|2:0,0:0:0:0:
196,245,273790,1,0,0:0:0:0:
454,0,273990,6,0,B|444:43|444:43|472:76|472:76|431:101|427:154,1,163.333334891001,10|2,2:0|0:0,0:0:0:0:
512,152,274523,5,6,0:0:0:0:
194,368,274790,6,0,B|134:346|138:249|206:229|206:229|274:263|329:221,1,280,4|4,3:1|0:0,0:0:0:0:
389,145,275390,2,0,P|391:103|378:64,1,70
199,20,275590,2,0,P|151:79|151:156,1,140,12|0,0:0|0:0,0:0:0:0:
383,144,275990,2,0,P|375:70|305:16,1,140,4|0,0:0|0:0,0:0:0:0:
237,302,276390,1,0,3:2:0:0:
263,61,276590,1,12,0:0:0:0:
37,0,276990,5,0,3:2:0:0:
31,38,277090,1,0,0:0:0:0:
26,76,277190,6,0,B|23:103|23:103|56:130|57:175,1,97.9999970092774,14|0,2:0|2:0,0:0:0:0:
145,335,277456,2,0,B|141:304|141:304|178:274|179:223,1,116.666666666667,2|8,2:0|2:0,0:0:0:0:
262,0,277723,2,0,B|258:34|258:34|300:69|302:128,1,135.333337463379,2|0,2:0|2:0,0:0:0:0:
483,285,277990,6,0,B|464:226|378:187|299:237|287:305|287:305|244:281|244:281|199:394|108:413|0:370|-3:268|-3:268|-5:187|87:157|154:247|69:332,1,898.333341900508,4|0,3:1|2:0,0:0:0:0:
178,237,278790,5,12,2:0:0:0:
200,214,278856,2,0,P|208:181|210:151,1,46.6666666666667,0|0,2:0|2:0,0:0:0:0:
212,92,278990,2,0,P|219:68|237:43,2,46.6666666666667,0|0|0,2:0|2:0|2:0,0:0:0:0:
312,41,279190,5,4,2:0:0:0:
334,64,279256,2,0,P|342:96|344:127,1,46.6666666666667,0|0,2:0|2:0,0:0:0:0:
346,186,279390,2,0,P|353:210|371:235,2,46.6666666666667,0|0|0,2:0|2:0|2:0,0:0:0:0:
445,252,279590,5,6,2:0:0:0:
468,270,279656,2,0,P|450:299|445:312,4,35.0000013351442,0|0|0|0|0,2:0|2:0|0:0|0:0|0:0,0:0:0:0:
391,341,279990,1,6,0:0:0:0:
373,330,280056,2,0,P|358:361|350:372,4,35.0000013351441,0|0|0|0|0,2:0|2:0|2:0|2:0|2:0,0:0:0:0:
331,257,280390,5,12,3:2:0:0:
313,254,280456,1,0,3:2:0:0:
295,251,280523,1,0,3:2:0:0:
276,248,280590,1,0,3:2:0:0:
258,245,280656,1,0,3:2:0:0:
239,242,280723,1,0,3:2:0:0:
278,208,280790,5,4,3:2:0:0:
290,211,280856,1,0,3:2:0:0:
303,213,280923,1,0,3:2:0:0:
317,215,280990,1,0,3:2:0:0:
330,217,281056,1,0,3:2:0:0:
343,219,281123,1,0,3:2:0:0:
355,220,281190,6,0,P|272:367|258:210,1,420,4|0,3:1|3:0,0:0:0:0:
266,205,281890,1,0,2:0:0:0:
299,285,281990,2,0,B|205:343|99:296|99:296|70:252|26:229|26:229|205:236|225:138|158:64|90:92|76:147,1,630.000024032594,12|0,2:0|0:0,0:0:0:0:
0,353,283590,5,12,2:0:0:0:
508,271,283856,1,8,2:3:0:0:
0,147,284123,1,4,2:3:0:0:
436,24,284390,6,0,B|480:120|436:196|436:196|388:273|436:357,1,333.66665139262,4|0,3:1|0:0,0:0:0:0:
410,384,285190,2,0,B|263:247|307:143,1,279.999991455078,12|0,0:0|2:0,0:0:0:0:
291,31,285990,5,4,3:1:0:0:
56,48,286123,1,2,2:0:0:0:
188,243,286256,1,2,2:0:0:0:
261,46,286390,5,10,2:0:0:0:
74,69,286523,1,2,2:0:0:0:
187,219,286656,1,0,2:0:0:0:
240,57,286790,5,8,2:3:0:0:
84,85,286923,1,8,2:3:0:0:
186,205,287056,1,8,2:3:0:0:
215,74,287190,5,4,2:3:0:0:
102,101,287323,1,4,2:3:0:0:
181,186,287456,1,4,2:3:0:0:
160,112,287590,6,0,P|104:176|120:232,1,102.666669799827,4|0,3:1|2:0,0:0:0:0:
205,288,287990,2,0,L|221:382,2,60.6666638895672,4|0|0,3:0|3:0|3:0,3:0:0:0:
426,99,288390,5,14,2:0:0:0:
232,129,288523,1,2,2:0:0:0:
353,278,288656,1,0,2:0:0:0:
413,115,288790,5,6,3:2:0:0:
249,128,288923,1,0,2:0:0:0:
341,259,289056,1,2,2:0:0:0:
327,73,289190,6,0,P|252:32|196:50,1,121.78832777916,4|0,3:1|2:0,0:0:0:0:
160,120,289590,5,0,3:2:0:0:
152,288,289723,1,2,2:0:0:0:
296,200,289856,1,2,2:0:0:0:
20,212,289990,6,0,B|20:296|64:348|64:348|124:376|196:376|196:376|251:274|409:253|480:348,1,560,4|4,3:1|3:2,0:0:0:0:
256,192,290890,12,0,293590,2:0:0:0:
224,264,293790,5,0,0:0:0:0:
220,268,293890,1,0,0:0:0:0:
217,272,293990,6,0,P|166:260|119:280,1,105.000004005432,4|0,3:1|2:0,0:0:0:0:
171,340,294590,1,0,3:0:0:0:
391,384,294790,2,0,B|378:328|378:328|382:280,1,105.000004005432,8|0,2:0|2:0,0:0:0:0:
99,189,295390,6,0,L|166:183,1,52.5000020027161,2|0,3:0|2:0,0:0:0:0:
365,168,295790,2,0,L|298:173,1,52.5000020027161,2|0,3:0|2:0,0:0:0:0:
245,310,296190,5,8,2:0:0:0:
396,273,296390,1,8,2:3:0:0:
456,200,296590,1,4,2:3:0:0:
448,120,296790,6,0,P|412:96|392:60,2,52.5000020027161,0|0|0,3:0|2:0|2:0,0:0:0:0:
472,44,297390,5,0,3:0:0:0:
256,128,297590,2,0,L|264:196,2,52.5000020027161,8|0|0,2:0|2:0|2:0,0:0:0:0:
147,350,298190,5,2,3:0:0:0:
125,217,298390,2,0,P|105:217|77:229,1,35,2|0,2:3|2:0,0:0:0:0:
243,273,298590,5,2,3:0:0:0:
250,303,298690,1,0,3:0:0:0:
265,323,298790,1,0,3:0:0:0:
364,375,298990,1,8,2:0:0:0:
476,331,299190,1,8,2:3:0:0:
512,195,299390,1,4,2:3:0:0:
472,67,299590,6,0,P|453:45|429:30,2,52.5000020027161,4|0|0,3:2|2:0|2:0,0:0:0:0:
512,0,300190,1,0,3:0:0:0:
306,203,300390,2,0,L|312:141,2,52.5000020027161,8|0|0,2:0|2:0|2:0,0:0:0:0:
266,58,300990,5,2,3:0:0:0:
145,146,301190,2,0,P|130:121|108:101,1,35,2|0,2:3|2:0,0:0:0:0:
169,238,301390,5,2,3:0:0:0:
153,258,301490,1,0,3:0:0:0:
118,273,301590,1,0,3:0:0:0:
61,273,301690,1,0,3:0:0:0:
10,238,301790,1,8,3:2:0:0:
0,166,301890,1,0,3:0:0:0:
43,107,301990,6,0,L|63:142,1,35,8|0,3:0|3:0,0:0:0:0:
20,343,302190,2,0,L|2:312,1,35,4|0,3:0|3:0,0:0:0:0:
232,180,302390,5,4,3:1:0:0:
244,173,302990,1,0,3:0:0:0:
452,169,303190,1,8,2:0:0:0:
432,344,303390,5,8,2:3:0:0:
384,256,303590,1,4,2:3:0:0:
502,104,303790,2,0,P|458:60|378:52,1,140,4|0,3:1|3:0,0:0:0:0:
346,64,304290,1,0,3:0:0:0:
326,92,304390,1,0,3:0:0:0:
414,144,304590,1,8,2:0:0:0:
228,40,304790,1,0,3:0:0:0:
200,68,304890,1,0,3:0:0:0:
192,108,304990,1,0,3:0:0:0:
34,201,305190,6,0,P|76:209|110:240,1,70,4|0,3:1|2:0,0:0:0:0:
35,289,305590,1,2,2:0:0:0:
31,111,305790,1,2,3:2:0:0:
133,338,305990,1,10,2:0:0:0:
285,245,306190,1,0,2:0:0:0:
136,349,306390,1,2,2:0:0:0:
236,157,306590,6,0,L|318:163,1,70,2|2,3:0|2:0,0:0:0:0:
389,365,306990,2,0,L|319:358,1,70,2|2,3:0|2:0,0:0:0:0:
165,170,307390,6,0,P|162:142|175:117,1,42.4199987182618,10|2,2:0|2:0,0:0:0:0:
68,197,307590,2,0,P|45:213|17:214,1,42.4199987182618,2|2,2:0|2:0,0:0:0:0:
141,268,307790,2,0,P|166:279|181:303,1,42.4199987182618,2|2,2:0|2:0,0:0:0:0:
118,72,307990,6,0,P|169:54|213:69,1,84.4199974365235,2|0,3:2|2:0,0:0:0:0:
240,119,308390,1,2,2:0:0:0:
61,120,308590,1,2,3:2:0:0:
426,29,308790,5,10,2:0:0:0:
250,125,308990,1,0,2:0:0:0:
422,230,309190,1,2,2:0:0:0:
273,358,309390,6,0,L|340:338,1,70,2|2,3:0|2:0,0:0:0:0:
142,211,309790,2,0,L|75:230,1,70,2|2,3:0|2:0,0:0:0:0:
224,370,310190,5,8,2:0:0:0:
358,349,310390,1,8,2:3:0:0:
442,230,310590,1,4,2:3:0:0:
446,67,310790,6,0,P|429:36|403:13,2,70,4|0|2,3:1|2:0|2:0,0:0:0:0:
448,147,311390,1,0,3:0:0:0:
104,59,311590,1,10,2:0:0:0:
297,109,311790,1,2,2:0:0:0:
131,218,311990,5,2,2:0:0:0:
102,238,312090,1,2,2:0:0:0:
73,258,312190,1,2,3:0:0:0:
195,344,312390,2,0,P|198:366|192:388,1,42.4199987182618,2|0,2:3|2:0,0:0:0:0:
252,209,312590,5,2,3:0:0:0:
271,198,312690,1,0,3:0:0:0:
305,194,312790,1,0,3:0:0:0:
346,209,312890,1,0,3:0:0:0:
383,248,312990,1,8,3:2:0:0:
390,311,313090,1,0,3:0:0:0:
349,372,313190,6,0,L|305:350,1,42.4199987182618,8|0,3:0|3:0,0:0:0:0:
467,259,313390,2,0,L|504:277,1,42.4199987182618,4|0,3:0|3:0,0:0:0:0:
385,112,313590,6,0,P|451:74|510:94,1,140,4|2,3:1|2:0,0:0:0:0:
455,161,314190,1,0,3:0:0:0:
194,2,314390,5,10,2:0:0:0:
311,93,314590,1,2,2:0:0:0:
326,194,314790,1,2,2:0:0:0:
279,272,314990,1,2,3:0:0:0:
185,164,315190,5,2,2:0:0:0:
55,346,315390,2,0,P|65:380|81:395,1,42.4199987182618,6|4,3:0|2:3,0:0:0:0:
49,209,315590,2,0,P|14:200|-7:206,1,42.4199987182618,4|4,2:3|2:3,0:0:0:0:
169,272,315790,2,0,P|193:246|198:224,1,42.4199987182618,4|4,2:3|2:3,0:0:0:0:
223,84,315990,5,10,2:0:0:0:
178,27,316090,1,2,2:0:0:0:
107,13,316190,1,2,2:0:0:0:
44,47,316290,1,2,2:0:0:0:
16,113,316390,6,0,P|86:120|123:152,1,91.4549958343508,4|0,3:1|2:0,0:0:0:0:
191,223,316790,1,2,2:0:0:0:
45,205,316990,1,0,3:0:0:0:
327,181,317190,2,0,L|316:271,1,91.4549958343508,10|0,2:0|2:0,0:0:0:0:
266,114,317590,1,2,2:0:0:0:
395,276,317790,6,0,B|378:320|378:320|333:360,1,91.4549958343508,2|2,3:0|2:0,0:0:0:0:
258,109,318190,2,0,B|275:65|275:65|320:25,1,91.4549958343508,2|2,3:0|2:0,0:0:0:0:
488,208,318590,6,0,L|471:148,1,45.9549979171754,10|2,2:0|2:0,0:0:0:0:
426,34,318790,2,0,L|398:72,1,45.9549979171754,2|2,2:0|2:0,0:0:0:0:
315,185,318990,2,0,L|369:196,1,45.9549979171754,2|2,2:0|2:0,0:0:0:0:
210,17,319190,6,0,P|111:26|86:122,1,210.000008010865,4|2,3:1|2:0,0:0:0:0:
167,93,319790,1,0,2:0:0:0:
0,225,319990,1,8,2:0:0:0:
85,310,320190,2,0,P|106:298|130:275,1,35,12|0,2:3|3:0,0:0:0:0:
201,341,320390,2,0,P|213:320|223:288,1,35,6|0,2:3|3:0,0:0:0:0:
233,167,320590,6,0,P|200:187|181:214,1,70,2|0,3:2|2:0,0:0:0:0:
442,263,320990,2,0,P|475:243|494:215,1,70,2|0,3:2|2:0,0:0:0:0:
267,61,321390,5,8,2:0:0:0:
231,256,321590,1,8,2:3:0:0:
343,369,321790,1,4,2:3:0:0:
493,351,321990,2,0,P|508:319|511:284,2,70,4|0|2,3:1|2:0|2:0,0:0:0:0:
488,211,322590,1,0,3:0:0:0:
225,384,322790,5,10,2:0:0:0:
113,136,322990,1,2,2:0:0:0:
275,256,323190,1,2,2:0:0:0:
338,236,323290,1,2,2:0:0:0:
382,187,323390,2,0,L|288:178,1,70,2|2,3:0|2:0,0:0:0:0:
198,93,323790,6,0,L|253:97,1,35,2|0,3:0|2:0,0:0:0:0:
403,111,323990,2,0,L|368:107,1,35,2|0,2:0|2:0,0:0:0:0:
97,26,324190,6,0,P|115:54|119:94,1,52.5000020027161,10|2,2:0|2:0,0:0:0:0:
264,234,324390,2,0,P|230:235|194:219,1,52.5000020027161,2|2,2:0|2:0,0:0:0:0:
0,275,324590,2,0,P|15:245|47:221,1,52.5000020027161,2|2,2:0|2:0,0:0:0:0:
347,258,324790,6,0,P|312:307|268:321,1,105.000004005432,4|0,3:1|2:0,0:0:0:0:
66,384,325190,2,0,P|100:334|144:320,1,105.000004005432,2|2,2:0|3:2,0:0:0:0:
147,121,325590,5,10,2:0:0:0:
211,381,325790,1,8,2:3:0:0:
465,324,325990,5,6,2:3:0:0:
222,363,326190,1,0,3:2:0:0:
309,133,326390,1,2,2:0:0:0:
364,384,326590,6,0,P|357:357|343:326,1,52.5000020027161,2|2,3:2|2:0,0:0:0:0:
153,272,326790,2,0,P|160:245|174:214,1,52.5000020027161,2|2,2:0|2:0,0:0:0:0:
273,72,326990,5,8,2:0:0:0:
335,120,327090,1,8,2:0:0:0:
403,123,327190,1,10,2:0:0:0:
458,107,327290,1,8,2:0:0:0:
484,68,327390,1,8,2:0:0:0:
481,31,327490,1,8,2:0:0:0:
459,15,327590,6,0,P|430:98|494:171,1,168.419994873047,4|2,3:1|2:0,0:0:0:0:
512,126,328190,1,2,3:2:0:0:
356,384,328390,1,10,2:0:0:0:
372,225,328590,1,0,3:0:0:0:
94,279,328790,1,2,2:0:0:0:
284,356,328990,2,0,L|292:272,1,84.4199974365235,2|2,3:0|2:0,0:0:0:0:
161,9,329390,6,0,L|121:26,1,42.4199987182618,0|0,3:0|3:0,0:0:0:0:
0,86,329590,2,0,L|44:111,1,42.4199987182618,4|4,3:0|3:0,0:0:0:0:
152,177,329790,2,0,L|158:129,1,42.4199987182618,8|8,3:0|3:0,0:0:0:0:
239,71,329990,5,8,2:0:0:0:
329,63,330090,1,8,2:0:0:0:
390,120,330190,1,8,2:0:0:0:
401,204,330290,1,8,2:0:0:0:
352,271,330390,5,4,3:1:0:0:
230,200,330590,2,0,P|247:161|281:141,1,84.4199974365235,0|2,3:0|2:0,0:0:0:0:
300,211,330990,1,2,3:2:0:0:
253,348,331190,1,10,2:0:0:0:
110,375,331390,2,0,P|120:351|142:328,1,42.4199987182618,12|0,2:3|3:0,0:0:0:0:
14,264,331590,2,0,P|31:243|58:227,1,42.4199987182618,4|0,2:3|3:0,0:0:0:0:
215,219,331790,6,0,B|214:262|214:262|188:307,1,84.4199974365235,2|0,3:2|2:0,0:0:0:0:
152,139,332190,2,0,B|189:118|189:118|241:118,1,84.4199974365235,2|0,3:2|2:0,0:0:0:0:
384,286,332590,5,10,2:0:0:0:
193,297,332790,1,8,2:3:0:0:
420,377,332990,1,4,2:3:0:0:
312,104,333190,2,0,P|334:53|447:27,1,168.419994873047,4|2,3:1|2:0,0:0:0:0:
408,116,333790,1,0,3:0:0:0:
8,69,333990,5,10,2:0:0:0:
263,23,334190,1,2,2:0:0:0:
121,158,334390,2,0,P|109:177|96:219,1,42.4199987182618,2|2,2:0|2:0,0:0:0:0:
107,274,334590,1,2,3:0:0:0:
189,217,334790,1,2,2:0:0:0:
0,173,334990,6,0,P|24:161|44:158,1,42.4199987182618,2|2,3:0|2:0,0:0:0:0:
232,237,335190,2,0,P|217:221|194:206,1,42.4199987182618,2|2,2:0|2:0,0:0:0:0:
0,351,335390,2,0,P|17:370|39:384,1,52.5000020027161,10|2,2:0|2:0,0:0:0:0:
233,384,335590,5,8,3:0:0:0:
295,366,335690,1,8,3:0:0:0:
345,323,335790,1,4,3:0:0:0:
373,265,335890,1,4,3:0:0:0:
375,200,335990,5,4,3:1:0:0:
110,313,336190,1,0,2:0:0:0:
257,63,336390,1,2,2:0:0:0:
284,353,336590,1,2,3:2:0:0:
93,135,336790,2,0,P|133:126|185:132,1,84.4199974365235,10|8,2:0|2:3,0:0:0:0:
142,291,337190,5,6,2:3:0:0:
387,179,337390,1,0,3:2:0:0:
168,22,337590,1,2,2:0:0:0:
264,310,337790,6,0,P|248:275|249:228,1,52.5000020027161,2|2,2:0|2:0,0:0:0:0:
336,77,337990,2,0,P|323:100|317:125,1,52.5000020027161,2|2,2:0|2:0,0:0:0:0:
406,353,338190,5,8,2:0:0:0:
471,309,338290,1,8,2:0:0:0:
505,250,338390,1,8,3:0:0:0:
512,192,338490,1,8,3:0:0:0:
505,145,338590,1,4,3:0:0:0:
483,115,338690,1,4,3:0:0:0:
460,102,338790,6,0,P|409:174|438:263,1,182.454991668702,4|2,3:1|2:0,0:0:0:0:
512,192,339390,1,0,3:0:0:0:
139,212,339590,2,0,B|143:265|143:265|171:320,1,91.4549958343508,10|0,2:0|2:0,0:0:0:0:
236,124,339990,1,2,2:0:0:0:
71,305,340190,6,0,P|96:356|149:389,1,91.4549958343508,2|2,3:0|2:0,0:0:0:0:
243,116,340590,2,0,P|217:64|164:31,1,91.4549958343508,2|2,3:0|2:0,0:0:0:0:
159,297,340990,6,0,P|185:300|210:310,1,52.5000020027161,10|2,2:0|2:0,0:0:0:0:
346,384,341190,2,0,P|361:362|381:346,1,52.5000020027161,2|2,2:0|2:0,0:0:0:0:
512,264,341390,2,0,P|501:239|497:214,1,52.5000020027161,2|2,2:0|2:0,0:0:0:0:
313,2,341590,6,0,B|279:63|307:92|332:119|295:176,1,182.454991668702,4|2,3:1|2:0,0:0:0:0:
72,89,342190,1,2,3:2:0:0:
378,53,342390,1,10,2:0:0:0:
256,336,342590,2,0,P|253:305|259:280,1,45.9549979171754,12|0,2:3|3:0,0:0:0:0:
125,192,342790,2,0,P|127:222|122:248,1,45.9549979171754,6|0,2:3|3:0,0:0:0:0:
271,365,342990,6,0,P|286:322|286:277,1,91.4549958343508,2|0,3:2|2:0,0:0:0:0:
109,166,343390,2,0,P|93:208|93:253,1,91.4549958343508,2|0,3:2|2:0,0:0:0:0:
378,53,343790,5,8,2:0:0:0:
261,216,343990,1,8,2:3:0:0:
332,372,344190,1,4,2:3:0:0:
445,384,344390,2,0,P|504:317|499:228,1,182.454991668702,4|2,3:1|2:0,0:0:0:0:
397,280,344990,1,0,3:0:0:0:
512,0,345190,5,10,2:0:0:0:
244,24,345390,1,2,2:0:0:0:
349,214,345590,1,2,2:0:0:0:
378,152,345690,1,2,2:0:0:0:
405,92,345790,2,0,L|314:101,1,91.4549958343508,2|2,3:0|2:0,0:0:0:0:
90,287,346190,6,0,L|140:281,1,45.9549979171754,2|0,3:0|2:0,0:0:0:0:
248,190,346390,2,0,L|202:194,1,45.9549979171754,2|0,2:0|2:0,0:0:0:0:
0,384,346590,6,0,P|34:368|49:344,1,52.5000020027161,10|2,2:0|2:0,0:0:0:0:
321,290,346790,2,0,P|290:268|262:266,1,52.5000020027161,2|2,2:0|2:0,0:0:0:0:
81,59,346990,2,0,P|77:96|89:121,1,52.5000020027161,2|2,2:0|2:0,0:0:0:0:
263,351,347190,6,0,P|308:374|359:367,1,105.000004005432,4|0,3:1|2:0,0:0:0:0:
252,234,347590,1,2,2:0:0:0:
188,382,347790,1,2,3:2:0:0:
512,365,347990,5,10,2:0:0:0:
258,220,348190,1,8,2:3:0:0:
510,72,348390,5,6,2:3:0:0:
264,206,348590,1,0,3:0:0:0:
154,0,348790,1,2,2:0:0:0:
205,253,348990,6,0,P|231:249|252:232,1,52.5000020027161,2|2,2:0|2:0,0:0:0:0:
46,98,349190,2,0,P|20:102|-1:118,1,52.5000020027161,2|2,2:0|2:0,0:0:0:0:
0,353,349390,5,8,2:0:0:0:
102,384,349490,1,8,2:0:0:0:
193,363,349590,1,8,2:0:0:0:
254,312,349690,1,8,2:0:0:0:
304,264,349790,1,8,2:0:0:0:
363,237,349890,1,8,2:0:0:0:
405,233,349990,6,0,P|457:260|475:289,1,91.4549958343508,4|0,3:1|2:0,0:0:0:0:
463,376,350390,1,2,2:0:0:0:
391,320,350590,1,2,3:2:0:0:
467,72,350790,2,0,B|499:104|499:104|512:147,1,91.4549958343508,10|0,2:0|2:0,0:0:0:0:
229,0,351190,6,0,L|241:60,1,45.9549979171754,2|0,3:2|3:0,0:0:0:0:
272,207,351390,2,0,P|225:215|184:205,1,91.4549958343508,2|2,3:0|2:0,0:0:0:0:
43,234,351790,6,0,L|81:207,1,45.9549979171754,0|0,3:0|3:0,0:0:0:0:
230,107,351990,2,0,L|188:86,1,45.9549979171754,4|4,3:0|3:0,0:0:0:0:
26,8,352190,2,0,L|29:54,1,45.9549979171754,8|8,3:0|3:0,0:0:0:0:
106,294,352390,5,8,2:0:0:0:
177,313,352490,1,8,2:0:0:0:
250,296,352590,2,0,P|280:277|300:254,1,52.5000020027161,8|8,2:0|2:0,0:0:0:0:
386,13,352790,5,4,3:1:0:0:
189,86,352990,2,0,P|163:121|153:179,1,83.9999974365235,0|2,3:0|2:0,0:0:0:0:
164,384,353390,1,2,3:2:0:0:
335,377,353590,1,10,2:0:0:0:
446,312,353790,2,0,P|447:283|441:255,1,41.9999987182618,12|0,2:3|3:0,0:0:0:0:
494,200,353990,2,0,P|495:177|488:152,1,41.9999987182618,6|0,2:3|3:0,0:0:0:0:
512,62,354190,6,0,B|474:65|474:65|428:82,1,84.4199974365235,2|0,3:2|2:0,0:0:0:0:
221,246,354590,2,0,B|239:207|239:207|271:172,1,84.4199974365235,2|0,3:2|2:0,0:0:0:0:
106,64,354990,5,10,2:0:0:0:
198,245,355190,1,8,2:3:0:0:
20,331,355390,1,4,2:3:0:0:
312,384,355590,2,0,P|389:366|457:286,1,182.454991668702,4|2,3:1|2:0,0:0:0:0:
468,175,356190,1,0,3:0:0:0:
71,0,356390,5,10,2:0:0:0:
267,195,356590,1,2,2:0:0:0:
6,262,356790,2,0,P|29:276|50:281,1,45.4999979171754,2|2,2:0|2:0,0:0:0:0:
223,287,356990,1,2,3:0:0:0:
217,270,357090,1,0,3:0:0:0:
210,250,357190,1,2,3:0:0:0:
61,83,357390,6,0,P|86:98|107:103,1,45.9549979171754,2|2,3:0|2:0,0:0:0:0:
307,175,357590,2,0,P|281:190|261:195,1,45.9549979171754,2|2,2:0|2:0,0:0:0:0:
0,267,357790,2,0,P|29:284|51:289,1,52.5000020027161,10|2,2:0|2:0,0:0:0:0:
201,352,357990,5,8,2:3:0:0:
276,373,358090,1,8,2:3:0:0:
354,382,358190,1,4,2:3:0:0:
433,375,358290,1,4,2:3:0:0:
509,355,358390,5,4,3:1:0:0:
136,315,358590,1,0,3:0:0:0:
477,236,358790,1,2,2:0:0:0:
176,202,358990,1,2,3:2:0:0:
445,117,359190,2,0,P|415:107|368:106,1,70,10|8,2:0|2:3,0:0:0:0:
261,328,359590,5,6,2:3:0:0:
138,145,359790,1,0,3:2:0:0:
31,338,359990,1,2,2:0:0:0:
265,347,360190,6,0,P|245:360|230:384,1,52.5000020027161,2|2,3:2|2:0,0:0:0:0:
14,331,360390,2,0,P|11:307|0:282,1,52.5000020027161,2|2,2:0|2:0,0:0:0:0:
152,134,360590,2,0,P|173:143|201:145,1,52.5000020027161,8|8,2:0|2:0,0:0:0:0:
324,260,360790,5,8,2:0:0:0:
384,253,360890,1,8,2:0:0:0:
410,221,360990,1,4,2:3:0:0:
418,198,361090,1,4,2:3:0:0:
451,228,361190,5,0,2:0:0:0:
