osu file format v14

[General]
AudioFilename: audio.mp3
AudioLeadIn: 0
PreviewTime: 12271
Countdown: 1
SampleSet: Soft
StackLeniency: 0.7
Mode: 0
LetterboxInBreaks: 0
WidescreenStoryboard: 0

[Editor]
DistanceSpacing: 1.3
BeatDivisor: 8
GridSize: 4
TimelineZoom: 1.48

[Metadata]
Title:Paper Moon
TitleUnicode:Paper Moon
Artist:Plini
ArtistUnicode:Plini
Creator:Zhuriel
Version:The End of Everything
Source:
Tags:Progressive Prog Metal Marco Minnemann Simon Grove Jakub Zytecki Strandberg
BeatmapID:1185249
BeatmapSetID:560498

[Difficulty]
HPDrainRate:4
CircleSize:4.8
OverallDifficulty:8.5
ApproachRate:9
SliderMultiplier:2
SliderTickRate:1

[Events]
//Background and Video events
0,0,"bg.png",0,0
//Break Periods
2,74052,79307
2,160051,205510
2,233802,240977
//Storyboard Layer 0 (Background)
//Storyboard Layer 1 (Fail)
//Storyboard Layer 2 (Pass)
//Storyboard Layer 3 (Foreground)
//Storyboard Sound Samples

[TimingPoints]
1306,545.454545454546,11,1,1,70,1,0
2124,-66.6666666666667,6,1,1,70,0,0
2669,-100,6,1,1,70,0,0
3487,-66.6666666666667,6,1,1,70,0,0
4306,545.454545454546,11,1,1,70,1,0
5124,-66.6666666666667,6,1,1,70,0,0
5669,-100,6,1,1,70,0,0
7305,545.454545454546,11,1,1,70,1,0
7714,-147.058823529412,6,1,1,70,0,0
8123,-66.6666666666667,6,1,1,70,0,0
8668,-100,6,1,1,70,0,0
9486,-66.6666666666667,6,1,1,70,0,0
10305,545.454545454546,11,1,1,70,1,0
11123,-66.6666666666667,6,1,1,70,0,0
11668,-100,6,1,1,70,0,0
12486,-66.6666666666667,6,1,1,85,0,0
13307,545.454545454546,11,1,1,85,1,1
13307,-76.9230769230769,6,1,1,85,0,1
14125,-50,6,1,1,85,0,1
14670,-76.9230769230769,6,1,1,85,0,1
15488,-50,6,1,1,85,0,1
16307,545.454545454546,11,1,1,85,1,1
16307,-76.9230769230769,6,1,1,85,0,1
17125,-50,6,1,1,85,0,1
17670,-76.9230769230769,6,1,1,85,0,1
19307,545.454545454546,11,1,1,85,1,1
19307,-50,6,1,1,85,0,1
20670,-76.9230769230769,6,1,1,85,0,1
22307,545.454545454546,11,1,1,85,1,1
22307,-76.9230769230769,6,1,1,85,0,1
23125,-50,6,1,1,85,0,1
23670,-76.9230769230769,6,1,1,85,0,1
24488,-50,6,1,1,85,0,1
25307,545.454545454546,11,1,1,60,1,0
27488,-76.9230769230769,6,1,1,60,0,0
28307,545.454545454546,11,1,1,60,1,0
30488,-66.6666666666667,6,1,1,60,0,0
31307,545.454545454546,11,1,1,60,1,0
34307,545.454545454546,11,1,1,60,1,0
35125,-133.333333333333,6,1,1,60,0,0
35397,-100,6,1,1,60,0,0
36352,-66.6666666666667,6,1,1,60,0,0
37307,545.454545454546,11,1,1,70,1,0
37307,-86.9565217391305,6,1,1,70,0,0
39488,-62.5,6,1,1,70,0,0
40307,545.454545454546,11,1,1,70,1,0
40307,-86.9565217391305,6,1,1,70,0,0
43307,545.454545454546,11,1,1,70,1,0
43307,-86.9565217391305,6,1,1,70,0,0
46307,545.454545454546,11,1,1,70,1,0
46307,-86.9565217391305,6,1,1,70,0,0
49307,545.454545454546,11,1,1,60,1,0
50125,-76.9230769230769,6,1,1,60,0,0
50670,-100,6,1,1,60,0,0
51488,-76.9230769230769,6,1,1,60,0,0
51897,-76.9230769230769,6,1,1,40,0,0
52307,545.454545454546,11,1,1,60,1,0
53125,-76.9230769230769,6,1,1,60,0,0
55307,545.454545454546,11,1,1,60,1,0
56125,-76.9230769230769,6,1,1,60,0,0
56670,-100,6,1,1,60,0,0
57488,-76.9230769230769,6,1,1,60,0,0
58307,545.454545454546,11,1,1,60,1,0
58307,-76.9230769230769,6,1,1,60,0,0
58716,-100,6,1,1,60,0,0
59943,-76.9230769230769,6,1,1,60,0,0
60216,-86.9565217391305,6,1,1,60,0,0
61307,545.454545454546,11,1,1,85,1,1
61307,-50,6,1,1,85,0,1
62670,-76.9230769230769,6,1,1,85,0,1
63488,-50,6,1,1,85,0,1
64307,545.454545454546,11,1,1,85,1,1
64307,-76.9230769230769,6,1,1,85,0,1
65397,-50,6,1,1,85,0,1
65670,-76.9230769230769,6,1,1,85,0,1
67307,545.454545454546,11,1,1,85,1,1
67307,-133.333333333333,6,1,1,85,0,1
67488,-133.333333333333,6,1,1,10,0,1
67579,-133.333333333333,6,1,1,85,0,1
67852,-50,6,1,1,85,0,1
68670,-76.9230769230769,6,1,1,85,0,1
70307,545.454545454546,11,1,1,85,1,1
70307,-76.9230769230769,6,1,1,85,0,1
72488,-50,6,1,1,85,0,1
73307,545.454545454546,11,1,1,70,1,0
73307,-133.333333333333,6,1,1,70,0,0
73852,-133.333333333333,6,1,1,60,0,0
76307,545.454545454546,11,1,1,70,1,0
79307,545.454545454546,4,1,1,70,1,0
80807,-66.6666666666667,4,1,1,70,0,0
80943,-166.666666666667,4,1,1,70,0,0
81420,-166.666666666667,4,1,1,50,0,0
81488,545.454545454546,11,1,1,70,1,0
82306,-66.6666666666667,6,1,1,70,0,0
84488,545.454545454546,11,1,1,70,1,0
85306,-66.6666666666667,6,1,1,70,0,0
85851,-100,6,1,1,70,0,0
87488,545.454545454546,11,1,1,70,1,0
88306,-66.6666666666667,6,1,1,70,0,0
88851,-100,6,1,1,70,0,0
89669,-66.6666666666667,6,1,1,70,0,0
89942,-133.333333333333,6,1,1,70,0,0
90419,-133.333333333333,6,1,1,10,0,0
90488,545.454545454546,11,2,1,60,1,0
93488,545.454545454546,11,2,1,60,1,0
95124,-66.6666666666667,6,2,1,60,0,0
96488,545.454545454546,11,2,1,60,1,0
96488,-66.6666666666667,6,2,1,60,0,0
97169,-100,6,2,1,60,0,0
98669,-66.6666666666667,6,2,1,60,0,0
99215,-66.6666666666667,6,2,1,40,0,0
99488,545.454545454546,11,2,1,40,1,0
99488,-66.6666666666667,6,2,1,40,0,0
101124,-66.6666666666667,6,2,1,60,0,0
102488,545.454545454546,11,1,1,70,1,0
103306,-62.5,6,1,1,70,0,0
103851,-86.9565217391305,6,1,1,70,0,0
104669,-62.5,6,1,1,70,0,0
105488,545.454545454546,11,1,1,70,1,0
105897,-86.9565217391305,6,1,1,70,0,0
106306,-62.5,6,1,1,70,0,0
106851,-86.9565217391305,6,1,1,70,0,0
108488,545.454545454546,11,1,1,70,1,0
109306,-133.333333333333,6,1,1,70,0,0
109510,-133.333333333333,6,1,1,10,0,0
109578,-100,6,1,1,70,0,0
109783,-100,6,1,1,10,0,0
109851,-86.9565217391305,6,1,1,70,0,0
110669,-62.5,6,1,1,70,0,0
111488,545.454545454546,11,1,1,70,1,0
111488,-86.9565217391305,6,1,1,70,0,0
112306,-62.5,6,1,1,70,0,0
112851,-86.9565217391305,6,1,1,70,0,0
114488,545.454545454546,11,2,1,60,1,0
115306,-133.333333333333,6,2,1,60,0,0
115988,-100,6,2,1,60,0,0
117488,545.454545454546,11,2,1,60,1,0
118306,-133.333333333333,6,2,1,60,0,0
118715,-100,6,2,1,60,0,0
120488,545.454545454546,11,2,1,60,1,0
121169,-133.333333333333,6,2,1,60,0,0
121851,-100,6,2,1,60,0,0
122669,-133.333333333333,6,2,1,60,0,0
123215,-100,6,2,1,40,0,0
123488,545.454545454546,11,2,1,60,1,0
124306,-133.333333333333,6,2,1,60,0,0
124851,-100,6,2,1,60,0,0
126488,545.454545454546,11,1,1,85,1,1
126488,-76.9230769230769,6,1,1,85,0,1
127306,-50,6,1,1,85,0,1
127851,-76.9230769230769,6,1,1,85,0,1
128669,-50,6,1,1,85,0,1
129488,545.454545454546,11,1,1,85,1,1
129488,-76.9230769230769,6,1,1,85,0,1
130306,-50,6,1,1,85,0,1
130851,-76.9230769230769,6,1,1,85,0,1
132488,545.454545454546,11,1,1,85,1,1
132488,-50,6,1,1,85,0,1
133851,-76.9230769230769,6,1,1,85,0,1
135488,545.454545454546,11,1,1,85,1,1
135488,-76.9230769230769,6,1,1,85,0,1
136306,-50,6,1,1,85,0,1
138488,545.454545454546,4,1,1,85,1,0
139578,-100,4,1,1,75,0,0
140669,-100,4,1,1,65,0,0
141760,-100,4,1,1,60,0,0
142851,500,4,2,1,55,1,0
144351,-100,4,2,1,50,0,0
145851,-100,4,2,1,45,0,0
147351,-100,4,2,1,40,0,0
148851,-100,4,2,1,35,0,0
150851,-100,4,2,1,30,0,0
152851,-100,4,2,1,25,0,0
154851,-100,4,2,1,20,0,0
156851,-100,4,2,1,15,0,0
158851,500,2,2,1,10,1,0
158851,-100,4,2,1,10,0,0
159601,-100,4,2,1,30,0,0
159851,500,4,2,1,30,1,0
189851,500,2,2,1,30,1,0
190860,500,4,2,1,60,1,0
206110,-133.333333333333,4,2,1,30,0,0
206360,-133.333333333333,4,2,1,40,0,0
206860,-133.333333333333,4,2,1,60,0,0
219216,495.867768595041,4,2,1,60,1,0
220860,500,2,2,1,30,1,0
220860,-133.333333333333,5,2,1,30,0,0
221360,-133.333333333333,5,2,1,40,0,0
221852,500,4,2,1,60,1,0
221852,-133.333333333333,4,2,1,60,0,0
255602,-133.333333333333,4,2,1,30,0,0
255852,500,2,2,1,40,1,0
255852,-133.333333333333,5,2,1,40,0,0
256852,500,4,2,1,60,1,0
256852,-133.333333333333,4,2,1,60,0,0
267914,-133.333333333333,4,2,1,10,0,0
267977,-133.333333333333,4,2,1,25,0,0
268102,-133.333333333333,4,2,1,35,0,0
268227,-133.333333333333,4,2,1,60,0,0
272977,-133.333333333333,4,2,1,40,0,0
273727,-133.333333333333,4,2,1,60,0,0
280352,-133.333333333333,4,2,1,25,0,0
280602,-133.333333333333,4,2,1,40,0,0
280852,-133.333333333333,4,2,1,60,0,0
286352,-133.333333333333,4,2,1,25,0,0
286727,-133.333333333333,4,2,1,40,0,0
286852,500,2,2,1,40,1,0
286852,-133.333333333333,5,2,1,40,0,0
287852,500,4,2,1,60,1,0
287852,-133.333333333333,4,2,1,60,0,0
294352,-133.333333333333,4,2,1,30,0,0
294852,-133.333333333333,4,2,1,40,0,0
295352,-133.333333333333,4,2,1,50,0,0
295852,-133.333333333333,4,2,1,60,0,0
301852,-133.333333333333,4,2,1,30,0,0
302102,-133.333333333333,4,2,1,45,0,0
302852,-133.333333333333,4,2,1,30,0,0
303102,-125,4,2,1,40,0,0
303352,-116.279069767442,4,2,1,45,0,0
303602,-107.52688172043,4,2,1,50,0,0
303866,498.960498960499,4,2,1,70,1,0
313346,-100,4,2,1,40,0,0
313595,-100,4,2,1,70,0,0
314593,-100,4,2,1,50,0,0
314843,-100,4,2,1,70,0,0
319837,489.795918367347,4,1,1,70,1,1
319837,-83.3333333333333,4,1,1,70,0,1
335018,-83.3333333333333,6,1,1,55,0,1
335140,-83.3333333333333,6,1,1,60,0,1
335262,-83.3333333333333,6,1,1,65,0,1
335385,-83.3333333333333,6,1,1,70,0,1
335514,480,4,1,1,70,1,0
341274,480,3,1,1,70,1,0
342714,480,4,1,1,70,1,0
347874,-117.647058823529,5,1,1,70,0,0
348114,-117.647058823529,5,1,1,10,0,0
348234,-117.647058823529,5,1,1,70,0,0
348474,480,3,1,1,10,1,0
348474,-117.647058823529,3,1,1,10,0,0
348594,-117.647058823529,3,1,1,70,0,0
348834,-117.647058823529,3,1,1,10,0,0
348954,-117.647058823529,3,1,1,70,0,0
349194,-117.647058823529,3,1,1,10,0,0
349314,-117.647058823529,3,1,1,70,0,0
349554,-117.647058823529,3,1,1,10,0,0
349674,-117.647058823529,3,1,1,70,0,0
349914,480,4,1,1,70,1,0
355674,480,3,1,1,70,1,0
356394,-100,3,1,1,50,0,0
356634,-100,3,1,1,62,0,0
356874,-100,3,1,1,75,0,0
357114,480,4,1,1,70,1,0
362154,-133.333333333333,5,1,1,70,0,0
362574,-133.333333333333,5,1,1,10,0,0
362634,-133.333333333333,5,1,1,70,0,0
362874,480,3,1,1,70,1,0
362874,-133.333333333333,3,1,1,70,0,0
363534,-133.333333333333,3,1,1,10,0,0
363594,-200,3,1,1,70,0,0
364331,480,7,1,1,70,1,0
364331,-117.647058823529,7,1,1,70,0,0
366011,480,7,1,1,70,1,0
366011,-117.647058823529,7,1,1,70,0,0
367691,480,7,1,1,70,1,0
367691,-117.647058823529,7,1,1,70,0,0
369371,480,7,1,1,70,1,0
371051,480,7,1,1,70,1,0
371051,-117.647058823529,7,1,1,70,0,0
372731,480,7,1,1,70,1,0
372731,-117.647058823529,7,1,1,70,0,0
374411,480,7,1,1,70,1,0
374411,-117.647058823529,7,1,1,70,0,0
376091,480,9,1,1,70,1,0
377291,-100,5,1,1,80,0,0
377771,-100,5,1,1,90,0,0
378251,480,3,1,1,85,1,1
378251,-71.4285714285714,3,1,1,85,0,1
388331,-71.4285714285714,3,1,1,70,0,1
389771,489.795918367347,3,1,1,85,1,1
389771,-71.4285714285714,3,1,1,85,0,1
401036,-71.4285714285714,3,1,1,40,0,1
401526,-71.4285714285714,3,1,1,30,0,1
401771,-71.4285714285714,3,1,1,40,0,1
402015,-71.4285714285714,3,1,1,50,0,1
402260,-71.4285714285714,3,1,1,60,0,1
402505,-71.4285714285714,3,1,1,75,0,1
402873,-71.4285714285714,3,1,1,10,0,1
402995,489.795918367347,3,1,1,70,1,0
403239,-100,3,1,1,10,0,0
403362,-100,3,1,1,70,0,0
403607,-100,3,1,1,10,0,0
403729,-100,3,1,1,70,0,0
403974,-100,3,1,1,10,0,0
404097,-100,3,1,1,70,0,0
404709,-100,3,1,1,10,0,0
404831,-100,3,1,1,70,0,0
405076,-100,3,1,1,10,0,0
405199,-100,3,1,1,70,0,0
405443,-100,3,1,1,10,0,0
405566,-100,3,1,1,70,0,0
405933,-100,3,1,1,70,0,0
406178,-100,3,1,1,10,0,0
406301,-100,3,1,1,70,0,0
406546,-100,3,1,1,10,0,0
406668,-100,3,1,1,70,0,0
406913,-100,3,1,1,10,0,0
407035,-100,3,1,1,70,0,0
407280,-100,3,1,1,10,0,0
407403,-100,3,1,1,70,0,0
407648,-100,3,1,1,10,0,0
407770,-100,3,1,1,70,0,0
408382,-100,3,1,1,40,0,0
408627,-100,3,1,1,55,0,0
408872,-100,3,1,1,70,0,0
417685,476.190476190476,4,3,1,30,1,0
421256,-100,4,3,1,60,0,0
421494,-100,4,3,1,40,0,0
423399,483.870967741935,4,3,1,40,1,0
425092,-100,4,3,1,70,0,0
425334,-100,4,3,1,50,0,0
426302,-100,4,3,1,60,0,0
427269,-100,4,3,1,70,0,0
427511,-100,4,3,1,75,0,0
427753,-100,4,3,1,80,0,0
427995,-100,4,3,1,85,0,0
428237,-100,4,3,1,95,0,0
428358,-83.3333333333333,4,1,1,70,0,0
428721,-50,4,1,1,95,0,0
429084,-50,4,1,1,10,0,0
429208,480,4,1,1,85,1,1
429568,-100,4,1,1,10,0,1
429688,-100,4,1,1,85,0,0
430048,-100,4,1,1,10,0,0
430168,-100,4,1,1,85,0,0
430528,-100,4,1,1,10,0,0
430648,-100,4,1,1,85,0,0
431008,-100,4,1,1,10,0,0
431128,-100,4,1,1,85,0,0
431488,-100,4,1,1,10,0,0
431608,-100,4,1,1,85,0,0
431968,-100,4,1,1,10,0,0
432088,-100,4,1,1,70,0,0
433048,-66.6666666666667,4,1,1,85,0,1
447448,-66.6666666666667,4,1,1,85,0,1
448408,-66.6666666666667,4,1,1,85,0,1
451288,-100,4,1,1,85,0,1
452248,-66.6666666666667,4,1,1,85,0,1
463768,480,4,1,1,85,1,0
463768,-181.818181818182,4,1,1,85,0,0
467608,545.454545454546,11,1,1,85,1,1
467608,-76.9230769230769,6,1,1,85,0,1
468426,-50,6,1,1,85,0,1
468971,-76.9230769230769,6,1,1,85,0,1
469789,-50,6,1,1,85,0,1
470608,545.454545454546,11,1,1,85,1,1
470608,-76.9230769230769,6,1,1,85,0,1
471426,-50,6,1,1,85,0,1
471971,-76.9230769230769,6,1,1,85,0,1
473608,545.454545454546,11,1,1,85,1,1
474017,-133.333333333333,6,1,1,85,0,1
474426,-50,6,1,1,85,0,1
474971,-76.9230769230769,6,1,1,85,0,1
475789,-50,6,1,1,85,0,1
476608,545.454545454546,11,1,1,85,1,1
476608,-76.9230769230769,6,1,1,85,0,1
477426,-50,6,1,1,85,0,1
477971,-76.9230769230769,6,1,1,85,0,1
478789,-50,6,1,1,85,0,1
479608,689.655172413793,4,2,1,90,1,0
479608,-803,4,2,1,90,0,0
480297,-100,4,2,4,80,0,0
480987,-100,4,2,3,70,0,0
482366,-100,4,2,4,60,0,0
483745,-100,4,2,3,50,0,0
484435,-100,4,2,4,55,0,0
484780,-100,4,2,3,65,0,0
484952,-100,4,2,4,70,0,0
485125,-100,4,2,1,80,0,0
485297,-100,4,2,3,70,0,0
485470,-100,4,2,4,65,0,0
485642,-100,4,2,3,60,0,0
485814,-100,4,2,4,55,0,0
486159,-100,4,2,3,50,0,0
486504,-100,4,2,1,70,0,0
486676,-100,4,2,4,60,0,0
486849,-100,4,2,3,50,0,0
487194,-100,4,2,2,70,0,0
487366,-100,4,2,4,60,0,0
487539,-100,4,2,3,50,0,0
487883,-100,4,2,1,70,0,0
488056,-100,4,2,4,60,0,0
488228,-100,4,2,3,50,0,0
488573,-100,4,2,2,70,0,0
488745,-100,4,2,4,60,0,0
488918,-100,4,2,3,50,0,0
489263,-100,4,2,4,45,0,0
489952,-100,4,2,3,40,0,0
490642,-100,4,2,1,60,0,0
490814,-100,4,2,3,55,0,0
490987,-100,4,2,4,50,0,0
491332,-100,4,2,3,45,0,0
492021,-100,4,2,4,40,0,0
492366,-100,4,2,3,80,0,0
492380,-100,4,2,3,60,0,0
492409,-100,4,2,3,50,0,0
492452,-100,4,2,3,40,0,0
492539,-100,4,2,4,30,0,0
492711,-100,4,2,3,35,0,0
493228,-100,4,2,1,45,0,0

[Colours]
Combo1 : 239,99,46
Combo2 : 0,64,128
Combo3 : 0,128,255
Combo4 : 92,92,92
Combo5 : 192,192,192
Combo6 : 250,235,50
Combo7 : 232,222,180
Combo8 : 255,172,89

[HitObjects]
254,368,1306,6,0,P|301:380|349:368,1,100,2|8,0:3|0:0,0:0:0:0:
440,222,1715,2,0,P|416:265|374:291,1,100
123,203,2124,6,0,L|210:225,1,75.0000028610231,12|0,0:0|0:0,0:0:0:0:
338,228,2396,2,0,L|265:208,1,75.0000028610231
52,242,2669,102,0,P|55:290|82:331,1,100,4|0,0:0|0:0,0:0:0:0:
254,368,3078,2,0,P|205:357|168:324,1,100
184,88,3487,6,0,L|217:180,1,75.0000028610231,12|0,0:0|0:0,0:0:0:0:
290,278,3760,2,0,L|264:207,1,75.0000028610231
260,68,4033,2,0,L|293:160,1,75.0000028610231
393,316,4306,102,0,P|436:291|464:219,1,100,2|0,0:3|0:0,0:0:0:0:
430,91,4715,2,0,P|432:139|411:184,1,100
231,264,5056,101,0,0:0:0:0:
214,264,5124,22,0,L|264:208,1,75.0000028610231,12|0,0:0|0:0,0:0:0:0:
334,82,5396,2,0,L|284:138,1,75.0000028610231
138,246,5669,102,0,P|117:200|137:125,1,100,4|0,0:0|0:0,0:0:0:0:
240,42,6078,2,0,P|208:79|199:128,1,100
214,264,6487,5,8,3:1:0:0:
276,280,6624,1,8,3:0:0:0:
259,218,6760,1,4,3:0:0:0:
231,326,6896,101,8,3:1:0:0:
293,342,7033,1,8,3:0:0:0:
276,280,7169,1,4,3:0:0:0:
169,310,7305,5,4,3:0:0:0:
152,248,7441,1,4,3:0:0:0:
197,202,7577,1,4,3:0:0:0:
293,342,7714,102,0,P|326:322|339:292,1,68.0000004150391,2|0,0:3|0:0,0:0:0:0:
336,73,8123,6,0,L|323:170,1,75.0000028610231,12|0,0:0|0:0,0:0:0:0:
276,280,8395,2,0,L|285:205,1,75.0000028610231
260,48,8668,102,0,P|210:41|165:61,1,100,4|0,0:0|0:0,0:0:0:0:
163,231,9077,2,0,P|157:181|177:136,1,100
327,75,9418,101,0,0:0:0:0:
336,73,9486,22,0,L|272:147,1,75.0000028610231,12|0,0:0|0:0,0:0:0:0:
235,261,9759,2,0,L|283:204,1,75.0000028610231
398,118,10032,2,0,L|334:192,1,75.0000028610231
256,335,10305,102,0,P|305:341|350:321,1,100,2|0,0:3|0:0,0:0:0:0:
163,231,10714,2,0,P|113:224|68:244,1,100,4|0,0:0|0:0,0:0:0:0:
235,261,11123,6,0,L|260:190,1,75.0000028610231,4|0,0:0|0:0,0:0:0:0:
380,78,11395,1,8,0:0:0:0:
350,321,11668,102,0,P|303:341|229:319,1,100,4|0,0:0|0:0,0:0:0:0:
148,220,12077,2,0,P|184:252|233:261,1,100
392,188,12486,54,8,L|398:120,1,37.5000014305115,8|8,3:1|3:1,3:1:0:0:
399,113,12623,1,8,3:1:0:0:
331,142,12759,1,8,3:1:0:0:
421,258,12895,6,8,L|463:200,1,37.5000014305115,8|8,3:3|3:3,3:3:0:0:
464,197,13032,1,8,3:3:0:0:
392,188,13168,1,8,3:3:0:0:
380,344,13307,102,0,P|312:376|234:376,1,129.999994049073,2|0,0:3|0:0,0:0:0:0:
104,260,13716,2,0,P|172:292|250:292,1,129.999994049073
464,197,14125,6,0,B|367:218,1,100,2|0,0:3|0:0,0:0:0:0:
195,189,14397,2,0,B|292:168,1,100
492,64,14670,102,0,P|431:19|354:4,1,129.999994049073,4|0,0:0|0:0,0:0:0:0:
196,84,15079,2,0,P|268:65|345:80,1,129.999994049073
464,279,15420,37,0,0:0:0:0:
463,292,15488,86,0,L|382:215,1,100,12|0,0:0|0:0,0:0:0:0:
234,161,15761,2,0,L|306:230,1,100
425,370,16034,2,0,L|344:293,1,100
106,101,16307,102,0,P|83:173|94:251,1,129.999994049073,2|0,0:3|0:0,0:0:0:0:
242,335,16716,2,0,P|192:277|172:201,1,129.999994049073
284,52,17125,6,0,B|273:173,1,100,12|0,0:0|0:0,0:0:0:0:
320,313,17397,2,0,B|330:214,1,100
359,8,17670,102,0,P|425:46|468:111,1,129.999994049073,4|0,0:0|0:0,0:0:0:0:
401,291,18079,2,0,P|432:222|431:143,1,129.999994049073
248,57,18488,5,8,3:1:0:0:
242,145,18624,1,8,3:3:0:0:
320,105,18760,1,4,3:3:0:0:
169,96,18897,101,8,1:3:0:0:
164,185,19033,1,8,1:3:0:0:
242,145,19169,1,4,3:3:0:0:
90,135,19307,6,4,L|80:8,1,100,4|4,3:0|3:0,3:0:0:0:
258,163,19579,1,4,3:0:0:0:
55,167,19716,102,0,L|45:40,1,100,2|0,0:3|0:3,0:3:0:0:
274,181,19988,1,0,0:0:0:0:
20,199,20125,6,0,L|10:72,1,100,12|0,0:0|0:0,0:0:0:0:
290,199,20397,1,0,0:0:0:0:
141,302,20534,1,0,0:0:0:0:
169,96,20670,102,0,P|235:56|314:54,1,129.999994049073,4|0,0:0|0:0,0:0:0:0:
141,302,21079,2,0,P|75:342|-4:344,1,129.999994049073
257,213,21488,6,0,P|298:279|300:358,1,129.999994049073,12|0,0:0|0:0,0:0:0:0:
52,185,21897,2,0,P|12:119|10:40,1,129.999994049073
158,213,22307,102,4,P|117:279|115:358,1,129.999994049073,2|8,0:3|0:0,0:0:0:0:
363,185,22716,2,4,P|403:119|405:40,1,129.999994049073,4|0,0:0|0:0,0:0:0:0:
257,213,23125,6,0,L|333:302,1,100,4|0,0:0|0:0,0:0:0:0:
505,351,23397,1,8,0:0:0:0:
206,330,23670,102,0,P|170:275|157:212,1,129.999994049073,4|0,0:0|0:0,0:0:0:0:
93,64,24079,2,0,P|69:124|70:188,1,129.999994049073
338,232,24488,6,8,L|400:196,1,50,8|8,3:1|3:1,3:1:0:0:
413,186,24624,1,8,3:1:0:0:
336,144,24760,1,8,3:1:0:0:
293,307,24897,102,8,L|361:308,1,50,8|8,3:3|3:3,3:3:0:0:
381,307,25033,1,8,3:3:0:0:
338,232,25169,1,8,3:3:0:0:
181,338,25307,53,4,0:0:0:0:
176,336,25443,2,0,P|140:304|128:284,1,50
108,188,25716,1,0,0:0:0:0:
113,190,25852,1,0,0:0:0:0:
93,64,26125,5,8,0:0:0:0:
216,40,26397,1,0,0:0:0:0:
244,72,26533,1,0,0:0:0:0:
252,152,26670,101,4,0:0:0:0:
282,175,26806,1,0,0:0:0:0:
321,188,26942,1,0,0:0:0:0:
376,132,27079,5,4,0:0:0:0:
414,144,27215,1,0,0:0:0:0:
454,211,27351,1,0,0:0:0:0:
376,296,27488,102,0,L|356:365,1,64.9999970245363,8|0,0:0|0:0,0:0:0:0:
290,215,27761,1,0,0:0:0:0:
261,244,27897,2,0,L|242:306,2,64.9999970245363
444,72,28307,5,4,0:0:0:0:
440,68,28443,2,0,P|409:52|375:43,1,50
244,72,28716,1,0,0:0:0:0:
106,286,29397,101,8,0:0:0:0:
43,299,29534,1,0,0:0:0:0:
109,242,29670,1,0,0:0:0:0:
35,234,29807,1,0,0:0:0:0:
125,201,29943,5,0,0:0:0:0:
50,167,30080,1,4,0:0:0:0:
152,166,30215,1,0,0:0:0:0:
82,102,30352,1,0,0:0:0:0:
245,166,30488,102,0,L|270:202,1,37.5000014305115,0|0,3:0|3:0,3:0:0:0:
286,228,30625,1,0,3:0:0:0:
213,235,30761,1,0,3:0:0:0:
236,90,30897,6,4,L|275:109,1,37.5000014305115,4|4,3:0|3:0,3:0:0:0:
303,122,31034,1,4,3:0:0:0:
245,166,31170,1,4,3:0:0:0:
82,102,31307,101,4,0:0:0:0:
86,98,31443,2,0,P|129:78|153:75,1,50
308,120,31716,1,0,0:0:0:0:
303,122,31852,1,0,0:0:0:0:
466,85,32125,5,8,0:0:0:0:
482,213,32397,1,0,0:0:0:0:
452,243,32533,1,0,0:0:0:0:
440,322,32670,101,4,0:0:0:0:
409,344,32806,1,0,0:0:0:0:
369,355,32942,1,0,0:0:0:0:
317,296,33079,5,4,0:0:0:0:
278,306,33215,1,0,0:0:0:0:
201,341,33352,102,0,L|228:388,1,50,8|0,0:0|0:0,0:0:0:0:
152,298,33625,2,0,L|179:345,1,50,8|0,0:0|0:0,0:0:0:0:
104,255,33897,2,0,L|131:302,1,50,8|0,0:0|0:0,0:0:0:0:
56,212,34170,1,8,0:0:0:0:
51,74,34307,5,4,0:0:0:0:
55,78,34443,2,0,P|98:98|122:101,1,50
276,58,34716,1,0,0:0:0:0:
272,54,34852,1,0,0:0:0:0:
191,154,35125,102,0,P|188:200|180:223,1,56.2500021457673
170,242,35397,5,8,0:0:0:0:
133,295,35534,1,0,0:0:0:0:
208,262,35670,1,0,0:0:0:0:
186,332,35807,1,8,0:0:0:0:
250,269,35943,101,0,0:0:0:0:
250,351,36080,1,4,0:0:0:0:
292,262,36216,1,0,0:0:0:0:
321,352,36352,6,0,L|379:328,1,37.5000014305115,0|0,3:0|3:0,3:0:0:0:
397,350,36488,1,0,3:0:0:0:
395,239,36625,102,8,L|337:263,1,37.5000014305115,8|8,3:0|3:0,3:0:0:0:
328,239,36761,1,8,3:0:0:0:
318,124,36897,6,4,L|354:112,1,37.5000014305115,4|4,3:3|3:3,3:3:0:0:
378,104,37034,1,4,3:0:0:0:
363,167,37170,1,4,3:0:0:0:
249,61,37307,102,0,P|191:50|103:67,1,143.750002741814,4|0,0:0|0:0,0:0:0:0:
46,97,37716,2,0,L|77:44,1,57.5000010967255
10,303,38125,6,0,P|52:344|126:356,1,115.000002193451,8|0,0:0|0:0,0:0:0:0:
32,125,38670,102,0,P|34:183|80:243,1,115.000002193451,4|0,0:0|0:0,0:0:0:0:
216,242,39079,2,0,P|160:223|115:162,1,115.000002193451
157,34,39488,6,0,L|203:128,1,80,8|0,0:0|0:0,0:0:0:0:
290,215,39761,2,0,L|254:143,1,80,4|0,0:0|0:0,0:0:0:0:
227,0,40034,2,0,L|273:94,1,80,4|0,0:0|0:0,0:0:0:0:
360,245,40307,102,0,P|387:192|396:103,1,143.750002741814,4|0,0:0|0:0,0:0:0:0:
384,40,40716,2,0,L|425:85,1,57.5000010967255
290,215,41125,6,0,L|256:286,1,57.5000010967255,8|0,0:0|0:0,0:0:0:0:
176,352,41397,2,0,L|200:300,1,57.5000010967255
247,155,41670,101,0,0:0:0:0:
180,171,41807,2,0,L|232:128,1,57.5000010967255,8|0,0:0|0:0,0:0:0:0:
113,187,42079,2,0,L|165:144,1,57.5000010967255,8|0,0:0|0:0,0:0:0:0:
394,291,42488,5,0,3:0:0:0:
453,310,42624,1,0,3:0:0:0:
403,351,42761,1,0,3:0:0:0:
443,250,42897,101,4,3:0:0:0:
502,270,43033,1,4,3:0:0:0:
453,310,43170,1,4,3:0:0:0:
388,161,43307,5,4,0:0:0:0:
386,155,43443,2,0,P|356:118|334:105,1,57.5000010967255
207,65,43716,1,0,0:0:0:0:
209,70,43852,1,4,0:0:0:0:
258,284,44125,102,0,L|240:229,1,57.5000010967255
164,129,44398,2,0,L|181:183,1,57.5000010967255,12|0,0:0|0:0,0:0:0:0:
205,352,44670,6,0,P|148:348|100:318,1,115.000002193451
81,147,45079,2,0,P|91:202|127:246,1,115.000002193451
258,284,45488,101,12,0:0:0:0:
341,265,45624,1,0,0:0:0:0:
309,348,45761,1,0,0:0:0:0:
287,198,45897,5,0,0:0:0:0:
373,182,46033,1,0,0:0:0:0:
341,265,46170,1,0,0:0:0:0:
242,80,46307,102,0,P|191:46|104:28,1,143.750002741814,4|0,0:0|0:0,0:0:0:0:
39,34,46716,2,0,L|88:-2,1,57.5000010967255
7,142,47125,6,0,L|23:197,1,57.5000010967255,8|0,0:0|0:0,0:0:0:0:
54,370,47397,2,0,L|37:314,1,57.5000010967255,4|0,0:0|0:0,0:0:0:0:
101,236,47670,101,0,0:0:0:0:
156,351,47807,2,0,L|148:323,1,28.7500005483627,0|0,3:0|3:0,3:0:0:0:
176,224,47943,5,0,3:0:0:0:
229,338,48079,2,8,L|221:310,1,28.7500005483627,8|8,3:0|3:0,3:0:0:0:
251,212,48216,2,8,L|262:252,1,28.7500005483627,8|8,3:0|3:0,3:0:0:0:
302,325,48352,2,4,L|294:297,1,28.7500005483627,4|4,3:0|3:0,3:0:0:0:
324,199,48488,102,8,L|335:239,1,28.7500005483627,8|8,3:0|3:0,3:0:0:0:
395,202,48625,2,8,L|415:181,1,28.7500005483627,8|8,3:0|3:0,3:0:0:0:
362,139,48761,2,0,L|334:131,1,28.7500005483627,0|0,3:0|3:0,3:0:0:0:
384,269,48897,6,4,L|395:309,1,28.7500005483627,4|4,3:0|3:0,3:0:0:0:
455,272,49034,2,4,L|475:251,1,28.7500005483627,4|4,3:0|3:0,3:0:0:0:
422,209,49170,2,4,L|394:201,1,28.7500005483627,4|4,3:0|3:0,3:0:0:0:
451,366,49307,102,0,P|392:383|335:376,1,100,4|0,0:0|0:0,0:0:0:0:
289,316,49716,2,0,P|248:288|219:248,1,100
233,122,50125,6,0,L|275:200,1,64.9999970245363,8|0,0:0|0:0,0:0:0:0:
314,101,50397,2,0,L|283:43,1,64.9999970245363
198,42,50670,102,0,P|148:78|118:128,1,100,4|0,0:0|0:0,0:0:0:0:
137,200,51079,2,0,P|134:249|147:297,1,100
278,273,51488,6,0,L|218:247,1,64.9999970245363,8|0,0:0|0:0,0:0:0:0:
203,154,51761,1,0,0:0:0:0:
210,157,51897,2,0,L|249:174,5,32.4999985122681,0|0|0|0|0|0,3:0|3:0|3:0|3:0|3:0|3:0,3:0:0:0:
271,67,52307,102,0,P|330:51|387:59,1,100,4|0,0:0|0:0,0:0:0:0:
431,118,52716,2,0,P|471:147|500:187,1,100
377,272,53125,6,0,L|399:211,1,64.9999970245363,8|0,0:0|0:0,0:0:0:0:
339,134,53397,1,0,0:0:0:0:
337,139,53534,2,0,L|314:199,1,64.9999970245363,4|0,0:0|0:0,0:0:0:0:
223,201,53807,101,0,0:0:0:0:
225,196,53944,2,0,L|248:136,2,64.9999970245363,8|0|0,0:0|0:0|0:0,0:0:0:0:
185,61,54352,6,0,L|162:121,1,64.9999970245363
154,125,54625,1,0,0:0:0:0:
118,188,54761,1,0,0:0:0:0:
119,181,54897,1,0,0:0:0:0:
83,118,55034,1,8,0:0:0:0:
90,122,55170,1,0,0:0:0:0:
78,248,55307,102,0,P|99:305|140:347,1,100,4|0,0:0|0:0,0:0:0:0:
213,345,55716,2,0,P|259:360|309:360,1,100
446,328,56125,6,0,L|388:395,1,64.9999970245363,8|0,0:0|0:0,0:0:0:0:
371,290,56397,2,0,L|413:239,1,64.9999970245363
275,267,56670,102,0,P|227:252|187:223,1,100,4|0,0:0|0:0,0:0:0:0:
174,130,57079,2,0,P|157:82|155:33,1,100
293,32,57488,6,0,L|263:89,1,64.9999970245363,4|0,0:0|0:0,0:0:0:0:
275,158,57761,1,0,0:0:0:0:
273,164,57897,1,0,0:0:0:0:
324,115,58034,1,0,0:0:0:0:
332,114,58170,1,0,0:0:0:0:
202,243,58307,102,0,P|176:270|143:287,1,64.9999970245363,4|0,0:0|0:0,0:0:0:0:
9,251,58579,1,8,0:0:0:0:
30,186,58716,2,0,P|67:177|149:191,1,100,4|0,0:0|0:0,0:0:0:0:
268,324,59057,101,0,0:0:0:0:
277,336,59125,22,0,P|303:307|331:229,1,100,4|0,0:0|0:0,0:0:0:0:
325,101,59466,85,0,0:0:0:0:
316,89,59534,22,0,P|289:117|261:195,1,100,4|0,0:0|0:0,0:0:0:0:
398,334,59943,102,0,L|423:274,1,64.9999970245363,8|0,0:0|0:0,0:0:0:0:
379,43,60216,2,4,L|389:10,3,28.7500005483627,4|4|4|4,3:0|3:0|3:0|3:0,3:0:0:0:
316,89,60488,6,8,L|305:129,1,28.7500005483627,8|8,3:0|3:0,3:0:0:0:
245,92,60625,2,4,L|225:71,1,28.7500005483627,4|4,3:0|3:0,3:0:0:0:
278,29,60761,2,4,L|306:21,1,28.7500005483627,4|4,3:0|3:0,3:0:0:0:
256,159,60897,102,8,L|245:199,1,28.7500005483627,8|8,3:0|3:0,3:0:0:0:
185,162,61034,2,4,L|165:141,1,28.7500005483627,4|4,3:0|3:0,3:0:0:0:
218,99,61170,2,4,L|246:91,1,28.7500005483627,4|4,3:0|3:0,3:0:0:0:
202,267,61307,54,0,P|143:309|51:328,1,133.333333333333,2|0,0:3|0:0,0:0:0:0:
55,252,61579,21,0,0:0:0:0:
111,265,61670,1,0,0:0:0:0:
149,306,61761,1,0,0:0:0:0:
187,349,61852,1,0,0:0:0:0:
244,362,61943,1,0,0:0:0:0:
297,340,62034,1,0,0:0:0:0:
327,291,62125,102,0,L|342:169,1,100,12|0,0:0|0:0,0:0:0:0:
307,27,62397,2,0,L|294:126,1,100
208,342,62670,102,0,P|161:297|134:238,1,129.999994049073,4|0,0:0|0:0,0:0:0:0:
197,52,63079,2,0,P|188:116|202:178,1,129.999994049073
327,291,63488,6,0,P|356:233|369:167,1,133.333333333333,8|0,0:0|0:0,0:0:0:0:
295,142,63761,5,0,0:0:0:0:
310,198,63852,1,0,0:0:0:0:
358,231,63943,1,0,0:0:0:0:
396,274,64034,1,0,0:0:0:0:
392,333,64125,1,0,0:0:0:0:
347,369,64216,1,0,0:0:0:0:
292,380,64307,86,0,P|230:361|179:321,1,129.999994049073,2|0,0:3|0:0,0:0:0:0:
150,126,64716,2,0,P|171:187|211:235,1,129.999994049073
424,159,65125,21,12,0:0:0:0:
446,105,65216,1,0,0:0:0:0:
423,53,65307,1,0,0:0:0:0:
370,30,65397,102,0,L|260:16,1,100
82,157,65670,102,0,P|121:106|177:73,1,129.999994049073,4|0,0:0|0:0,0:0:0:0:
370,115,66079,2,0,P|305:112|244:134,1,129.999994049073
190,279,66488,5,8,3:1:0:0:
245,215,66624,1,8,3:0:0:0:
162,198,66760,1,4,3:0:0:0:
269,298,66897,101,8,3:1:0:0:
329,233,67033,1,8,3:1:0:0:
245,215,67169,1,4,3:0:0:0:
348,317,67307,6,0,P|375:348|399:366,1,50.0000019073487,4|0,2:0|2:0,2:0:0:0:
476,310,67579,5,4,2:0:0:0:
465,300,67670,1,0,2:0:0:0:
455,293,67761,1,0,2:0:0:0:
443,289,67852,1,2,0:3:0:0:
439,234,67943,1,0,0:0:0:0:
412,184,68034,1,0,0:0:0:0:
366,151,68125,86,0,L|250:107,1,100,12|0,0:0|0:0,0:0:0:0:
108,110,68397,2,0,L|201:145,1,100
329,233,68670,6,0,P|322:296|292:354,1,129.999994049073,4|0,0:0|0:0,0:0:0:0:
201,145,69079,2,0,P|207:81|237:23,1,129.999994049073,4|0,0:0|0:0,0:0:0:0:
221,252,69488,102,0,P|157:246|99:216,1,129.999994049073,8|0,0:0|0:0,0:0:0:0:
309,124,69897,2,0,P|372:131|430:161,1,129.999994049073
201,145,70307,6,0,P|163:92|108:57,1,129.999994049073,2|8,0:3|0:0,0:0:0:0:
329,233,70716,2,0,P|366:285|421:320,1,129.999994049073,4|0,0:0|0:0,0:0:0:0:
411,81,71125,102,0,P|360:41|299:23,1,129.999994049073,12|0,0:0|0:0,0:0:0:0:
213,361,71670,6,0,P|151:342|100:302,1,129.999994049073,4|8,0:0|0:0,0:0:0:0:
71,106,72079,2,0,P|92:167|133:216,1,129.999994049073,4|0,0:0|0:0,0:0:0:0:
313,255,72488,102,8,L|352:193,1,50,8|8,3:1|3:1,3:1:0:0:
360,180,72624,1,8,3:1:0:0:
272,176,72760,1,8,3:1:0:0:
305,342,72897,6,4,L|374:310,1,50,4|4,3:0|3:0,3:0:0:0:
384,303,73033,1,4,3:0:0:0:
313,255,73169,1,4,3:0:0:0:
213,361,73307,38,0,P|151:342|81:273,1,150.000005722046,2|0,0:3|0:0,0:0:0:0:
160,122,80807,6,0,L|124:150,1,37.5000014305115
76,184,80943,102,0,L|188:192,1,104.999996795654,12|0,0:0|0:0,0:0:0:0:
270,191,81488,6,0,P|265:239|237:280,1,100,4|0,0:0|0:0,0:0:0:0:
68,315,81897,2,0,P|116:307|155:276,1,100
160,122,82306,101,4,0:0:0:0:
123,83,82442,1,0,0:0:0:0:
54,128,82578,1,0,0:0:0:0:
68,176,82715,1,0,0:0:0:0:
150,212,82851,5,4,0:0:0:0:
177,253,82987,1,0,0:0:0:0:
221,275,83123,1,0,0:0:0:0:
270,191,83260,1,4,0:0:0:0:
313,168,83396,1,0,0:0:0:0:
385,214,83532,1,0,0:0:0:0:
441,133,83669,101,12,3:1:0:0:
443,139,83805,1,0,3:1:0:0:
443,45,83942,2,8,L|486:49,1,37.5000014305115,8|8,3:0|3:0,3:0:0:0:
449,38,84078,2,8,L|492:42,1,37.5000014305115,8|8,3:0|3:0,3:0:0:0:
365,81,84215,2,4,L|347:41,1,37.5000014305115,4|4,3:0|3:0,3:0:0:0:
356,78,84351,2,4,L|338:38,1,37.5000014305115,4|4,3:0|3:0,3:0:0:0:
497,214,84488,6,0,P|470:254|427:278,1,100,4|8,0:0|0:0,0:0:0:0:
259,232,84897,2,0,P|305:246|354:236,1,100,4|0,0:0|0:0,0:0:0:0:
498,128,85306,102,0,L|424:163,1,75.0000028610231,12|0,0:0|0:0,0:0:0:0:
310,143,85578,2,0,L|377:110,1,75.0000028610231,8|0,0:0|0:0,0:0:0:0:
455,59,85851,6,0,P|425:20|380:0,1,100,4|8,0:0|0:0,0:0:0:0:
215,56,86260,2,0,P|260:38|309:44,1,100,4|0,0:0|0:0,0:0:0:0:
411,230,86669,101,8,3:1:0:0:
413,237,86805,1,8,3:1:0:0:
425,165,86942,1,8,3:0:0:0:
430,160,87078,1,8,3:0:0:0:
361,183,87215,1,4,3:0:0:0:
354,180,87351,1,4,3:0:0:0:
446,332,87488,5,4,0:3:0:0:
387,368,87624,1,4,0:3:0:0:
321,372,87760,1,4,0:3:0:0:
169,344,87897,2,0,P|197:303|242:282,1,100,4|0,0:0|0:0,0:0:0:0:
386,297,88306,102,0,L|289:250,1,75.0000028610231,12|0,0:0|0:0,0:0:0:0:
147,244,88578,1,0,0:0:0:0:
215,56,88851,6,0,P|167:48|120:64,1,100,4|8,0:0|0:0,0:0:0:0:
40,219,89260,2,0,P|60:174|100:145,1,100,4|0,0:0|0:0,0:0:0:0:
278,131,89601,85,0,0:0:0:0:
290,138,89669,6,0,L|207:184,1,75.0000028610231,12|0,0:0|0:0,0:0:0:0:
348,200,89942,6,0,L|487:194,1,131.25000500679
501,227,90488,102,4,P|465:259|396:269,1,100
274,233,90897,1,0,0:0:0:0:
326,320,91033,6,0,L|279:367,1,50
223,355,91306,2,0,L|259:320,1,50,12|0,0:0|0:0,0:0:0:0:
156,355,91578,2,0,L|192:320,1,50
89,355,91851,2,0,L|125:320,1,50,4|0,0:0|0:0,0:0:0:0:
9,194,92124,102,0,L|29:126,1,50
120,235,92397,2,0,L|51:251,1,50
100,118,92669,2,0,L|148:169,1,50,8|0,0:0|0:0,0:0:0:0:
253,211,92942,6,0,L|229:189,2,33.3333333333333
242,91,93215,2,0,L|211:101,2,33.3333333333333
361,2,93488,102,0,P|397:37|428:139,1,150,4|0,0:0|0:0,0:0:0:0:
349,215,94033,2,0,L|345:153,1,50
456,301,94306,2,0,P|362:346|233:281,1,250,12|0,0:0|0:0,0:0:0:0:
159,179,95124,5,0,0:0:0:0:
38,281,95260,2,0,L|49:374,1,75.0000028610231,8|0,0:0|0:0,0:0:0:0:
135,275,95533,101,0,0:0:0:0:
43,162,95669,2,0,L|47:70,1,75.0000028610231,4|0,0:0|0:0,0:0:0:0:
263,163,95942,5,0,0:0:0:0:
186,58,96078,2,0,L|94:29,2,75.0000028610231,8|0|0,0:0|0:0|0:0,0:0:0:0:
314,47,96488,101,0,0:0:0:0:
389,149,96624,1,0,0:0:0:0:
339,265,96760,2,0,L|401:343,2,75.0000028610231,0|8|0,0:0|0:0|0:0,0:0:0:0:
214,280,97169,6,0,P|125:309|57:292,1,150,8|4,0:0|0:0,0:0:0:0:
10,187,97715,1,8,0:0:0:0:
21,114,97851,102,0,P|41:157|80:188,1,100,4|0,0:0|0:0,0:0:0:0:
253,169,98260,2,0,P|205:175|158:158,1,100,4|0,0:0|0:0,0:0:0:0:
55,37,98669,6,0,L|160:32,1,75.0000028610231,12|0,0:0|0:0,0:0:0:0:
271,84,98942,2,0,L|196:87,1,75.0000028610231,12|0,0:0|0:0,0:0:0:0:
21,108,99215,2,0,L|88:105,1,37.5000014305115,0|0,3:0|3:0,3:0:0:0:
194,155,99351,2,0,L|156:156,1,37.5000014305115,0|0,3:0|3:0,3:0:0:0:
75,202,99488,102,0,L|37:203,5,37.5000014305115,0|0|0|0|0|0,3:0|3:0|3:0|3:0|3:0|3:0,3:0:0:0:
146,259,99897,2,0,L|183:257,5,37.5000014305115,0|0|0|0|0|0,3:0|3:0|3:0|3:0|3:0|3:0,3:0:0:0:
74,310,100306,6,0,L|36:311,11,37.5000014305115,0|0|0|0|0|0|0|0|0|0|0|0,3:0|3:0|3:0|3:0|3:0|3:0|3:0|3:0|3:0|3:0|3:0|3:0,3:0:0:0:
208,360,101124,101,8,0:0:0:0:
265,277,101260,1,4,0:0:0:0:
498,311,101533,5,0,0:0:0:0:
429,149,101669,2,4,L|449:96,1,37.5000014305115,8|8,3:1|3:1,3:0:0:0:
455,78,101806,1,8,3:1:0:0:
503,134,101942,1,8,3:1:0:0:
372,199,102078,102,4,L|363:144,1,37.5000014305115,4|4,3:0|3:0,3:0:0:0:
360,125,102215,1,4,3:0:0:0:
429,149,102351,1,4,3:0:0:0:
284,180,102488,5,4,0:0:0:0:
40,81,102760,101,0,0:0:0:0:
63,175,102897,1,0,0:0:0:0:
307,274,103169,5,0,0:0:0:0:
284,180,103306,2,0,L|230:246,1,80,12|0,0:0|0:0,0:0:0:0:
108,311,103578,2,0,L|158:249,1,80
238,110,103851,102,0,P|184:90|128:98,1,115.000002193451,4|0,0:0|0:0,0:0:0:0:
24,272,104260,1,0,0:0:0:0:
156,384,104397,85,0,0:0:0:0:
213,383,104487,1,0,0:0:0:0:
267,363,104578,1,0,0:0:0:0:
312,328,104669,22,0,L|364:248,1,80,12|0,0:0|0:0,0:0:0:0:
428,104,104942,5,0,0:0:0:0:
451,198,105079,1,0,0:0:0:0:
282,144,105351,101,0,0:0:0:0:
259,50,105488,1,4,0:0:0:0:
135,178,105760,5,0,0:0:0:0:
158,272,105897,2,0,P|103:253|64:212,1,115.000002193451
28,19,106306,102,0,L|46:109,1,80,12|0,0:0|0:0,0:0:0:0:
135,178,106578,2,0,L|119:99,1,80
203,0,106851,6,0,P|253:28|286:96,1,115.000002193451,4|0,0:0|0:0,0:0:0:0:
219,214,107260,2,0,P|227:155|193:87,1,115.000002193451
118,222,107669,37,8,3:1:0:0:
94,281,107806,1,8,3:0:0:0:
158,272,107942,1,4,3:0:0:0:
53,230,108078,5,8,3:1:0:0:
30,290,108215,1,8,3:1:0:0:
94,281,108351,1,4,3:0:0:0:
142,162,108487,101,0,0:0:0:0:
181,212,108623,1,0,0:0:0:0:
158,272,108760,53,0,0:0:0:0:
245,203,108897,1,2,0:3:0:0:
512,83,109169,5,0,0:0:0:0:
425,152,109306,2,0,P|423:115|415:84,1,56.2500021457673,12|0,0:0|0:0,0:0:0:0:
346,78,109578,102,0,P|359:129|358:173,1,75
294,155,109851,6,0,P|282:98|228:45,1,115.000002193451,4|8,0:0|0:0,0:0:0:0:
95,73,110260,2,0,P|153:83|207:136,1,115.000002193451,4|0,0:0|0:0,0:0:0:0:
259,252,110601,85,0,0:0:0:0:
254,268,110669,6,0,L|180:192,1,80,12|0,0:0|0:0,0:0:0:0:
56,152,110942,2,0,L|111:209,1,80
193,351,111215,2,0,L|119:275,1,80
294,155,111488,6,0,P|352:156|413:200,1,115.000002193451,2|8,0:3|0:0,0:0:0:0:
137,293,111897,2,0,P|80:291|30:262,1,115.000002193451,4|0,0:0|0:0,0:0:0:0:
198,210,112306,102,0,L|254:268,1,80,12|0,0:0|0:0,0:0:0:0:
416,304,112578,1,0,0:0:0:0:
306,64,112851,6,0,P|255:36|180:44,1,115.000002193451,2|8,0:3|0:0,0:0:0:0:
115,163,113260,2,0,P|160:124|236:117,1,115.000002193451,4|0,0:0|0:0,0:0:0:0:
339,221,113669,38,8,L|328:261,1,28.7500005483627,8|8,3:0|3:0,3:0:0:0:
268,224,113806,2,8,L|248:203,1,28.7500005483627,8|8,3:0|3:0,3:0:0:0:
301,161,113942,2,8,L|329:153,1,28.7500005483627,8|8,3:0|3:0,3:0:0:0:
279,291,114078,6,4,L|268:331,1,28.7500005483627,4|4,3:0|3:0,3:0:0:0:
208,294,114215,2,4,L|188:273,1,28.7500005483627,4|4,3:0|3:0,3:0:0:0:
241,231,114351,2,4,L|269:223,1,28.7500005483627,4|4,3:0|3:0,3:0:0:0:
376,355,114488,37,4,0:0:0:0:
462,267,114760,1,0,0:0:0:0:
464,260,114897,1,4,0:0:0:0:
452,146,115169,5,0,0:0:0:0:
450,153,115306,2,0,L|384:92,1,75.0000028610231,4|0,0:0|0:0,0:0:0:0:
280,148,115851,1,4,0:0:0:0:
282,141,115988,2,0,L|268:95,1,25
221,74,116124,102,0,L|228:97,3,25
210,160,116397,2,0,L|202:136,3,25
130,72,116669,6,0,P|92:104|69:156,1,100,4|0,0:0|0:0,0:0:0:0:
72,156,117078,1,4,0:0:0:0:
40,278,117351,101,0,0:0:0:0:
38,270,117488,2,0,P|95:260|146:275,1,100,4|0,0:0|0:0,0:0:0:0:
166,313,117897,2,0,P|214:322|263:311,1,100,4|0,0:0|0:0,0:0:0:0:
344,222,118306,6,0,L|258:245,1,75.0000028610231,4|0,0:0|0:0,0:0:0:0:
150,166,118851,102,0,P|196:182|246:178,1,100,4|0,0:0|0:0,0:0:0:0:
248,171,119261,1,8,0:0:0:0:
308,135,119397,6,0,L|331:143,3,25
292,90,119670,2,0,L|269:81,3,25,4|0|0|0,0:0|0:0|0:0|0:0,0:0:0:0:
330,65,119942,2,0,L|353:73,3,25,0|0|8|0,0:0|0:0|0:0|0:0,0:0:0:0:
314,20,120215,2,0,L|291:11,3,25
392,11,120488,102,0,P|430:43|453:95,1,100,4|0,0:0|0:0,0:0:0:0:
450,95,120897,1,4,0:0:0:0:
407,193,121169,5,0,0:0:0:0:
408,185,121306,2,0,L|484:222,1,75.0000028610231,4|0,0:0|0:0,0:0:0:0:
462,323,121851,102,0,P|405:309|353:321,1,100,4|0,0:0|0:0,0:0:0:0:
331,357,122260,2,0,P|282:363|234:349,1,100,4|0,0:0|0:0,0:0:0:0:
133,270,122669,6,0,L|209:284,1,75.0000028610231,4|0,0:0|0:0,0:0:0:0:
300,255,123215,2,8,L|286:226,3,25,8|8|8|8,3:0|3:0|3:0|3:0,3:0:0:0:
278,208,123488,102,0,P|229:175|177:169,1,100,4|0,0:0|0:0,0:0:0:0:
142,196,123897,2,0,P|94:185|53:156,1,100,4|0,0:0|0:0,0:0:0:0:
34,21,124306,6,0,L|79:91,1,75.0000028610231,4|0,0:0|0:0,0:0:0:0:
219,61,124851,102,0,P|259:90|307:100,1,100,4|0,0:0|0:0,0:0:0:0:
354,73,125260,2,0,P|402:83|442:112,1,100,4|0,0:0|0:0,0:0:0:0:
407,239,125669,5,8,3:1:0:0:
405,246,125805,1,8,3:1:0:0:
393,174,125942,1,8,3:0:0:0:
388,169,126078,1,8,3:0:0:0:
457,192,126215,1,4,3:0:0:0:
464,189,126351,1,4,3:0:0:0:
244,376,126488,38,0,P|169:363|106:318,1,129.999994049073,2|0,0:3|0:0,0:0:0:0:
64,148,126897,2,0,P|101:213|165:258,1,129.999994049073,4|0,0:0|0:0,0:0:0:0:
349,335,127306,6,0,B|232:256,1,100,12|0,0:0|0:0,0:0:0:0:
172,142,127578,2,0,B|256:196,1,100
463,360,127851,102,0,P|475:285|453:210,1,129.999994049073,4|0,0:0|0:0,0:0:0:0:
305,115,128260,2,0,P|354:171|376:246,1,129.999994049073,4|0,0:0|0:0,0:0:0:0:
346,384,128669,6,0,L|316:276,1,100,12|0,0:0|0:0,0:0:0:0:
219,135,128942,2,0,L|245:231,1,100
207,384,129215,2,0,L|177:276,1,100
158,47,129488,102,0,P|92:87|50:152,1,129.999994049073,2|0,0:3|0:0,0:0:0:0:
75,325,129897,2,0,P|84:250|126:184,1,129.999994049073,4|0,0:0|0:0,0:0:0:0:
288,33,130306,6,0,L|231:115,1,100,12|0,0:0|0:0,0:0:0:0:
180,287,130579,2,0,L|236:205,1,100
373,27,130851,102,0,P|407:95|408:173,1,129.999994049073,4|0,0:0|0:0,0:0:0:0:
295,306,131260,2,0,P|326:238|325:159,1,129.999994049073,4|0,0:0|0:0,0:0:0:0:
204,26,131669,5,4,3:3:0:0:
239,106,131805,1,4,3:3:0:0:
288,33,131941,1,8,3:1:0:0:
151,96,132078,101,8,3:1:0:0:
188,177,132214,1,4,3:3:0:0:
239,106,132350,1,4,3:3:0:0:
98,166,132488,6,0,L|-8:86,1,100
250,108,132760,1,0,1:0:0:0:
90,194,132897,102,0,L|-16:114,1,100,2|0,0:3|0:0,0:0:0:0:
261,110,133169,1,0,1:0:0:0:
82,222,133306,6,0,L|-24:142,1,100,12|0,0:0|0:0,0:0:0:0:
272,112,133578,1,0,0:0:0:0:
329,210,133715,1,0,0:0:0:0:
147,126,133851,102,0,P|108:60|108:-18,1,129.999994049073,4|0,0:0|0:0,0:0:0:0:
217,218,134260,2,0,P|252:272|260:335,1,129.999994049073,4|0,0:0|0:0,0:0:0:0:
228,137,134669,6,0,P|294:98|372:97,1,129.999994049073,12|0,0:0|0:0,0:0:0:0:
136,207,135078,2,0,P|82:242|19:250,1,129.999994049073
329,285,135488,102,0,P|360:215|353:137,1,129.999994049073,2|8,0:3|0:0,0:0:0:0:
31,53,135897,2,0,P|-1:122|6:200,1,129.999994049073,4|0,0:0|0:0,0:0:0:0:
216,303,136238,37,0,0:0:0:0:
229,304,136306,86,0,L|192:194,1,100,12|0,0:0|0:0,0:0:0:0:
132,34,136578,2,0,L|163:127,1,100,12|0,0:0|0:0,0:0:0:0:
329,285,136851,102,8,L|394:304,3,50,8|8|8|8,3:0|3:0|3:0|3:0,3:0:0:0:
381,203,137124,2,8,L|446:186,3,50,8|8|8|8,3:1|3:1|3:1|3:1,3:1:0:0:
385,105,137397,2,8,L|433:58,3,50,8|8|8|8,3:0|3:0|3:0|3:0,3:0:0:0:
195,61,137669,6,4,L|139:32,1,50,4|4,3:0|3:0,3:0:0:0:
259,118,137806,2,0,L|261:176,1,50,0|0,3:0|3:0,3:0:0:0:
277,33,137942,2,0,L|326:1,1,50,0|0,3:0|3:0,3:0:0:0:
134,171,138078,102,8,L|82:144,1,50,8|8,3:0|3:0,3:0:0:0:
200,229,138215,2,8,L|202:287,1,50,8|8,3:0|3:0,3:0:0:0:
217,145,138351,2,8,L|266:113,1,50,8|8,3:0|3:0,3:0:0:0:
80,314,138488,5,2,0:3:0:0:
256,192,138556,12,0,159851,0:0:0:0:
314,118,206110,70,0,L|297:100,3,18.7500007152558,0|0|0|0,1:1|1:1|1:1|1:1,1:1:0:0:
333,151,206360,5,8,0:0:0:0:
340,187,206485,1,8,0:3:0:0:
335,224,206610,1,4,0:3:0:0:
320,258,206735,1,4,0:3:0:0:
294,286,206860,102,0,P|227:282|176:301,1,112.500004291535,4|0,0:0|0:0,0:0:0:0:
150,312,207360,2,0,P|168:259|206:217,1,112.500004291535
241,204,207860,1,8,0:0:0:0:
95,217,208110,1,0,0:0:0:0:
95,217,208610,6,0,P|81:162|49:117,1,112.500004291535
18,95,209110,1,0,0:0:0:0:
162,47,209360,2,0,P|205:81|233:130,1,112.500004291535
242,165,209860,1,8,0:0:0:0:
341,50,210110,2,0,P|362:101|363:157,1,112.500004291535
353,191,210610,1,0,0:0:0:0:
474,273,210860,102,0,P|427:303|395:349,1,112.500004291535,4|0,0:0|0:0,0:0:0:0:
383,384,211360,2,0,P|339:347|313:298,1,112.500004291535
316,261,211860,2,0,L|357:239,2,37.5000014305115,12|0|0,0:0|0:0|0:0,0:0:0:0:
283,237,212235,2,0,L|292:198,2,37.5000014305115,8|0|0,0:0|0:0|0:0,0:0:0:0:
248,245,212610,6,0,P|207:283|187:336,1,112.500004291535,4|0,0:0|0:0,0:0:0:0:
182,373,213110,1,0,0:0:0:0:
83,260,213360,2,0,P|100:207|138:165,1,112.500004291535
169,144,213860,1,8,0:0:0:0:
205,134,213985,1,0,0:0:0:0:
242,139,214110,1,0,0:0:0:0:
191,0,214360,2,0,P|246:2|296:27,1,112.500004291535
275,151,214860,102,0,P|290:204|325:247,1,112.500004291535,4|0,0:0|0:0,0:0:0:0:
357,268,215360,2,0,P|355:212|376:160,1,112.500004291535
400,130,215860,1,8,0:0:0:0:
501,240,216110,1,0,0:0:0:0:
501,240,216610,6,0,P|502:295|481:347,1,112.500004291535
459,378,217110,1,0,0:0:0:0:
357,268,217360,2,0,P|378:216|377:160,1,112.500004291535
368,123,217860,1,8,0:0:0:0:
242,206,218110,2,0,P|246:150|228:97,1,112.500004291535
207,64,218610,101,4,0:0:0:0:
207,64,219110,1,8,0:0:0:0:
187,95,219216,1,8,0:0:0:0:
322,29,219463,1,8,0:3:0:0:
96,46,219835,5,4,0:3:0:0:
338,208,220331,1,4,0:0:0:0:
57,297,220860,102,0,L|26:288,2,18.7500007152558,0|0|0,3:0|3:0|3:0,3:0:0:0:
91,312,221110,1,0,3:0:0:0:
126,324,221235,1,0,3:0:0:0:
163,342,221360,6,4,L|129:351,2,18.7500007152558,4|4|4,0:3|0:3|0:3,0:3:0:0:
197,327,221610,1,4,0:3:0:0:
232,314,221735,1,4,0:3:0:0:
267,323,221852,102,0,P|334:319|385:338,1,112.500004291535,4|0,0:0|0:0,0:0:0:0:
411,349,222352,2,0,P|393:296|355:254,1,112.500004291535
322,233,222852,1,8,0:0:0:0:
471,215,223102,1,0,0:0:0:0:
471,215,223602,6,0,P|451:162|454:105,1,112.500004291535,4|0,0:0|0:0,0:0:0:0:
466,67,224102,1,0,0:0:0:0:
323,10,224352,2,0,P|295:58|289:115,1,112.500004291535
295,153,224852,1,8,0:0:0:0:
177,52,225102,2,0,P|165:106|176:162,1,112.500004291535
193,196,225602,1,0,0:0:0:0:
83,312,225852,102,0,P|147:295|190:261,1,112.500004291535
199,233,226352,2,0,P|248:258|285:301,1,112.500004291535
303,337,226852,2,0,L|273:373,2,37.5000014305115,12|0|0,0:0|0:0|0:0,0:0:0:0:
344,342,227227,2,0,L|365:387,2,37.5000014305115,4|0|0,0:0|0:0|0:0,0:0:0:0:
372,317,227602,6,0,P|360:262|327:215,1,112.500004291535,4|0,0:0|0:0,0:0:0:0:
297,188,228102,1,0,0:0:0:0:
388,65,228352,2,0,P|437:91|471:136,1,112.500004291535
487,170,228852,1,8,0:0:0:0:
494,208,228977,1,0,0:0:0:0:
493,245,229102,1,8,0:0:0:0:
328,216,229352,1,0,0:0:0:0:
212,336,229602,1,0,0:0:0:0:
169,183,229852,102,0,L|192:147,1,37.5000014305115,4|0,0:0|0:0,0:0:0:0:
93,281,230102,2,0,L|72:312,1,37.5000014305115
73,154,230352,2,0,P|66:98|37:49,1,112.500004291535
10,23,230852,1,8,0:0:0:0:
159,35,231102,1,0,0:0:0:0:
169,183,231352,1,8,0:0:0:0:
159,35,231602,6,0,P|205:66|261:76,1,112.500004291535,12|0,0:0|0:0,0:0:0:0:
300,73,232102,1,0,0:0:0:0:
447,111,232352,2,0,P|405:149|351:168,1,112.500004291535
313,170,232852,1,8,0:0:0:0:
338,315,233102,1,0,0:0:0:0:
197,267,233352,1,0,0:0:0:0:
479,363,233602,101,4,0:0:0:0:
328,222,241852,118,0,P|331:154|355:106,1,112.500004291535,4|0,0:0|0:0,0:0:0:0:
368,81,242352,2,0,P|313:93|267:126,1,112.500004291535
247,157,242852,2,0,L|203:127,1,37.5000014305115,8|0,0:0|0:0,0:0:0:0:
244,8,243102,1,0,0:0:0:0:
244,8,243602,6,0,P|187:14|138:42,1,112.500004291535,4|0,0:0|0:0,0:0:0:0:
110,71,244102,2,0,L|61:65,1,37.5000014305115
122,114,244352,1,0,0:0:0:0:
400,85,244602,1,0,0:0:0:0:
328,222,244852,2,0,P|369:245|412:246,1,75.0000028610231,8|0,0:0|0:0,0:0:0:0:
297,353,245352,2,0,P|245:329|207:287,1,112.500004291535
191,251,245852,102,0,P|128:275|90:314,1,112.500004291535
71,335,246352,2,0,P|37:290|23:235,1,112.500004291535
22,195,246852,1,8,0:0:0:0:
193,207,247102,1,0,0:0:0:0:
193,207,247602,6,0,P|176:153|140:110,1,112.500004291535,4|0,0:0|0:0,0:0:0:0:
106,84,248102,1,0,0:0:0:0:
246,19,248352,2,0,P|277:65|284:96,1,75.0000028610231
291,119,248727,2,8,L|301:159,1,37.5000014305115,0|8,3:0|0:0,0:0:0:0:
370,124,248977,1,0,0:0:0:0:
378,161,249102,1,0,0:0:0:0:
487,130,249352,2,0,P|506:182|502:238,1,112.500004291535,0|0,3:0|0:0,0:0:0:0:
491,274,249852,102,0,P|433:308|401:352,1,112.500004291535,4|0,0:0|0:0,0:0:0:0:
385,376,250352,2,0,P|334:351|297:308,1,112.500004291535
282,274,250852,2,0,L|228:270,1,37.5000014305115,8|0,0:0|0:0,0:0:0:0:
219,154,251102,1,0,0:0:0:0:
219,154,251602,6,0,P|272:169|327:161,1,112.500004291535,4|0,0:0|0:0,0:0:0:0:
362,146,252102,2,0,L|411:166,1,37.5000014305115
362,106,252352,1,0,0:0:0:0:
150,94,252602,1,0,0:0:0:0:
53,220,252852,101,8,0:0:0:0:
136,187,253227,5,0,0:0:0:0:
219,154,253602,101,4,0:0:0:0:
378,246,254102,5,0,0:0:0:0:
431,172,254352,1,0,0:0:0:0:
136,187,254852,1,8,0:0:0:0:
431,172,255352,1,0,0:0:0:0:
369,344,255602,102,0,L|397:368,2,25.0000009536744,0|0|0,3:0|3:0|3:0,3:0:0:0:
340,320,255852,1,8,0:0:0:0:
312,297,255977,1,8,0:0:0:0:
238,100,256227,1,4,0:3:0:0:
266,123,256352,1,8,0:0:0:0:
28,320,256852,6,0,P|65:264|110:234,1,112.500004291535,4|0,0:0|0:0,0:0:0:0:
135,220,257352,2,0,P|113:156|78:115,1,112.500004291535
57,96,257852,2,0,L|68:47,1,37.5000014305115,8|0,0:0|0:0,0:0:0:0:
171,33,258102,1,0,0:0:0:0:
171,33,258602,102,0,P|237:21|289:34,1,112.500004291535
315,45,259102,2,0,L|356:15,1,37.5000014305115
321,86,259320,1,0,0:0:0:0:
174,212,259602,1,0,0:0:0:0:
339,235,259852,2,0,P|366:196|371:153,1,75.0000028610231,8|0,0:0|0:0,0:0:0:0:
465,279,260352,2,0,P|435:328|389:361,1,112.500004291535
354,366,260852,5,4,0:0:0:0:
354,366,261352,1,0,0:0:0:0:
354,366,261852,2,0,P|351:280|416:261,1,150.000005722046,8|0,0:0|0:0,0:0:0:0:
267,378,262602,102,0,P|217:352|161:348,1,112.500004291535
117,353,263102,1,0,0:0:0:0:
25,225,263352,2,0,P|77:205|109:206,1,75.0000028610231
135,208,263727,2,0,L|180:212,1,37.5000014305115,0|8,0:0|0:0,0:0:0:0:
162,134,263977,1,0,0:0:0:0:
201,138,264102,1,0,0:0:0:0:
192,18,264352,2,0,P|247:11|301:29,1,112.500004291535,8|0,0:0|0:0,0:0:0:0:
330,52,264852,6,0,P|327:120|303:168,1,112.500004291535,4|0,0:0|0:0,0:0:0:0:
290,193,265352,2,0,P|345:204|400:192,1,112.500004291535
433,176,265852,2,0,L|462:208,1,37.5000014305115,8|0,0:0|0:0,0:0:0:0:
399,322,266102,1,0,0:0:0:0:
399,322,266602,102,0,P|332:334|279:321,1,112.500004291535,4|0,0:0|0:0,0:0:0:0:
253,314,267102,2,0,L|223:346,1,37.5000014305115
247,278,267352,1,0,0:0:0:0:
330,106,267602,1,0,0:0:0:0:
209,209,267852,6,0,L|200:178,5,18.7500007152558,8|0|0|0|0|0,3:2|3:0|3:0|3:0|3:0|3:0,3:0:0:0:
237,124,268227,101,8,0:3:0:0:
271,58,268477,1,4,0:3:0:0:
266,40,268602,5,4,0:0:0:0:
266,40,269102,102,0,L|288:0,2,37.5000014305115,4|0|0,0:0|0:0|0:0,0:0:0:0:
228,44,269477,2,0,L|250:4,2,37.5000014305115,4|0|0,0:0|0:0|0:0,0:0:0:0:
190,48,269852,1,0,0:0:0:0:
98,57,270227,5,0,0:0:0:0:
67,203,270477,1,4,0:0:0:0:
104,199,270602,102,0,L|87:247,2,37.5000014305115,8|4|0,0:0|0:0|0:0,0:0:0:0:
141,195,270977,1,8,0:0:0:0:
449,139,271602,5,8,0:0:0:0:
412,143,271727,1,8,0:0:0:0:
308,250,271977,1,8,0:3:0:0:
456,233,272227,101,8,0:3:0:0:
419,237,272352,1,8,0:0:0:0:
315,344,272602,1,4,0:3:0:0:
184,263,272852,5,0,0:3:0:0:
150,246,272977,2,0,L|165:289,1,37.5000014305115,4|0,0:3|0:3,0:3:0:0:
116,229,273227,2,0,L|131:272,1,37.5000014305115,4|0,0:3|0:3,0:3:0:0:
80,212,273477,2,0,L|95:255,1,37.5000014305115,4|0,0:3|0:3,0:3:0:0:
37,192,273727,1,4,0:3:0:0:
22,142,273852,101,12,0:0:0:0:
111,133,274227,5,8,0:0:0:0:
199,125,274602,101,0,0:0:0:0:
433,335,275102,1,8,0:0:0:0:
199,125,275602,1,0,0:0:0:0:
433,335,276102,1,8,0:0:0:0:
480,38,276602,5,4,0:0:0:0:
168,41,277102,1,0,0:0:0:0:
311,87,277352,1,4,0:0:0:0:
99,326,277852,1,8,0:0:0:0:
423,233,278352,1,4,0:0:0:0:
320,343,278602,101,4,0:0:0:0:
320,343,279352,1,0,0:0:0:0:
81,165,279852,1,8,0:0:0:0:
234,209,280102,1,0,0:0:0:0:
390,146,280352,2,0,L|419:124,7,18.7500007152558,0|0|0|0|0|0|0|0,3:3|3:3|3:3|3:3|3:3|3:3|3:3|3:3,3:3:0:0:
358,168,280852,5,4,0:0:0:0:
99,326,281352,1,0,0:0:0:0:
168,41,281852,101,8,0:0:0:0:
257,50,282227,5,8,0:0:0:0:
345,58,282602,101,0,0:0:0:0:
320,343,283102,1,0,0:0:0:0:
234,209,283352,1,0,0:0:0:0:
500,75,283852,1,8,0:0:0:0:
195,63,284352,1,0,0:0:0:0:
158,69,284477,1,8,0:0:0:0:
126,89,284602,5,0,0:0:0:0:
231,381,285102,1,0,0:0:0:0:
130,269,285352,1,4,0:0:0:0:
424,343,285852,1,8,0:0:0:0:
323,231,286102,1,8,0:0:0:0:
419,82,286352,102,8,L|406:113,5,18.7500007152558,8|8|8|8|8|8,0:3|0:3|0:3|0:3|0:3|0:3,0:3:0:0:
314,58,286727,6,8,L|312:91,5,18.7500007152558
211,62,287102,102,8,L|222:93,3,18.7500007152558,8|8|8|8,0:3|0:3|0:3|0:3,0:3:0:0:
145,52,287352,2,4,L|138:34,3,18.7500007152558,4|4|4|4,0:3|0:3|0:3|0:3,0:3:0:0:
116,112,287602,2,4,L|122:129,3,18.7500007152558,4|4|4|4,0:3|0:3|0:3|0:3,0:3:0:0:
50,102,287852,5,4,0:0:0:0:
198,149,288102,1,4,0:0:0:0:
57,207,288352,1,4,0:0:0:0:
358,139,288852,1,8,0:0:0:0:
358,139,289602,101,0,0:0:0:0:
358,139,290352,1,0,0:0:0:0:
135,338,290852,1,8,0:0:0:0:
347,298,291227,2,0,L|335:348,1,37.5000014305115,8|0,0:0|0:0,0:0:0:0:
317,271,291477,2,0,L|305:321,1,37.5000014305115,8|0,0:0|0:0,0:0:0:0:
287,244,291727,1,8,0:0:0:0:
249,249,291852,5,0,0:0:0:0:
472,50,292352,1,0,0:0:0:0:
249,249,292852,1,8,0:0:0:0:
109,100,293227,2,0,L|84:51,1,37.5000014305115,8|0,0:0|0:0,0:0:0:0:
144,106,293477,1,8,0:3:0:0:
175,85,293602,101,4,0:3:0:0:
264,94,293977,5,4,0:0:0:0:
352,102,294352,102,8,L|346:67,2,18.7500007152558,8|8|8,0:3|0:3|0:3,0:3:0:0:
363,137,294602,1,8,0:3:0:0:
371,173,294727,1,8,0:3:0:0:
385,212,294852,6,4,L|397:179,2,18.7500007152558,4|4|4,0:3|0:3|0:3,0:3:0:0:
367,244,295102,1,4,0:3:0:0:
350,277,295227,1,4,0:3:0:0:
332,309,295352,101,0,0:0:0:0:
300,288,295477,1,4,0:0:0:0:
131,308,295727,5,8,0:0:0:0:
110,339,295852,1,4,0:0:0:0:
264,94,296352,1,0,0:0:0:0:
110,339,296852,101,8,0:0:0:0:
82,254,297227,5,8,0:0:0:0:
53,170,297602,101,4,0:0:0:0:
356,115,298102,1,0,0:0:0:0:
221,186,298352,1,0,0:0:0:0:
512,258,298852,1,8,0:0:0:0:
377,329,299102,1,8,0:0:0:0:
146,127,299602,5,4,0:0:0:0:
446,117,300102,1,0,0:0:0:0:
311,188,300352,1,4,0:0:0:0:
70,0,300852,1,8,0:0:0:0:
311,188,301352,1,0,0:0:0:0:
446,117,301602,1,0,0:0:0:0:
316,36,301852,102,0,L|279:24,2,25.0000009536744,0|0|0,3:0|3:0|3:0,3:0:0:0:
336,67,302102,1,4,0:3:0:0:
225,172,302352,1,4,0:3:0:0:
190,21,302602,1,4,0:3:0:0:
78,128,302852,6,0,L|45:117,3,18.7500007152558,0|0|0|0,3:0|3:0|3:0|3:0,3:0:0:0:
67,169,303102,2,8,L|31:166,3,20,8|8|8|8,0:3|0:3|0:3|0:3,0:3:0:0:
64,211,303352,2,4,L|25:216,3,21.500000328064,4|4|4|4,0:3|0:3|0:3|0:3,0:3:0:0:
67,252,303602,2,4,L|27:266,3,23.2500007272721,4|4|4|4,0:3|0:3|0:3|0:3,0:3:0:0:
116,327,303866,70,0,P|162:302|228:295,1,100,2|0,0:3|0:0,0:0:0:0:
332,336,304364,1,4,0:0:0:0:
332,336,304614,1,0,0:0:0:0:
440,263,304863,2,0,P|464:216|470:150,1,100,12|0,0:0|0:0,0:0:0:0:
418,50,305362,1,4,0:0:0:0:
338,152,305612,6,0,P|292:131|242:127,1,100,0|4,0:0|0:0,0:0:0:0:
120,170,306111,1,0,0:0:0:0:
28,77,306360,1,4,0:0:0:0:
28,77,306610,1,0,0:0:0:0:
152,39,306859,1,12,0:0:0:0:
120,170,307109,102,0,P|85:205|64:251,1,100,0|4,0:0|0:0,0:0:0:0:
100,376,307608,1,0,0:0:0:0:
191,283,307857,1,2,0:3:0:0:
287,369,308107,6,0,P|334:384|384:383,1,100,0|4,0:0|0:0,0:0:0:0:
480,296,308606,1,0,0:0:0:0:
360,246,308855,1,12,0:0:0:0:
462,166,309105,1,4,0:3:0:0:
462,166,309354,1,4,0:3:0:0:
367,84,309604,102,0,P|322:60|273:53,1,100,2|0,0:3|0:3,0:3:0:0:
124,51,310103,1,8,0:0:0:0:
124,51,310352,1,8,0:0:0:0:
61,164,310601,6,0,P|102:191|150:204,1,100,2|0,0:3|0:0,0:0:0:0:
279,228,311100,1,8,0:3:0:0:
279,228,311350,1,8,0:3:0:0:
326,348,311599,1,2,0:3:0:0:
197,329,311849,102,0,P|148:315|107:288,1,100,4|0,0:0|0:0,0:0:0:0:
61,164,312348,1,4,0:0:0:0:
61,164,312597,1,0,0:0:0:0:
124,51,312847,2,0,P|171:36|221:38,1,100,4|0,0:0|0:0,0:0:0:0:
350,54,313346,2,4,L|376:29,2,33.3333333333333,4|4|4,0:3|0:3|0:3,0:3:0:0:
350,86,313595,6,0,P|356:135|377:180,1,100,2|0,0:3|0:0,0:0:0:0:
472,269,314094,1,0,0:0:0:0:
472,269,314344,1,4,0:0:0:0:
347,306,314593,2,8,L|356:339,2,33.3333333333333,8|8|8,3:3|3:3|3:3,3:3:0:0:
338,282,314843,101,12,0:0:0:0:
216,328,315092,1,12,0:0:0:0:
237,199,315342,2,0,L|265:162,2,33.3333333333333,0|0|0,3:0|3:0|3:0,3:0:0:0:
218,224,315591,6,0,P|168:229|123:250,1,100,4|0,0:0|0:0,0:0:0:0:
45,356,316090,1,0,0:0:0:0:
0,232,316340,2,4,P|19:186|52:149,1,100
175,107,316838,102,8,L|115:79,1,50,8|8,0:2|0:2,0:2:0:0:
258,56,317088,1,8,0:2:0:0:
321,67,317213,1,8,0:2:0:0:
383,60,317337,5,4,0:3:0:0:
375,115,317462,1,4,0:3:0:0:
389,169,317587,1,4,0:0:0:0:
425,212,317712,1,0,0:0:0:0:
474,237,317836,101,8,0:2:0:0:
442,275,317961,1,8,0:2:0:0:
399,300,318086,1,8,0:2:0:0:
350,309,318211,1,8,0:2:0:0:
301,300,318335,5,4,0:3:0:0:
257,334,318460,1,4,0:3:0:0:
202,344,318585,1,4,0:0:0:0:
149,327,318710,1,0,0:0:0:0:
110,288,318834,37,0,0:0:0:0:
168,280,318959,1,0,0:0:0:0:
221,253,319084,1,12,0:0:0:0:
260,210,319209,1,0,0:0:0:0:
283,155,319333,5,12,0:0:0:0:
218,166,319458,1,0,0:0:0:0:
154,152,319583,1,12,0:0:0:0:
99,117,319707,1,0,0:0:0:0:
62,65,319837,102,0,P|121:34|202:31,1,119.999996337891,2|0,0:3|0:3,0:3:0:0:
313,144,320326,1,4,0:0:0:0:
313,144,320571,1,0,0:0:0:0:
186,271,320816,2,0,P|223:317|275:347,1,119.999996337891,12|0,0:0|0:3,0:3:0:0:
457,346,321306,1,4,0:0:0:0:
355,208,321551,6,0,P|312:144|377:-3,1,239.999992675781,4|0,0:0|0:0,0:0:0:0:
310,280,322285,5,4,0:0:0:0:
290,265,322366,1,0,0:0:0:0:
272,247,322448,1,0,0:0:0:0:
257,227,322529,1,0,0:0:0:0:
245,205,322611,1,0,0:0:0:0:
236,182,322693,1,0,0:0:0:0:
230,157,322775,101,12,0:0:0:0:
203,109,322856,1,0,0:0:0:0:
155,84,322938,1,0,0:0:0:0:
101,89,323019,1,0,0:0:0:0:
58,122,323101,1,0,0:0:0:0:
41,174,323183,1,0,0:0:0:0:
54,226,323265,102,0,P|89:272|139:305,1,119.999996337891,4|0,0:0|0:0,0:0:0:0:
314,349,323754,1,4,0:0:0:0:
314,349,323999,1,0,0:0:0:0:
264,174,324244,1,4,0:0:0:0:
441,222,324489,2,0,P|467:168|475:108,1,119.999996337891,0|12,0:0|0:0,0:0:0:0:
300,62,324979,6,0,P|273:115|265:175,1,119.999996337891,4|0,0:0|0:0,0:0:0:0:
314,349,325469,2,0,P|340:295|348:235,1,119.999996337891,4|0,0:0|0:0,0:0:0:0:
173,191,325959,102,0,P|205:240|253:277,1,119.999996337891,4|8,0:0|0:0,0:0:0:0:
428,322,326449,2,0,P|394:271|346:234,1,119.999996337891,4|0,0:0|0:0,0:0:0:0:
199,375,326938,6,0,P|258:371|314:348,1,119.999996337891,4|8,0:0|0:0,0:0:0:0:
456,197,327427,1,4,0:0:0:0:
300,62,327673,102,0,P|239:60|182:78,1,119.999996337891,2|0,0:3|0:0,0:0:0:0:
48,196,328163,1,4,0:0:0:0:
48,196,328408,1,0,0:0:0:0:
264,174,328653,2,0,P|239:227|198:270,1,119.999996337891,12|0,0:0|0:0,0:0:0:0:
29,355,329143,1,4,0:0:0:0:
204,384,329388,6,0,P|263:375|316:348,1,119.999996337891,4|0,0:0|0:0,0:0:0:0:
439,215,329877,1,0,0:0:0:0:
264,173,330122,1,4,0:0:0:0:
316,348,330367,1,0,0:0:0:0:
369,129,330612,2,0,P|345:74|305:30,1,119.999996337891,12|0,0:0|0:0,0:0:0:0:
139,101,331102,102,0,P|139:216|46:283,1,239.999992675781,4|0,0:0|0:0,0:0:0:0:
33,54,331837,1,12,0:0:0:0:
33,54,332081,1,8,0:0:0:0:
196,6,332326,1,0,0:0:0:0:
264,173,332571,1,0,3:1:0:0:
260,223,332694,1,0,3:1:0:0:
246,269,332816,6,0,P|222:314|197:333,1,59.9999981689454,0|0,3:1|3:1,3:1:0:0:
46,283,333061,1,4,0:0:0:0:
11,211,333183,1,0,0:0:0:0:
7,130,333306,1,4,0:0:0:0:
33,54,333428,102,0,P|73:53|111:69,1,59.9999981689454
213,115,333673,1,0,0:0:0:0:
264,173,333796,5,8,0:0:0:0:
294,115,333918,1,0,0:0:0:0:
346,75,334041,1,8,0:0:0:0:
411,63,334163,1,0,0:0:0:0:
474,79,334285,101,4,0:0:0:0:
441,107,334408,1,0,0:0:0:0:
415,141,334530,1,8,0:0:0:0:
398,181,334653,1,0,0:0:0:0:
389,223,334775,1,0,0:0:0:0:
391,266,334898,1,0,0:0:0:0:
400,308,335020,5,8,0:0:0:0:
370,290,335143,1,8,0:0:0:0:
325,278,335265,1,8,0:0:0:0:
265,281,335388,1,8,0:0:0:0:
204,311,335514,38,0,P|144:309|91:286,1,100,2|0,0:3|0:0,0:0:0:0:
5,184,335994,1,12,0:0:0:0:
5,184,336234,1,0,0:0:0:0:
151,152,336474,1,4,0:0:0:0:
51,40,336714,85,0,0:0:0:0:
70,24,336794,1,0,0:0:0:0:
92,12,336874,1,0,0:0:0:0:
116,4,336954,1,8,0:0:0:0:
140,0,337034,1,0,0:0:0:0:
165,1,337114,1,0,0:0:0:0:
190,6,337194,38,0,P|271:61|301:161,1,200,4|0,0:0|0:0,0:0:0:0:
224,283,337914,1,4,0:0:0:0:
151,152,338154,1,0,0:0:0:0:
301,154,338394,1,12,0:0:0:0:
141,244,338634,1,0,0:0:0:0:
227,99,338874,102,0,P|257:72|286:65,1,50,4|0,0:0|0:0,0:0:0:0:
310,247,339114,2,0,P|358:235|401:210,1,100,0|4,0:0|0:0,0:0:0:0:
499,97,339594,1,0,0:0:0:0:
352,65,339834,1,12,0:0:0:0:
401,210,340074,85,0,0:0:0:0:
407,234,340154,1,0,0:0:0:0:
407,259,340234,1,0,0:0:0:0:
401,283,340314,1,0,0:0:0:0:
389,305,340394,1,0,0:0:0:0:
372,323,340474,1,0,0:0:0:0:
351,337,340554,38,0,P|231:307|212:240,1,200,4|0,0:0|0:0,0:0:0:0:
227,99,341274,1,8,0:0:0:0:
89,157,341514,2,0,P|67:201|60:250,1,100,4|0,0:0|0:0,0:0:0:0:
142,378,341994,1,0,0:0:0:0:
211,245,342234,1,8,0:0:0:0:
60,250,342474,1,0,0:0:0:0:
226,337,342714,102,0,P|274:327|318:303,1,100,4|0,0:0|0:0,0:0:0:0:
341,148,343194,1,4,0:0:0:0:
341,148,343434,1,0,0:0:0:0:
455,244,343674,1,12,0:0:0:0:
318,303,343914,1,0,0:0:0:0:
455,244,344154,1,4,0:0:0:0:
483,96,344394,6,0,P|436:29|316:1,1,200,4|0,0:0|0:0,0:0:0:0:
204,87,345114,1,4,0:0:0:0:
341,148,345354,1,0,0:0:0:0:
234,4,345594,2,0,P|210:-2|185:0,1,50,12|0,0:0|0:0,0:0:0:0:
205,175,345834,2,0,P|230:172|253:162,1,50
112,98,346074,102,0,P|74:131|49:174,1,100,4|0,0:0|0:0,0:0:0:0:
38,241,346434,1,0,0:0:0:0:
45,308,346554,2,0,P|50:332|63:353,1,50,4|0,0:0|0:0,0:0:0:0:
169,352,346794,2,0,P|189:365|214:371,1,50
288,296,347034,2,8,P|312:290|333:277,1,50,8|8,3:1|3:1,3:1:0:0:
332,172,347274,5,8,3:0:0:0:
371,177,347394,1,8,3:0:0:0:
412,201,347514,1,8,3:1:0:0:
440,248,347634,1,8,3:0:0:0:
439,311,347754,101,8,3:0:0:0:
396,366,347874,2,0,P|353:384|307:379,1,85.0000016212464,6|0,0:3|0:0,0:0:0:0:
208,277,348234,6,0,P|229:235|267:209,1,85.0000016212464,4|0,0:0|0:0,0:0:0:0:
374,105,348594,102,0,P|329:93|283:104,1,85.0000016212464,4|0,0:0|0:0,0:0:0:0:
153,139,348954,6,0,P|160:93|188:56,1,85.0000016212464,4|0,0:0|0:0,0:0:0:0:
54,57,349314,102,0,P|17:85|0:128,1,85.0000016212464,4|0,0:0|0:0,0:0:0:0:
18,272,349674,1,0,0:0:0:0:
65,331,349794,1,0,0:0:0:0:
138,346,349914,6,0,P|178:316|207:276,1,100,4|0,0:0|0:0,0:0:0:0:
301,160,350394,1,4,0:0:0:0:
301,160,350634,1,0,0:0:0:0:
153,139,350874,1,12,0:0:0:0:
207,276,351114,69,8,0:3:0:0:
227,290,351194,1,8,0:3:0:0:
249,301,351274,1,8,0:3:0:0:
273,308,351354,1,4,0:3:0:0:
298,310,351434,1,4,0:3:0:0:
323,308,351514,1,4,0:3:0:0:
347,302,351594,22,0,P|423:245|444:129,1,200,4|0,0:0|0:0,0:0:0:0:
362,22,352314,1,4,0:0:0:0:
313,11,352434,1,0,0:0:0:0:
263,14,352554,1,0,0:0:0:0:
301,160,352794,1,12,0:0:0:0:
156,120,353034,1,0,0:0:0:0:
193,265,353274,6,0,P|143:269|94:259,1,100,4|0,0:0|0:0,0:0:0:0:
6,136,353754,1,4,0:0:0:0:
6,136,353994,1,0,0:0:0:0:
156,120,354234,1,12,0:0:0:0:
94,259,354474,69,8,0:3:0:0:
95,283,354554,1,8,0:3:0:0:
102,307,354634,1,8,0:3:0:0:
115,329,354714,1,4,0:3:0:0:
133,346,354794,1,4,0:3:0:0:
155,358,354874,1,4,0:3:0:0:
179,365,354954,22,0,P|250:347|285:232,1,200,4|4,0:0|0:0,0:0:0:0:
156,120,355674,1,12,0:0:0:0:
264,15,355914,2,0,P|312:2|361:5,1,100,4|0,0:0|0:0,0:0:0:0:
489,85,356394,1,0,0:0:0:0:
452,100,356514,1,0,0:0:0:0:
416,129,356634,1,8,0:3:0:0:
387,172,356754,1,8,0:3:0:0:
374,229,356874,1,8,0:3:0:0:
383,289,356994,1,8,0:3:0:0:
418,345,357114,6,0,P|437:299|442:249,1,100,4|0,0:0|0:0,0:0:0:0:
345,116,357594,1,4,0:0:0:0:
345,116,357834,1,0,0:0:0:0:
203,165,358074,1,12,0:0:0:0:
315,266,358314,1,0,0:0:0:0:
203,165,358554,1,4,0:0:0:0:
231,17,358794,102,0,P|122:36|62:112,1,200,4|0,0:0|0:0,0:0:0:0:
79,250,359514,1,4,0:0:0:0:
203,165,359754,1,0,0:0:0:0:
214,315,359994,2,0,P|262:303|304:277,1,100,12|0,0:0|0:0,0:0:0:0:
350,133,360474,6,0,P|394:156|429:191,1,100,4|8,0:0|0:3,0:0:0:0:
445,260,360834,1,8,0:3:0:0:
427,328,360954,2,4,P|410:350|385:369,1,50,4|4,0:3|0:3,0:3:0:0:
304,276,361194,2,4,P|282:293|253:305,1,50,4|4,0:3|0:3,0:3:0:0:
203,165,361434,101,12,0:0:0:0:
224,98,361554,1,0,0:0:0:0:
223,27,361674,2,8,P|195:32|167:46,1,50,8|8,0:3|0:3,0:3:0:0:
83,1,361914,2,4,P|58:13|34:33,1,50,4|4,0:3|0:3,0:3:0:0:
51,155,362154,6,0,P|76:207|62:283,1,131.25000500679,4|0,0:0|0:0,0:0:0:0:
46,301,362634,1,0,0:0:0:0:
184,384,362874,1,8,0:0:0:0:
304,276,363114,102,0,P|291:212|318:153,1,131.25000500679,12|0,0:0|0:0,0:0:0:0:
340,136,363594,6,0,L|387:236,1,100,4|4,0:0|0:3,0:0:0:0:
475,325,364331,102,0,L|423:299,1,42.5000008106232,4|0,0:0|0:0,0:0:0:0:
378,353,364571,2,0,L|323:379,1,42.5000008106232
278,314,364811,6,0,L|245:265,1,42.5000008106232,12|0,0:0|0:0,0:0:0:0:
179,289,365051,2,0,L|117:285,1,42.5000008106232
112,205,365291,102,0,L|107:146,1,42.5000008106232,12|0,0:0|0:0,0:0:0:0:
38,133,365531,2,0,L|-13:98,1,42.5000008106232
30,32,365771,53,4,0:0:0:0:
129,40,365891,1,0,0:0:0:0:
228,48,366011,70,0,L|278:74,1,42.5000008106232,4|0,0:0|0:0,0:0:0:0:
262,142,366251,2,0,L|272:201,1,42.5000008106232
308,250,366491,102,0,L|364:252,1,42.5000008106232,4|0,0:0|0:0,0:0:0:0:
384,185,366731,2,0,L|422:138,1,42.5000008106232
481,125,366971,6,0,L|522:163,1,42.5000008106232,12|0,0:0|0:0,0:0:0:0:
488,224,367211,2,0,L|482:283,1,42.5000008106232
426,332,367451,37,4,0:0:0:0:
330,360,367571,1,0,0:0:0:0:
231,381,367691,54,0,L|227:322,1,42.5000008106232,4|0,0:0|0:0,0:0:0:0:
158,310,367931,2,0,L|107:275,1,42.5000008106232
149,217,368171,6,0,L|197:184,1,42.5000008106232,4|0,0:0|0:0,0:0:0:0:
173,118,368411,2,0,L|177:57,1,42.5000008106232
250,63,368651,102,0,L|301:88,1,42.5000008106232,12|0,0:0|0:0,0:0:0:0:
347,34,368891,2,0,L|402:7,1,42.5000008106232
446,72,369131,53,4,0:0:0:0:
473,169,369251,1,0,0:0:0:0:
500,266,369371,2,0,L|467:312,1,50,4|0,0:0|0:0,0:0:0:0:
331,361,369611,69,0,0:0:0:0:
257,348,369731,1,0,0:0:0:0:
186,319,369851,2,0,L|214:278,1,50,4|0,0:0|0:0,0:0:0:0:
368,248,370091,101,0,0:0:0:0:
426,215,370211,1,0,0:0:0:0:
473,169,370331,2,0,L|432:139,1,50,12|0,0:0|0:0,0:0:0:0:
237,105,370571,5,0,0:0:0:0:
190,86,370691,1,0,0:0:0:0:
152,52,370811,2,0,L|191:21,1,50,4|0,0:0|0:0,0:0:0:0:
73,120,371051,102,0,L|109:165,1,42.5000008106232,4|0,0:0|0:0,0:0:0:0:
65,220,371291,2,0,L|51:279,1,42.5000008106232
121,297,371531,6,0,L|178:288,1,42.5000008106232,4|0,0:0|0:0,0:0:0:0:
203,353,371771,2,0,L|247:394,1,42.5000008106232
299,342,372011,102,0,L|320:287,1,42.5000008106232,4|0,0:0|0:0,0:0:0:0:
388,298,372251,2,0,L|446:280,1,42.5000008106232
417,205,372491,53,4,0:0:0:0:
457,114,372611,1,0,0:0:0:0:
497,23,372731,70,0,L|444:-2,1,42.5000008106232,4|0,0:0|0:0,0:0:0:0:
400,50,372971,2,0,L|345:76,1,42.5000008106232
307,14,373211,102,0,L|249:18,1,42.5000008106232,4|0,0:0|0:0,0:0:0:0:
236,85,373451,2,0,L|202:135,1,42.5000008106232
137,101,373691,6,0,L|89:133,1,42.5000008106232,12|0,0:0|0:0,0:0:0:0:
111,197,373931,2,0,L|107:257,1,42.5000008106232
31,281,374171,37,4,0:0:0:0:
118,329,374291,1,0,0:0:0:0:
205,377,374411,54,0,L|258:353,1,42.5000008106232,4|0,0:0|0:0,0:0:0:0:
247,284,374651,2,0,L|262:225,1,42.5000008106232
323,200,374891,6,0,L|376:223,1,42.5000008106232,4|0,0:0|0:0,0:0:0:0:
365,293,375131,2,0,L|380:351,1,42.5000008106232
444,371,375371,102,0,L|497:347,1,42.5000008106232,12|0,0:0|0:0,0:0:0:0:
486,278,375611,2,0,L|501:219,1,42.5000008106232
436,175,375851,53,4,0:0:0:0:
374,97,375971,1,0,0:0:0:0:
312,19,376091,2,0,L|253:25,1,50,4|0,0:0|0:0,0:0:0:0:
122,81,376331,53,0,0:0:0:0:
69,134,376451,1,0,0:0:0:0:
56,207,376571,2,0,L|105:201,1,50,4|0,0:0|0:0,0:0:0:0:
271,160,376811,5,0,0:0:0:0:
334,183,376931,1,0,0:0:0:0:
375,234,377051,2,0,L|329:254,1,50,4|0,0:0|0:0,0:0:0:0:
165,325,377291,37,8,3:1:0:0:
192,347,377411,1,8,3:1:0:0:
230,367,377531,1,8,3:1:0:0:
278,380,377651,1,8,3:1:0:0:
335,380,377771,5,8,3:3:0:0:
397,360,377891,1,8,3:3:0:0:
454,316,378011,1,8,3:3:0:0:
495,247,378131,1,8,3:3:0:0:
506,160,378251,102,0,P|484:112|456:84,1,69.9999978637696,2|0,0:3|0:0,0:0:0:0:
345,39,378491,1,0,0:0:0:0:
262,22,378611,1,0,0:0:0:0:
178,25,378731,1,4,0:0:0:0:
98,50,378851,1,0,0:0:0:0:
159,106,378971,6,0,P|220:170|240:227,1,139.999995727539,0|4,0:0|0:0,0:0:0:0:
176,364,379331,1,0,0:0:0:0:
93,370,379451,2,0,P|72:341|60:309,1,69.9999978637696
238,217,379691,102,0,P|282:246|320:254,1,69.9999978637696,12|0,0:0|0:0,0:0:0:0:
441,274,379931,1,0,0:0:0:0:
502,217,380051,1,0,0:0:0:0:
509,133,380171,5,0,0:0:0:0:
457,66,380291,1,0,0:0:0:0:
374,52,380411,1,0,0:0:0:0:
304,98,380531,2,0,P|271:84|243:63,1,69.9999978637696
98,50,380771,101,0,0:0:0:0:
68,126,380891,2,0,P|96:146|128:160,1,69.9999978637696
266,190,381131,6,0,P|300:184|335:186,1,69.9999978637696,4|0,0:0|0:0,0:0:0:0:
466,235,381371,1,0,0:0:0:0:
494,314,381491,1,0,0:0:0:0:
441,379,381611,1,4,0:0:0:0:
357,368,381731,1,0,0:0:0:0:
410,300,381851,102,0,P|352:282|275:341,1,139.999995727539,0|12,0:0|0:0,0:0:0:0:
157,373,382211,1,0,0:0:0:0:
81,337,382331,2,0,P|65:304|59:270,1,69.9999978637696,0|0,0:3|0:3,0:3:0:0:
139,135,382571,6,0,P|130:100|114:69,1,69.9999978637696,0|0,0:3|0:3,0:3:0:0:
63,180,382811,1,0,0:0:0:0:
134,223,382931,1,0,0:0:0:0:
216,239,383051,101,0,0:0:0:0:
299,227,383171,1,0,0:0:0:0:
373,187,383291,1,0,0:0:0:0:
428,124,383411,2,0,P|427:88|417:54,1,69.9999978637696,0|4,0:3|1:1,0:3:0:0:
288,10,383651,5,0,0:0:0:0:
251,85,383771,2,0,P|244:119|247:154,1,69.9999978637696,0|0,0:3|0:3,0:3:0:0:
371,265,384011,102,0,P|397:288|417:316,1,69.9999978637696,4|0,0:1|0:3,0:3:0:0:
286,382,384251,1,0,0:0:0:0:
220,329,384371,1,0,0:0:0:0:
171,259,384491,1,4,0:0:0:0:
145,178,384611,1,0,0:0:0:0:
89,240,384731,6,0,P|120:323|175:378,1,139.999995727539,0|4,0:0|0:0,0:0:0:0:
298,306,385091,1,0,0:0:0:0:
371,265,385211,2,0,P|374:230|371:196,1,69.9999978637696,0|0,0:3|0:3,0:3:0:0:
306,61,385451,102,0,P|271:62|237:71,1,69.9999978637696,12|0,0:0|0:3,0:3:0:0:
145,178,385691,1,0,0:0:0:0:
72,140,385811,1,0,0:0:0:0:
57,62,385931,5,4,0:0:0:0:
111,0,386051,1,0,0:0:0:0:
192,3,386171,1,0,0:0:0:0:
237,70,386291,2,0,P|235:106|241:141,1,69.9999978637696,0|4,0:3|0:0,0:3:0:0:
370,195,386531,101,0,0:0:0:0:
427,133,386651,2,0,P|431:99|427:63,1,69.9999978637696,0|0,0:3|0:3,0:3:0:0:
286,212,386891,6,0,P|265:240|239:263,1,69.9999978637696,4|0,0:0|0:3,0:3:0:0:
110,301,387131,1,0,0:0:0:0:
37,254,387251,1,0,0:0:0:0:
1,179,387371,1,4,0:0:0:0:
3,94,387491,1,0,0:0:0:0:
72,140,387611,102,0,P|111:207|178:235,1,139.999995727539,0|4,0:0|0:0,0:0:0:0:
319,134,387971,1,0,0:0:0:0:
357,62,388091,2,0,P|392:58|427:63,1,69.9999978637696,0|0,0:3|0:3,0:3:0:0:
511,180,388331,21,8,3:1:0:0:
499,200,388411,1,8,3:1:0:0:
488,220,388491,1,8,3:1:0:0:
477,241,388571,2,8,L|472:295,2,46.6666652425131,8|8|8,3:1|3:1|3:1,3:1:0:0:
344,334,388811,101,8,3:3:0:0:
355,313,388891,1,8,3:3:0:0:
366,293,388971,1,8,3:3:0:0:
377,272,389051,2,8,L|382:218,2,46.6666652425131,8|8|8,3:3|3:3|3:3,3:3:0:0:
319,134,389291,5,8,3:1:0:0:
307,154,389371,1,8,3:1:0:0:
296,174,389451,1,8,3:1:0:0:
285,195,389531,2,8,L|279:248,2,46.6666652425131,8|8|8,3:1|3:1|3:1,3:1:0:0:
193,316,389771,86,0,P|181:275|182:237,1,69.9999978637696,2|0,0:3|0:0,0:0:0:0:
118,356,390015,1,0,0:0:0:0:
89,280,390138,2,0,P|99:238|118:206,1,69.9999978637696,0|4,0:0|0:0,0:0:0:0:
4,277,390383,1,0,0:0:0:0:
16,196,390505,2,0,P|45:165|78:147,1,69.9999978637696,8|0,0:0|0:0,0:0:0:0:
256,240,390750,5,0,0:0:0:0:
360,255,390873,1,8,0:0:0:0:
442,216,390995,1,0,0:0:0:0:
486,152,391117,1,0,0:0:0:0:
498,90,391240,102,0,P|463:114|440:144,1,69.9999978637696,4|0,0:0|0:0,0:0:0:0:
462,10,391485,1,0,0:0:0:0:
392,50,391607,2,0,P|374:88|368:125,1,69.9999978637696,0|4,0:0|0:0,0:0:0:0:
325,1,391852,1,0,0:0:0:0:
283,70,391975,2,0,P|286:112|300:147,1,69.9999978637696,8|0,0:0|0:0,0:0:0:0:
366,286,392219,5,8,0:3:0:0:
337,341,392342,1,0,0:0:0:0:
271,381,392464,1,4,0:3:0:0:
180,372,392587,1,0,0:0:0:0:
112,293,392709,102,0,P|131:256|158:229,1,69.9999978637696,4|0,0:0|0:0,0:0:0:0:
27,263,392954,1,0,0:0:0:0:
59,191,393077,2,0,P|94:169|131:159,1,69.9999978637696,0|4,0:0|0:0,0:0:0:0:
3,129,393322,1,0,0:0:0:0:
68,80,393444,2,0,P|110:78|146:88,1,69.9999978637696,8|0,0:0|0:0,0:0:0:0:
208,286,393689,5,0,0:0:0:0:
294,366,393811,1,8,0:0:0:0:
391,369,393934,1,0,0:0:0:0:
456,329,394056,1,0,0:0:0:0:
486,281,394179,102,0,P|443:275|406:282,1,69.9999978637696,4|0,0:0|0:0,0:0:0:0:
511,194,394424,1,0,0:0:0:0:
434,178,394546,2,0,P|395:194|365:217,1,69.9999978637696,0|12,0:0|0:0,0:0:0:0:
416,96,394791,1,0,0:0:0:0:
339,119,394913,2,0,P|313:152|300:187,1,69.9999978637696
246,365,395158,5,8,0:3:0:0:
184,375,395281,1,8,0:3:0:0:
118,338,395403,1,4,0:3:0:0:
31,368,395526,1,4,0:3:0:0:
25,263,395648,102,0,P|66:258|103:265,1,69.9999978637696,4|0,0:0|0:0,0:0:0:0:
0,166,395893,1,0,0:0:0:0:
77,152,396015,2,0,P|114:168|143:193,1,69.9999978637696,4|0,0:0|0:0,0:0:0:0:
103,55,396260,1,0,0:0:0:0:
177,81,396383,2,0,P|201:114|213:150,1,69.9999978637696,12|0,0:0|0:0,0:0:0:0:
252,333,396628,5,0,0:0:0:0:
352,384,396750,1,4,0:0:0:0:
445,353,396873,1,0,0:0:0:0:
490,282,396995,1,0,0:0:0:0:
489,211,397117,102,0,P|447:208|411:217,1,69.9999978637696,4|0,0:0|0:0,0:0:0:0:
508,112,397362,1,0,0:0:0:0:
431,102,397485,2,0,P|394:119|367:146,1,69.9999978637696,4|0,0:0|0:0,0:0:0:0:
400,8,397730,1,0,0:0:0:0:
327,37,397852,2,0,P|304:71|294:107,1,69.9999978637696,12|0,0:0|0:0,0:0:0:0:
281,276,398097,5,0,0:0:0:0:
222,314,398219,1,4,0:0:0:0:
138,324,398342,1,0,0:0:0:0:
50,282,398464,1,0,0:0:0:0:
0,180,398587,102,0,P|40:185|74:202,1,69.9999978637696,4|0,0:0|0:0,0:0:0:0:
1,79,398832,1,0,0:0:0:0:
79,85,398954,2,0,P|110:110|130:141,1,69.9999978637696,4|0,0:0|0:0,0:0:0:0:
129,0,399200,1,0,0:0:0:0:
194,43,399322,2,0,P|208:81|210:118,1,69.9999978637696,12|0,0:0|0:0,0:0:0:0:
222,314,399566,5,0,0:0:0:0:
327,383,399689,1,4,0:0:0:0:
427,354,399811,1,0,0:0:0:0:
476,285,399934,1,0,0:0:0:0:
479,222,400056,102,0,P|460:154|419:98,1,139.999995727539,4|0,0:0|0:0,0:0:0:0:
276,31,400424,1,0,0:0:0:0:
194,43,400546,2,0,P|255:74|302:125,1,139.999995727539,12|0,0:0|0:0,0:0:0:0:
222,314,401036,1,8,0:0:0:0:
223,279,401158,1,8,0:0:0:0:
219,244,401280,1,8,0:0:0:0:
209,211,401403,1,8,0:0:0:0:
193,179,401525,5,8,0:0:0:0:
326,236,401771,1,8,0:0:0:0:
116,225,402015,1,8,0:0:0:0:
402,190,402261,1,8,0:0:0:0:
39,270,402505,2,0,P|0:336|81:305,1,209.999993591309,4|0,0:0|0:0,0:0:0:0:
44,194,402995,38,0,P|12:142|12:90,1,100,8|0,0:0|0:0,0:0:0:0:
109,0,403362,2,0,P|84:42|82:92,1,100
162,171,403729,2,0,P|159:109|186:65,1,100,8|0,0:0|0:0,0:0:0:0:
314,35,404096,2,0,P|270:59|257:76,1,50,8|0,0:0|0:0,0:0:0:0:
265,141,404341,1,8,0:0:0:0:
342,112,404464,6,0,P|401:98|450:113,1,100,4|0,0:0|0:0,0:0:0:0:
505,233,404831,2,0,P|471:196|425:179,1,100
300,208,405199,2,0,P|355:231|386:272,1,100,8|0,0:0|0:0,0:0:0:0:
342,384,405566,1,8,0:0:0:0:
331,335,405688,1,8,0:0:0:0:
299,297,405810,1,8,0:0:0:0:
254,281,405933,102,0,P|211:325|162:338,1,100,4|0,0:0|0:0,0:0:0:0:
50,269,406301,2,0,P|98:281|147:270,1,100
191,179,406668,2,0,P|132:196|83:183,1,100,12|0,0:0|0:0,0:0:0:0:
21,66,407035,2,0,P|55:100|103:115,1,100,8|0,0:0|0:0,0:0:0:0:
192,14,407403,6,0,P|251:-3|300:10,1,100,4|0,0:0|0:0,0:0:0:0:
362,127,407770,1,0,0:0:0:0:
329,91,407893,1,12,0:0:0:0:
471,137,408137,1,0,0:0:0:0:
360,238,408382,2,0,L|377:187,2,33.3333333333333,0|0|0,3:0|3:0|3:0,3:0:0:0:
294,241,408627,2,0,L|283:188,2,33.3333333333333,0|0|0,3:0|3:0|3:0,3:0:0:0:
255,292,408872,102,0,P|200:327|106:336,1,150,4|0,0:0|0:0,0:0:0:0:
33,106,409607,2,0,P|88:71|182:62,1,150,12|0,0:0|0:0,0:0:0:0:
394,337,410341,6,0,P|320:330|257:292,1,150,4|0,0:0|0:0,0:0:0:0:
341,60,411076,2,0,P|415:67|479:106,1,150,12|0,0:0|0:0,0:0:0:0:
99,192,411811,102,0,P|92:266|117:337,1,150,4|0,0:0|0:0,0:0:0:0:
395,337,412546,2,0,P|419:266|411:192,1,150,12|0,0:0|0:0,0:0:0:0:
256,292,413280,37,2,1:3:0:0:
256,192,413402,12,4,417198,0:0:0:0:
335,245,417685,101,4,2:3:0:0:
360,244,417923,1,4,2:3:0:0:
384,250,418161,1,4,2:3:0:0:
407,261,418399,1,4,2:3:0:0:
426,277,418637,5,4,2:3:0:0:
435,254,418875,1,4,2:3:0:0:
440,230,419113,1,4,2:3:0:0:
441,205,419351,1,4,2:3:0:0:
439,180,419589,1,4,2:3:0:0:
433,156,419827,1,4,2:3:0:0:
423,133,420065,1,4,2:3:0:0:
411,112,420304,1,4,2:3:0:0:
395,92,420542,1,4,2:3:0:0:
377,75,420780,1,4,2:3:0:0:
356,61,421018,1,4,2:3:0:0:
338,52,421256,69,4,2:3:0:0:
276,96,421375,1,4,2:3:0:0:
214,140,421494,21,4,2:3:0:0:
182,121,421732,1,4,2:3:0:0:
157,93,421970,1,4,2:3:0:0:
141,60,422208,1,4,2:3:0:0:
136,23,422446,5,4,2:3:0:0:
100,33,422685,1,4,2:3:0:0:
68,51,422923,1,4,2:3:0:0:
41,75,423161,1,4,2:3:0:0:
19,105,423399,1,4,2:3:0:0:
5,139,423640,1,4,2:3:0:0:
0,176,423882,1,4,2:3:0:0:
2,214,424124,1,4,2:3:0:0:
14,249,424366,1,4,2:3:0:0:
33,281,424608,1,4,2:3:0:0:
60,308,424850,1,4,2:3:0:0:
91,328,425092,85,4,2:3:0:0:
165,277,425213,1,4,2:3:0:0:
238,225,425334,5,4,2:3:0:0:
251,272,425576,1,4,2:3:0:0:
281,312,425818,1,4,2:3:0:0:
323,339,426060,1,4,2:3:0:0:
372,349,426302,5,4,2:3:0:0:
355,290,426544,1,4,2:3:0:0:
369,230,426786,1,4,2:3:0:0:
411,184,427028,1,4,2:3:0:0:
470,164,427269,69,4,2:3:0:0:
423,107,427511,1,4,2:3:0:0:
347,61,427753,1,4,2:3:0:0:
241,44,427995,1,4,2:3:0:0:
120,84,428237,5,12,0:0:0:0:
44,76,428358,2,0,P|19:43|29:2,2,59.9999981689454
120,84,428721,54,0,P|194:165|48:174,1,300,8|0,0:0|0:0,0:0:0:0:
121,158,429208,102,0,P|195:134|285:155,1,150,2|0,0:3|0:0,0:0:0:0:
391,226,429688,2,0,P|316:249|226:228,1,150,2|0,0:3|0:0,0:0:0:0:
278,20,430168,2,0,P|335:72|361:161,1,150,2|0,0:3|0:0,0:0:0:0:
234,364,430648,2,0,P|176:311|150:222,1,150,2|0,0:3|0:0,0:0:0:0:
452,95,431128,6,0,P|435:170|371:238,1,150,2|0,0:3|0:0,0:0:0:0:
60,289,431608,2,0,P|76:213|140:145,1,150,2|0,0:3|0:0,0:0:0:0:
378,352,432088,5,8,3:1:0:0:
355,363,432168,1,8,3:1:0:0:
331,370,432248,1,8,3:1:0:0:
307,374,432328,2,8,L|259:373,2,33.3333333333333,8|8|8,3:1|3:1|3:1,3:1:0:0:
225,285,432568,101,4,3:0:0:0:
249,291,432648,1,4,3:0:0:0:
274,294,432728,1,4,3:0:0:0:
299,292,432808,2,4,L|345:280,2,33.3333333333333,4|4|4,3:0|3:0|3:0,3:0:0:0:
389,225,433048,101,2,0:3:0:0:
415,156,433168,1,0,0:0:0:0:
402,83,433288,1,0,0:0:0:0:
353,27,433408,1,0,0:0:0:0:
282,6,433528,1,4,0:0:0:0:
209,19,433648,1,0,0:0:0:0:
154,69,433768,1,0,0:0:0:0:
86,100,433888,1,0,0:0:0:0:
14,78,434008,6,0,P|36:41|69:26,1,75.0000028610231,12|0,0:0|0:0,0:0:0:0:
32,151,434248,1,0,0:0:0:0:
5,220,434368,1,0,0:0:0:0:
16,293,434488,1,4,0:0:0:0:
62,352,434608,1,0,0:0:0:0:
131,380,434728,1,0,0:0:0:0:
204,371,434848,1,0,0:0:0:0:
264,328,434968,101,2,0:3:0:0:
199,292,435088,1,0,0:0:0:0:
166,226,435208,1,0,0:0:0:0:
178,153,435328,1,0,0:0:0:0:
230,101,435448,1,4,0:0:0:0:
302,88,435568,1,0,0:0:0:0:
369,120,435688,1,0,0:0:0:0:
405,184,435808,1,0,0:0:0:0:
397,258,435928,6,0,P|411:297|440:320,1,75.0000028610231,12|0,0:0|0:0,0:0:0:0:
328,185,436168,1,0,0:0:0:0:
273,235,436288,2,0,P|297:269|331:283,1,75.0000028610231,4|0,0:0|0:0,0:0:0:0:
187,182,436528,1,0,0:0:0:0:
147,244,436648,2,0,P|178:269|216:275,1,75.0000028610231,4|0,0:0|0:0,0:0:0:0:
50,215,436888,101,2,0:3:0:0:
16,282,437008,1,0,0:0:0:0:
65,339,437128,1,0,0:0:0:0:
135,319,437248,1,0,0:0:0:0:
146,244,437368,1,4,0:0:0:0:
187,181,437488,1,0,0:0:0:0:
247,138,437608,1,0,0:0:0:0:
320,120,437728,1,0,0:0:0:0:
393,130,437848,6,0,P|389:87|366:58,1,75.0000028610231,12|0,0:0|0:0,0:0:0:0:
348,188,438088,1,0,0:0:0:0:
303,246,438208,1,0,0:0:0:0:
308,319,438328,1,4,0:0:0:0:
359,372,438448,1,0,0:0:0:0:
432,377,438568,1,0,0:0:0:0:
470,313,438688,1,0,0:0:0:0:
405,276,438808,101,2,0:3:0:0:
468,238,438928,1,0,0:0:0:0:
504,173,439048,1,0,0:0:0:0:
501,99,439168,1,0,0:0:0:0:
461,36,439288,1,4,0:0:0:0:
394,4,439408,1,0,0:0:0:0:
320,9,439528,1,0,0:0:0:0:
260,52,439648,1,0,0:0:0:0:
230,120,439768,6,0,P|266:126|301:113,1,75.0000028610231,12|0,0:0|0:0,0:0:0:0:
159,107,440008,1,0,0:0:0:0:
159,180,440128,2,0,P|192:195|229:192,1,75.0000028610231,4|0,0:0|0:0,0:0:0:0:
93,149,440368,1,0,0:0:0:0:
74,219,440488,2,0,P|102:243|138:249,1,75.0000028610231,4|0,0:0|0:0,0:0:0:0:
18,171,440728,101,2,0:3:0:0:
0,242,440848,1,0,0:0:0:0:
20,314,440968,1,0,0:0:0:0:
73,365,441088,1,0,0:0:0:0:
145,383,441208,1,4,0:0:0:0:
216,362,441328,1,0,0:0:0:0:
267,308,441448,1,0,0:0:0:0:
284,236,441568,1,0,0:0:0:0:
263,165,441688,6,0,P|230:183|212:214,1,75.0000028610231,12|0,0:0|0:0,0:0:0:0:
339,287,441928,1,0,0:0:0:0:
413,283,442048,1,0,0:0:0:0:
475,243,442168,1,4,0:0:0:0:
509,177,442288,1,0,0:0:0:0:
504,103,442408,1,0,0:0:0:0:
463,42,442528,1,0,0:0:0:0:
397,9,442648,101,2,0:3:0:0:
404,83,442768,1,0,0:0:0:0:
383,154,442888,1,0,0:0:0:0:
337,213,443008,1,0,0:0:0:0:
273,251,443128,1,4,0:0:0:0:
200,263,443248,1,0,0:0:0:0:
127,247,443368,1,0,0:0:0:0:
65,206,443488,1,0,0:0:0:0:
23,144,443608,6,0,P|58:131|93:138,1,75.0000028610231,12|0,0:0|0:0,0:0:0:0:
59,284,443848,1,0,0:0:0:0:
102,344,443968,1,0,0:0:0:0:
170,374,444088,1,4,0:0:0:0:
243,366,444208,1,0,0:0:0:0:
303,322,444328,101,0,0:0:0:0:
374,348,444448,1,0,0:0:0:0:
448,338,444568,2,0,P|483:309|493:267,1,75.0000028610231,2|0,0:3|0:0,0:0:0:0:
359,277,444808,5,0,0:0:0:0:
421,223,444928,1,0,0:0:0:0:
452,147,445048,2,0,P|444:102|413:72,1,75.0000028610231,4|0,0:0|0:0,0:0:0:0:
343,197,445288,101,0,0:0:0:0:
325,107,445408,1,0,0:0:0:0:
269,36,445528,2,0,P|226:20|185:32,1,75.0000028610231,12|0,0:0|0:0,0:0:0:0:
256,165,445768,5,0,0:0:0:0:
160,132,445888,1,0,0:0:0:0:
61,146,446008,2,0,P|25:175|15:217,1,75.0000028610231,4|0,0:0|0:0,0:0:0:0:
178,225,446248,101,0,0:0:0:0:
79,272,446368,1,0,0:0:0:0:
80,380,446488,2,8,L|140:384,2,50.0000019073487,8|8|8,3:0|3:0|3:0,3:0:0:0:
196,318,446728,5,0,0:0:0:0:
291,384,446848,1,0,0:0:0:0:
401,346,446968,2,4,L|386:282,2,50.0000019073487,4|4|4,3:0|3:0|3:0,3:0:0:0:
284,268,447208,101,0,0:0:0:0:
358,170,447328,1,0,0:0:0:0:
281,73,447448,2,0,P|140:20|32:192,1,375.000014305115,14|0,3:0|0:0,0:0:0:0:
119,272,448168,2,0,P|158:272|233:245,1,75.0000028610231
248,147,448408,6,0,P|186:186|89:192,1,150.000005722046,2|0,0:3|0:0,0:0:0:0:
39,43,448888,1,4,0:0:0:0:
0,269,449128,1,0,0:0:0:0:
248,147,449368,102,0,P|321:151|403:204,1,150.000005722046,12|0,0:1|0:0,0:0:0:0:
467,333,449848,1,4,0:0:0:0:
510,108,450088,1,0,0:0:0:0:
325,291,450328,6,0,P|254:271|185:202,1,150.000005722046,4|0,0:0|0:0,0:0:0:0:
207,45,450808,1,4,0:0:0:0:
80,267,451048,1,0,0:0:0:0:
337,106,451288,6,8,L|377:73,1,33.3333333333333
141,164,451608,2,0,L|100:148,1,33.3333333333333
289,304,451928,2,0,L|295:348,1,33.3333333333333
337,107,452248,86,0,P|268:82|172:98,1,150.000005722046,2|0,0:3|0:0,0:0:0:0:
98,241,452728,1,4,0:0:0:0:
143,8,452968,1,0,0:0:0:0:
283,191,453208,6,0,P|351:215|447:199,1,150.000005722046,12|0,0:1|0:0,0:0:0:0:
511,60,453688,1,4,0:0:0:0:
502,286,453928,1,0,0:0:0:0:
405,92,454168,5,8,3:1:0:0:
170,189,454328,1,8,3:0:0:0:
430,207,454488,1,8,3:0:0:0:
198,92,454648,85,8,3:1:0:0:
344,299,454808,1,8,3:1:0:0:
303,43,454968,1,8,3:0:0:0:
231,286,455128,21,4,3:0:0:0:
405,92,455288,1,4,3:0:0:0:
170,189,455448,1,4,3:0:0:0:
430,207,455608,101,8,3:0:0:0:
198,92,455768,1,8,3:0:0:0:
344,299,455928,1,8,3:0:0:0:
303,43,456088,101,2,0:3:0:0:
261,15,456208,1,0,0:0:0:0:
214,0,456328,1,0,0:0:0:0:
164,0,456448,1,0,0:0:0:0:
115,6,456568,1,4,0:0:0:0:
139,275,456808,1,0,0:0:0:0:
294,155,457048,6,0,P|365:164|443:222,1,150.000005722046,12|0,0:0|0:0,0:0:0:0:
507,377,457528,1,4,0:0:0:0:
475,98,457768,1,0,0:0:0:0:
317,340,458008,101,2,0:3:0:0:
275,368,458128,1,0,0:0:0:0:
228,384,458248,1,0,0:0:0:0:
117,122,458488,1,4,0:0:0:0:
2,350,458728,1,0,0:0:0:0:
225,183,458968,6,0,P|291:155|388:166,1,150.000005722046,12|0,0:0|0:0,0:0:0:0:
506,332,459448,1,4,0:0:0:0:
510,37,459688,1,0,0:0:0:0:
407,297,459928,101,2,0:3:0:0:
364,324,460048,1,0,0:0:0:0:
317,340,460168,1,0,0:0:0:0:
198,92,460408,1,4,0:0:0:0:
45,348,460648,1,0,0:0:0:0:
293,155,460888,6,0,P|365:156|448:206,1,150.000005722046,12|0,0:0|0:0,0:0:0:0:
478,381,461368,1,4,0:0:0:0:
509,59,461608,1,0,0:0:0:0:
336,286,461848,5,12,3:1:0:0:
260,320,462008,1,8,3:1:0:0:
178,315,462168,1,8,3:1:0:0:
107,272,462328,85,8,3:0:0:0:
155,255,462488,1,8,3:0:0:0:
193,220,462648,1,8,3:1:0:0:
214,172,462808,21,8,3:1:0:0:
158,139,462968,1,8,3:1:0:0:
119,88,463128,1,8,3:1:0:0:
108,24,463288,101,4,3:0:0:0:
151,46,463448,1,4,3:0:0:0:
198,57,463608,1,4,3:0:0:0:
246,55,463768,101,2,0:3:0:0:
256,192,463888,12,0,467368,0:0:0:0:
64,48,467608,6,0,P|15:107|-2:182,1,129.999994049073,2|0,0:3|0:0,0:0:0:0:
76,337,468017,2,0,P|61:263|80:187,1,129.999994049073,4|0,0:0|0:0,0:0:0:0:
304,86,468426,102,0,B|203:185,1,100,12|0,0:0|0:0,0:0:0:0:
166,307,468698,2,0,B|237:238,1,100
413,86,468971,6,0,P|429:160|410:235,1,129.999994049073,4|0,0:0|0:0,0:0:0:0:
270,337,469380,2,0,P|316:277|334:201,1,129.999994049073,4|0,0:0|0:0,0:0:0:0:
304,86,469789,102,0,B|247:215,1,100,12|0,0:0|0:0,0:0:0:0:
145,292,470061,2,0,B|183:200,1,100
213,27,470335,2,0,B|156:156,1,100
62,288,470608,6,0,P|19:224|10:147,1,129.999994049073,2|0,0:3|0:0,0:0:0:0:
105,2,471017,2,0,P|82:74|93:151,1,129.999994049073,4|0,0:0|0:0,0:0:0:0:
168,379,471426,102,0,B|145:282,1,100,12|0,0:0|0:0,0:0:0:0:
172,118,471698,2,0,B|201:255,1,100
260,380,471971,6,0,P|317:329|346:257,1,129.999994049073,4|0,0:0|0:0,0:0:0:0:
292,92,472380,2,0,P|295:167|264:239,1,129.999994049073,4|0,0:0|0:0,0:0:0:0:
142,285,472789,101,8,3:1:0:0:
51,276,472925,1,8,3:1:0:0:
102,206,473061,1,8,3:0:0:0:
91,356,473198,5,8,3:1:0:0:
4,348,473334,1,8,3:1:0:0:
51,276,473470,1,8,3:0:0:0:
193,215,473608,101,4,3:0:0:0:
153,136,473744,1,4,3:0:0:0:
62,126,473880,1,4,3:0:0:0:
142,285,474017,6,0,P|180:302|224:296,1,75.0000028610231,2|0,0:3|0:0,0:0:0:0:
332,125,474426,102,0,B|288:214,1,100,12|0,0:0|0:0,0:0:0:0:
276,379,474698,2,0,B|336:251,1,100
420,96,474971,6,0,P|465:157|478:233,1,129.999994049073,4|0,0:0|0:0,0:0:0:0:
391,384,475380,2,0,P|409:310|394:233,1,129.999994049073,4|0,0:0|0:0,0:0:0:0:
322,44,475789,102,0,B|359:180,1,100,12|0,0:0|0:0,0:0:0:0:
327,303,476061,2,0,B|299:207,1,100
213,55,476335,2,0,B|250:191,1,100
252,326,476608,6,0,P|203:267|186:192,1,129.999994049073,2|8,0:3|0:0,0:0:0:0:
114,38,477017,2,0,P|126:113|104:187,1,129.999994049073,4|0,0:0|0:0,0:0:0:0:
34,316,477426,102,0,L|251:242,1,100,4|0,0:0|0:0,0:0:0:0:
327,303,477698,1,8,0:0:0:0:
453,84,477971,6,0,P|400:29|327:2,1,129.999994049073,4|0,0:0|0:0,0:0:0:0:
163,62,478380,2,0,P|238:56|311:84,1,129.999994049073,4|0,0:0|0:0,0:0:0:0:
383,301,478789,102,8,L|325:365,1,50
313,379,478925,1,8,0:0:0:0:
278,279,479061,1,8,0:0:0:0:
479,259,479198,6,8,L|466:345,1,50,8|8,0:3|0:3,0:3:0:0:
462,364,479334,1,8,0:3:0:0:
383,301,479470,1,8,0:3:0:0:
445,106,479608,102,0,P|352:52|448:162,1,491.905354919054,2|0,1:3|0:1,0:0:0:0:
