osu file format v14

[General]
AudioFilename: audio.mp3
AudioLeadIn: 0
PreviewTime: 123657
Countdown: 0
SampleSet: None
StackLeniency: 0.2
Mode: 0
LetterboxInBreaks: 0
WidescreenStoryboard: 0

[Editor]
DistanceSpacing: 0.5
BeatDivisor: 4
GridSize: 4
TimelineZoom: 1

[Metadata]
Title:Opening
TitleUnicode:Opening
Artist:Plini
ArtistUnicode:Plini
Creator:Xenok
Version:Sweet Nothings
Source:
Tags:Progressive Djent Jazz Rock Drums Guitare Solo Calm Chill
BeatmapID:1634404
BeatmapSetID:778137

[Difficulty]
HPDrainRate:6
CircleSize:4.6
OverallDifficulty:8.3
ApproachRate:9.1
SliderMultiplier:1.2
SliderTickRate:1

[Events]
//Background and Video events
0,0,"Plini - Sweet Nothings - Wallpaper.jpg",0,0
//Break Periods
//Storyboard Layer 0 (Background)
//Storyboard Layer 1 (Fail)
//Storyboard Layer 2 (Pass)
//Storyboard Layer 3 (Foreground)
//Storyboard Sound Samples

[TimingPoints]
3681,428.571428571429,7,2,1,60,1,0
3681,-133.333333333333,7,2,1,60,0,0
4538,400,7,2,1,60,1,0
4538,-133.333333333333,7,2,1,60,0,0
5338,444.444444444444,7,2,1,60,1,0
5338,-400,4,2,1,60,0,0
5671,-400,4,2,1,5,0,0
5782,-133.333333333333,7,2,1,60,0,0
6115,-133.333333333333,7,2,1,5,0,0
6226,-133.333333333333,7,2,1,60,0,0
6562,-133.333333333333,7,2,1,5,0,0
6671,434.782608695652,7,2,1,60,1,0
6671,-133.333333333333,7,2,1,60,0,0
7540,422.535211267606,7,2,1,60,1,0
7540,-133.333333333333,7,2,1,60,0,0
8385,428.571428571429,7,2,1,60,1,0
8385,-400,4,2,1,60,0,0
8920,-400,4,2,1,5,0,0
9027,-400,4,2,1,60,0,0
9563,-400,4,2,1,5,0,0
9670,-133.333333333333,7,2,1,60,0,0
11385,413.793103448276,7,2,1,60,1,0
11385,-400,4,2,1,60,0,0
11695,-400,4,2,1,5,0,0
11798,-133.333333333333,7,2,1,60,0,0
12109,-133.333333333333,7,2,1,5,0,0
12212,461.538461538462,7,2,1,60,1,0
12212,-133.333333333333,7,2,1,60,0,0
12558,-133.333333333333,7,2,1,5,0,0
12673,428.571428571429,7,2,1,60,1,0
12673,-133.333333333333,7,2,1,60,0,0
13530,400,7,2,1,60,1,0
13530,-133.333333333333,7,2,1,60,0,0
13930,461.538461538462,7,2,1,60,1,0
13930,-133.333333333333,7,2,1,60,0,0
14391,422.237860661506,7,2,1,60,1,0
14391,-400,4,2,1,60,0,0
14918,-400,4,2,1,5,0,0
15024,-400,4,2,1,60,0,0
15552,-400,4,2,1,5,0,0
15657,428.571428571429,4,2,1,70,1,0
15657,-133.333333333333,7,2,1,60,0,0
19407,-133.333333333333,7,2,1,5,0,0
19514,-133.333333333333,7,2,1,60,0,0
22835,-133.333333333333,7,2,1,5,0,0
22942,-133.333333333333,7,2,1,60,0,0
27657,-133.333333333333,7,3,1,10,0,0
28085,-125,7,3,1,15,0,0
28514,-117.647058823529,7,3,1,20,0,0
28728,-111.111111111111,7,3,1,25,0,0
28942,-100,7,3,1,50,0,0
48335,-100,7,2,1,5,0,0
48442,-50,7,3,1,50,0,0
48871,-50,7,2,1,5,0,0
49299,-100,7,3,1,50,0,0
49942,-100,7,3,1,50,0,0
51657,-100,7,3,1,50,0,0
56799,428.571428571429,7,3,1,50,1,0
63120,-100,7,2,1,5,0,0
63227,-100,7,3,1,50,0,0
68370,-100,7,3,1,20,0,0
68799,428.571428571429,4,3,1,50,1,0
68799,-133.333333333333,4,2,1,60,0,0
82513,-100,4,3,1,50,0,0
123657,428.571428571429,15,3,1,50,1,0
149371,428.571428571429,4,3,1,50,1,0

[Colours]
Combo1 : 172,166,255
Combo2 : 138,180,255
Combo3 : 183,111,255
Combo4 : 180,231,250

[HitObjects]
88,140,3681,6,0,P|128:125|191:140,1,90.0000034332277
230,235,4323,1,0,0:0:0:0:
230,235,4538,2,0,L|222:191,1,45.0000017166138
307,144,4938,2,0,L|299:188,1,45.0000017166138
308,282,5338,6,0,L|306:256,1,22.5
369,303,5782,6,0,P|334:294|290:293,1,67.5000025749207
320,367,6226,2,0,P|285:375|241:376,1,67.5000025749207
195,325,6671,6,0,P|162:314|107:331,1,90.0000034332277
42,384,7323,1,0,0:0:0:0:
42,384,7540,2,0,L|35:333,1,45.0000017166138
107,319,7962,2,0,L|114:268,1,45.0000017166138
90,202,8385,6,0,P|65:214|56:224,1,37.5
167,226,9027,2,0,P|169:198|164:185,1,37.5
112,275,9670,6,0,P|154:270|206:293,1,90.0000034332277
250,344,10313,1,0,0:0:0:0:
250,344,10527,2,0,L|299:354,1,45.0000017166138
346,295,10956,2,0,L|395:285,1,45.0000017166138
443,207,11385,6,0,L|447:233,1,22.5
447,201,11798,6,0,P|414:192|364:197,1,67.5000025749207
398,118,12212,2,0,P|365:127|315:122,1,67.5000025749207
309,189,12673,6,0,P|298:152|247:110,1,90.0000034332277
191,161,13315,1,0,0:0:0:0:
191,161,13530,2,0,L|181:111,1,45.0000017166138
267,66,13930,2,0,L|258:110,1,45.0000017166138
186,40,14391,6,0,P|158:43|144:49,1,37.5
59,99,15024,2,0,P|87:96|101:90,1,37.5
181,112,15657,6,0,L|177:162,1,45.0000017166138
228,258,16085,2,0,L|224:213,1,45.0000017166138
300,291,16514,2,0,L|303:246,1,45.0000017166138
352,150,16942,2,0,L|356:200,1,45.0000017166138
414,294,17371,2,0,L|410:249,1,45.0000017166138
486,263,17799,2,0,L|489:218,1,45.0000017166138
451,152,18228,1,0,0:0:0:0:
506,330,18442,5,0,0:0:0:0:
478,257,18657,1,0,0:0:0:0:
500,344,18871,1,0,0:0:0:0:
358,285,19085,6,0,P|322:278|277:296,1,67.5000025749207
229,325,19514,2,0,L|221:270,1,45.0000017166138
148,354,19942,2,0,L|156:299,1,45.0000017166138
127,190,20371,2,0,L|131:240,1,45.0000017166138
78,329,20799,2,0,L|70:274,1,45.0000017166138
0,303,21228,2,0,L|8:248,1,45.0000017166138
17,373,21657,1,0,0:0:0:0:
48,185,21871,5,0,0:0:0:0:
13,254,22085,1,0,0:0:0:0:
47,169,22299,1,0,0:0:0:0:
146,246,22514,6,0,P|174:255|226:244,1,67.5000025749207
276,211,22942,2,0,L|282:166,1,45.0000017166138
207,176,23371,2,0,L|200:131,1,45.0000017166138
273,39,23799,2,0,L|266:83,1,45.0000017166138
198,184,24228,2,0,L|191:139,1,45.0000017166138
116,218,24657,2,0,L|122:173,1,45.0000017166138
103,103,25085,1,0,0:0:0:0:
171,281,25299,5,0,0:0:0:0:
112,229,25514,1,0,0:0:0:0:
172,294,25728,1,0,0:0:0:0:
227,108,25942,6,0,L|224:157,1,45.0000017166138
273,256,26371,2,0,L|270:211,1,45.0000017166138
345,287,26799,2,0,L|347:242,1,45.0000017166138
390,136,27228,2,0,L|393:185,1,45.0000017166138
435,294,27657,6,8,L|433:271,3,22.5000008583069
478,215,28085,2,8,L|479:191,3,24
428,136,28514,6,8,L|426:110,1,25.5000004863739
477,30,28728,2,8,L|475:56,1,26.9999991760254
350,109,28942,5,8,0:0:0:0:
327,113,29049,1,8,0:0:0:0:
305,111,29156,1,8,0:0:0:0:
284,104,29263,1,8,0:0:0:0:
265,91,29371,6,0,P|225:81|190:85,1,60
163,207,29799,2,0,L|164:146,1,60,8|0,0:0|0:0,0:0:0:0:
119,84,30228,1,0,0:0:0:0:
188,279,30442,2,0,P|214:266|235:228,1,60,8|0,0:0|0:0,0:0:0:0:
257,168,30871,1,0,0:0:0:0:
264,325,31085,2,0,L|267:393,1,60,8|0,0:0|0:0,0:0:0:0:
189,368,31514,1,0,0:0:0:0:
331,284,31728,2,0,P|364:276|409:284,1,60,8|0,0:0|0:0,0:0:0:0:
389,277,32157,5,0,0:0:0:0:
413,261,32371,1,0,0:0:0:0:
438,156,32585,2,0,L|439:206,1,30
442,331,32799,5,0,0:0:0:0:
442,331,33014,1,0,0:0:0:0:
333,222,33228,1,8,0:0:0:0:
482,245,33442,2,0,B|511:252|511:252|546:250,1,60,8|0,0:0|0:0,0:0:0:0:
482,245,34085,5,8,0:0:0:0:
489,343,34299,1,0,0:0:0:0:
395,375,34514,5,8,0:0:0:0:
405,288,34728,1,0,0:0:0:0:
489,343,34942,5,0,0:0:0:0:
405,288,35157,2,0,P|366:282|333:284,1,60,8|0,0:0|0:0,0:0:0:0:
345,282,35585,5,0,0:0:0:0:
317,288,35799,1,0,0:0:0:0:
275,384,36014,2,0,L|266:355,2,20
344,354,36228,5,0,0:0:0:0:
344,354,36442,1,0,0:0:0:0:
343,194,36657,2,0,P|344:155|358:116,1,60,8|0,0:0|0:0,0:0:0:0:
405,81,37085,1,0,0:0:0:0:
265,141,37299,2,0,P|229:136|199:122,1,60,8|0,0:0|0:0,0:0:0:0:
192,53,37728,1,0,0:0:0:0:
196,204,37942,2,0,L|197:275,1,60,8|0,0:0|0:0,0:0:0:0:
254,317,38371,1,0,0:0:0:0:
113,231,38585,2,0,P|80:219|50:219,1,60,8|0,0:0|0:0,0:0:0:0:
55,218,39014,5,0,0:0:0:0:
44,237,39228,2,0,L|38:271,1,30
105,335,39442,2,0,L|99:305,1,30
27,340,39657,5,0,0:0:0:0:
27,340,39871,1,0,0:0:0:0:
183,312,40085,1,8,0:0:0:0:
44,237,40299,2,0,B|16:229|16:229|-28:228,1,60,8|0,0:0|0:0,0:0:0:0:
44,237,40942,5,0,0:0:0:0:
190,228,41157,1,0,0:0:0:0:
196,227,41228,1,0,0:0:0:0:
203,227,41299,1,0,0:0:0:0:
209,227,41371,5,0,0:0:0:0:
150,293,41585,1,0,0:0:0:0:
122,210,41799,1,0,0:0:0:0:
237,310,42014,1,8,0:0:0:0:
237,310,42442,6,0,L|205:326,1,30
273,297,42657,1,0,0:0:0:0:
379,320,42871,1,0,0:0:0:0:
512,292,43085,5,0,0:0:0:0:
512,292,43299,1,0,0:0:0:0:
395,235,43514,5,8,0:0:0:0:
367,233,43621,1,0,0:0:0:0:
341,240,43728,1,0,0:0:0:0:
309,265,43835,1,0,0:0:0:0:
297,285,43942,5,0,0:0:0:0:
279,298,44049,1,0,0:0:0:0:
258,305,44156,1,8,0:0:0:0:
235,304,44263,1,0,0:0:0:0:
211,298,44371,6,0,P|177:298|154:305,2,40
101,376,44799,6,0,B|105:335|87:307|87:307|88:279|104:253|104:253,1,120,8|0,0:0|0:0,0:0:0:0:
131,195,45442,1,8,0:0:0:0:
131,195,45871,5,0,0:0:0:0:
164,183,46085,1,0,0:0:0:0:
278,208,46299,1,0,0:0:0:0:
426,147,46514,5,0,0:0:0:0:
377,303,46728,1,0,0:0:0:0:
372,273,46835,1,0,0:0:0:0:
377,244,46942,2,0,L|420:254,1,30,8|0,0:0|0:0,0:0:0:0:
511,277,47157,2,0,L|468:286,1,30,8|0,0:0|0:0,0:0:0:0:
304,325,47371,1,0,0:0:0:0:
304,325,47799,6,0,B|285:311|262:307|262:307|216:327|154:317,1,150,8|0,0:0|0:0,0:0:0:0:
131,384,48442,6,0,B|135:348|149:319|149:319|129:285|124:253|124:253|147:222|147:222|156:186|147:150,1,240,8|0,0:0|0:0,0:0:0:0:
149,159,49299,5,0,0:0:0:0:
180,151,49406,1,0,0:0:0:0:
220,165,49514,1,0,0:0:0:0:
260,191,49621,1,0,0:0:0:0:
328,176,49728,1,0,0:0:0:0:
361,103,49835,1,0,0:0:0:0:
316,11,49942,6,0,P|364:1|443:42,1,120,0|8,0:0|0:3,0:0:0:0:
486,94,50514,2,0,P|508:67|517:41,1,40
394,108,50799,2,0,P|406:140|424:161,2,40
488,187,51228,6,0,L|484:230,1,30
424,263,51442,2,0,L|428:306,1,30
491,343,51657,6,0,P|459:367|417:372,1,60,8|0,0:0|0:0,0:0:0:0:
361,333,51978,1,0,0:0:0:0:
369,345,52085,1,0,0:0:0:0:
249,274,52299,2,0,P|212:267|171:276,1,60,8|0,0:0|0:0,0:0:0:0:
190,269,52728,5,0,0:0:0:0:
173,258,52942,2,0,L|165:228,1,30
238,160,53157,2,0,L|230:188,1,30
154,155,53371,5,0,0:0:0:0:
154,155,53585,2,0,L|149:122,2,20
81,178,53799,6,0,L|86:145,2,20,8|0|0,0:0|0:0|0:0,0:0:0:0:
10,159,54014,2,0,L|7:139,2,20,8|0|0,0:0|0:0|0:0,0:0:0:0:
27,233,54228,6,0,L|21:262,1,30
103,319,54442,2,0,L|97:289,1,30
167,233,54657,6,0,L|163:252,2,20,8|0|0,0:0|0:0|0:0,0:0:0:0:
226,183,54871,1,0,0:0:0:0:
224,176,54942,1,0,0:0:0:0:
223,169,55013,1,0,0:0:0:0:
222,163,55085,5,8,0:0:0:0:
230,148,55156,1,0,0:0:0:0:
241,136,55227,1,0,0:0:0:0:
255,127,55299,1,0,0:0:0:0:
271,121,55370,1,0,0:0:0:0:
287,119,55442,1,0,0:0:0:0:
304,120,55514,6,0,L|300:88,2,20
373,95,55728,2,0,L|377:63,2,20,8|0|0,0:0|0:0|0:0,0:0:0:0:
441,122,55942,6,0,L|437:154,2,20
510,147,56156,2,0,L|514:179,2,20
459,216,56371,5,0,0:0:0:0:
455,225,56442,1,0,0:0:0:0:
452,234,56513,1,0,0:0:0:0:
452,244,56585,1,0,0:0:0:0:
452,254,56656,1,0,0:0:0:0:
455,264,56728,1,0,0:0:0:0:
458,273,56799,6,0,P|466:305|461:338,1,60
325,317,57228,2,0,P|375:307|400:315,1,60,8|0,0:0|0:0,0:0:0:0:
364,382,57657,1,0,0:0:0:0:
279,253,57871,2,0,P|229:243|204:251,1,60,8|0,0:0|0:0,0:0:0:0:
240,318,58300,1,0,0:0:0:0:
325,189,58514,2,0,P|330:165|325:117,1,60,8|0,0:0|0:0,0:0:0:0:
305,60,58943,1,0,0:0:0:0:
409,186,59157,2,0,P|404:210|409:258,1,60,8|0,0:0|0:0,0:0:0:0:
429,315,59586,1,0,0:0:0:0:
294,245,59799,6,0,P|249:226|173:226,1,120,0|8,0:0|0:0,0:0:0:0:
121,276,60441,1,0,0:0:0:0:
232,148,60656,2,0,P|247:121|252:88,1,60,8|0,0:0|0:0,0:0:0:0:
146,40,61084,2,0,P|151:69|166:95,1,60
393,68,61513,5,8,0:0:0:0:
323,40,61727,1,0,0:0:0:0:
333,114,61941,1,0,0:0:0:0:
393,68,62156,1,0,0:0:0:0:
393,68,62584,1,0,0:0:0:0:
263,87,62799,6,0,P|215:90|169:71,1,90
116,123,63227,2,0,P|83:134|47:129,1,60,8|0,0:0|0:0,0:0:0:0:
77,56,63656,1,0,0:0:0:0:
175,184,63870,2,0,P|208:195|244:190,1,60,8|0,0:0|0:0,0:0:0:0:
214,117,64299,1,0,0:0:0:0:
94,223,64513,2,0,P|78:261|77:285,1,60,8|0,0:0|0:0,0:0:0:0:
106,347,64941,1,0,0:0:0:0:
291,276,65156,2,0,P|263:270|215:277,1,60,8|0,0:0|0:0,0:0:0:0:
257,347,65584,1,0,0:0:0:0:
352,217,65799,6,0,P|410:186|477:190,1,120,0|8,0:0|0:0,0:0:0:0:
491,253,66441,2,0,B|494:215|479:189|479:189|508:147|508:147|476:96|492:22,1,240
267,67,67513,5,8,0:0:0:0:
327,113,67727,1,0,0:0:0:0:
337,39,67941,1,0,0:0:0:0:
267,67,68156,1,8,0:0:0:0:
327,113,68370,6,0,L|332:138,2,20
257,143,68584,2,0,L|255:162,3,15
251,186,68799,6,0,P|259:223|260:240,2,45.0000017166138
335,209,69441,2,0,P|336:246|334:263,2,45.0000017166138
413,246,70084,2,0,P|407:283|402:299,2,45.0000017166138
468,337,70727,2,0,P|477:316|483:295,1,45.0000017166138
491,222,71156,1,0,0:0:0:0:
333,329,71370,2,0,B|304:330|285:332|285:332|260:318|260:318|226:315|189:326,1,135.000005149841
129,373,72227,6,0,P|116:346|113:317,2,45.0000017166138
207,315,72870,2,0,P|219:288|222:259,2,45.0000017166138
129,257,73513,2,0,P|116:230|113:201,2,45.0000017166138
222,157,74156,2,0,P|217:178|206:199,1,45.0000017166138
146,151,74584,1,0,0:0:0:0:
301,106,74799,2,0,B|335:98|335:98|359:105|359:105|394:91|450:106,1,135.000005149841
400,173,75656,6,0,P|376:183|359:193,2,45.0000017166138
320,128,76299,2,0,P|300:145|288:160,2,45.0000017166138
229,113,76941,2,0,P|217:136|210:154,2,45.0000017166138
134,174,77584,2,0,P|134:152|138:130,1,45.0000017166138
166,58,78013,1,0,0:0:0:0:
173,254,78227,2,0,B|155:256|136:264|136:264|97:247|33:250,1,135.000005149841
105,337,79084,6,0,P|77:329|40:331,2,45.0000017166138
190,286,79727,2,0,P|217:278|254:280,2,45.0000017166138
105,235,80370,2,0,P|77:227|40:229,2,45.0000017166138
233,175,81013,2,0,P|211:177|190:184,1,45.0000017166138
224,252,81441,1,0,0:0:0:0:
251,88,81656,1,0,0:0:0:0:
171,109,81870,1,0,0:0:0:0:
256,77,82084,1,0,0:0:0:0:
360,108,82299,1,0,0:0:0:0:
161,117,82513,6,0,P|158:86|165:53,1,60
211,205,82941,2,0,P|181:196|150:200,1,60,8|0,0:0|0:0,0:0:0:0:
176,275,83370,1,0,0:0:0:0:
266,140,83584,2,0,P|296:131|327:135,1,60,8|0,0:0|0:0,0:0:0:0:
301,210,84013,1,0,0:0:0:0:
184,123,84227,2,0,P|174:87|158:62,1,60,8|0,0:0|0:0,0:0:0:0:
107,122,84656,1,0,0:0:0:0:
307,53,84870,1,8,0:0:0:0:
241,57,85084,2,0,P|284:45|321:47,1,60
396,131,85513,2,0,P|353:119|316:121,1,60
463,184,85941,5,0,0:0:0:0:
463,184,86156,1,0,0:0:0:0:
320,243,86370,2,0,P|355:237|388:241,1,60,8|0,0:0|0:0,0:0:0:0:
355,313,86799,1,0,0:0:0:0:
256,288,87013,2,0,P|221:282|188:286,1,60,8|0,0:0|0:0,0:0:0:0:
221,358,87442,1,0,0:0:0:0:
263,203,87656,2,0,P|260:168|252:136,1,60,8|0,0:0|0:0,0:0:0:0:
186,182,88084,1,0,0:0:0:0:
328,121,88299,1,8,0:0:0:0:
348,188,88513,2,0,P|346:157|334:118,1,60
419,259,88941,2,0,P|421:228|433:189,1,60
486,143,89370,5,0,0:0:0:0:
486,143,89584,1,0,0:0:0:0:
348,188,89799,2,0,P|314:192|283:186,1,60,8|0,0:0|0:0,0:0:0:0:
321,116,90227,1,0,0:0:0:0:
420,236,90441,2,0,P|454:240|485:234,1,60,8|0,0:0|0:0,0:0:0:0:
447,164,90869,1,0,0:0:0:0:
361,297,91084,2,0,P|357:333|360:359,1,60,8|0,0:0|0:0,0:0:0:0:
441,328,91513,1,0,0:0:0:0:
286,283,91727,1,8,0:0:0:0:
218,290,91941,2,0,P|255:277|297:276,1,60
352,367,92370,2,0,P|315:354|273:353,1,60
220,369,92799,5,0,0:0:0:0:
220,369,93013,1,0,0:0:0:0:
347,282,93227,2,0,P|357:242|357:211,1,60,8|0,0:0|0:0,0:0:0:0:
279,241,93656,1,0,0:0:0:0:
138,338,93870,2,0,P|128:298|128:267,1,60,8|0,0:0|0:0,0:0:0:0:
223,290,94299,1,0,0:0:0:0:
217,292,94370,1,0,0:0:0:0:
211,294,94441,1,0,0:0:0:0:
206,297,94513,5,8,0:0:0:0:
214,211,94727,1,0,0:0:0:0:
298,350,94941,5,8,0:0:0:0:
290,264,95155,1,0,0:0:0:0:
198,383,95370,5,0,0:0:0:0:
303,357,95584,1,0,0:0:0:0:
408,331,95799,1,0,0:0:0:0:
408,331,96227,6,0,P|422:299|422:263,1,60
337,144,96656,2,0,L|341:219,1,60,8|0,0:0|0:0,0:0:0:0:
344,277,97084,1,0,0:0:0:0:
402,96,97299,2,0,P|375:73|337:64,1,60,8|0,0:0|0:0,0:0:0:0:
278,76,97727,1,0,0:0:0:0:
475,137,97941,2,0,P|484:102|478:64,1,60,8|0,0:0|0:0,0:0:0:0:
449,10,98370,1,0,0:0:0:0:
447,212,98584,2,0,L|446:290,1,60,8|0,0:0|0:0,0:0:0:0:
446,271,99013,5,0,0:0:0:0:
432,287,99227,1,0,0:0:0:0:
323,304,99441,2,0,L|284:272,1,30
219,221,99656,5,0,0:0:0:0:
219,221,99871,1,0,0:0:0:0:
338,169,100085,1,8,0:0:0:0:
223,134,100299,2,0,B|192:128|192:128|135:128,1,60,8|0,0:0|0:0,0:0:0:0:
163,128,100941,5,8,0:0:0:0:
174,232,101155,1,0,0:0:0:0:
261,71,101370,5,8,0:0:0:0:
250,175,101584,1,0,0:0:0:0:
163,128,101799,5,0,0:0:0:0:
250,175,102013,2,0,P|289:181|317:174,1,60,8|0,0:0|0:0,0:0:0:0:
308,177,102441,5,0,0:0:0:0:
337,169,102656,1,0,0:0:0:0:
433,193,102870,2,0,L|445:211,2,20
402,126,103084,5,0,0:0:0:0:
402,126,103299,1,0,0:0:0:0:
366,246,103513,2,0,P|366:273|378:321,1,60,8|0,0:0|0:0,0:0:0:0:
420,364,103941,1,0,0:0:0:0:
291,340,104156,2,0,L|215:326,1,60,8|0,0:0|0:0,0:0:0:0:
165,365,104584,1,0,0:0:0:0:
278,263,104799,2,0,P|283:233|284:203,1,60,8|0,0:0|0:0,0:0:0:0:
210,222,105227,1,0,0:0:0:0:
356,180,105441,2,0,P|392:176|426:183,1,60,8|0,0:0|0:0,0:0:0:0:
415,179,105870,5,0,0:0:0:0:
441,194,106084,2,0,L|447:229,1,30
373,295,106299,2,0,L|378:265,1,30
457,299,106513,5,0,0:0:0:0:
457,299,106727,1,0,0:0:0:0:
