osu file format v14

[General]
AudioFilename: audio.mp3
AudioLeadIn: 0
PreviewTime: 59714
Countdown: 3
SampleSet: Normal
StackLeniency: 0.2
Mode: 0
LetterboxInBreaks: 0
WidescreenStoryboard: 1

[Editor]
DistanceSpacing: 1.6
BeatDivisor: 4
GridSize: 8
TimelineZoom: 1

[Metadata]
Title:Flaneur
TitleUnicode:Flâneur
Artist:Plini
ArtistUnicode:Plini
Creator:Osuva nimi HAH
Version:Easy
Source:
Tags:rock
BeatmapID:1821819
BeatmapSetID:871827

[Difficulty]
HPDrainRate:5
CircleSize:4
OverallDifficulty:4
ApproachRate:5
SliderMultiplier:0.7
SliderTickRate:1

[Events]
//Background and Video events
0,0,"FL.png",0,0
//Break Periods
//Storyboard Layer 0 (Background)
//Storyboard Layer 1 (Fail)
//Storyboard Layer 2 (Pass)
//Storyboard Layer 3 (Foreground)
//Storyboard Sound Samples

[TimingPoints]
-27.9810318413041,285.714285714286,5,1,1,70,1,0
82829,428.571428571429,4,1,1,70,1,0
87972,285.714285714286,4,1,1,70,1,0
88543,428.571428571429,4,1,1,70,1,0
99257,285.714285714286,4,1,1,70,1,0
99829,428.571428571429,4,1,1,70,1,0
105400,285.714285714286,5,1,1,70,1,0
242543,285.714285714286,4,1,1,70,1,0
265400,285.714285714286,5,1,1,70,1,0

[Colours]
Combo1 : 147,108,133
Combo2 : 130,117,72
Combo3 : 113,142,159
Combo4 : 160,105,105

[HitObjects]
163,241,2829,5,0,1:1:0:0:
189,137,3543,2,0,P|237:70|351:52,1,175,0|0,1:1|1:1,1:1:0:0:
429,71,4972,1,0,1:1:0:0:
311,187,5686,5,0,1:1:0:0:
434,190,6400,2,0,P|415:274|318:295,1,175,0|0,1:1|1:1,1:1:0:0:
311,187,7829,1,0,1:1:0:0:
319,64,8543,5,0,1:1:0:0:
202,124,9257,2,0,B|94:154|212:221|77:244,1,175,0|0,1:1|1:1,1:1:0:0:
42,128,10686,1,0,1:1:0:0:
168,52,11400,5,0,1:1:0:0:
294,140,12114,1,0,1:1:0:0:
189,212,12829,1,0,1:1:0:0:
243,256,13114,1,0,1:1:0:0:
349,241,14257,5,0,1:1:0:0:
323,137,14971,2,0,P|275:70|161:52,1,175,0|0,1:1|1:1,1:1:0:0:
83,71,16400,1,0,1:1:0:0:
201,187,17114,5,0,1:1:0:0:
78,190,17828,2,0,P|97:274|194:295,1,175,0|0,1:1|1:1,1:1:0:0:
201,187,19257,1,0,1:1:0:0:
193,64,19971,5,0,1:1:0:0:
310,124,20685,2,0,B|418:154|300:221|435:244,1,175,0|0,1:1|1:1,1:1:0:0:
482,264,21686,1,0,1:1:0:0:
470,128,22114,1,0,1:1:0:0:
344,52,22828,5,0,1:1:0:0:
218,140,23543,2,0,P|303:138|321:218,1,175,0|0,1:1|1:1,1:1:0:0:
269,256,24542,1,0,1:1:0:0:
218,140,24972,2,0,P|139:105|106:186,1,175,0|0,1:1|1:1,1:1:0:0:
189,247,26400,6,0,P|237:314|351:332,1,175,0|0,1:1|1:1,1:1:0:0:
429,313,27829,1,0,1:1:0:0:
311,197,28543,5,0,1:1:0:0:
434,194,29257,2,0,P|415:110|318:89,1,175,0|0,1:1|1:1,1:1:0:0:
311,197,30686,1,0,1:1:0:0:
319,320,31400,5,0,1:1:0:0:
202,260,32114,2,0,B|94:230|212:163|77:140,1,175,0|0,1:1|1:1,1:1:0:0:
30,120,33115,1,0,1:1:0:0:
42,256,33543,1,0,1:1:0:0:
168,332,34257,5,0,1:1:0:0:
294,244,34972,2,0,P|209:246|191:166,1,175,0|0,1:1|1:1,1:1:0:0:
212,107,35971,1,0,1:1:0:0:
354,138,36400,2,0,P|402:166|416:215,1,105,0|0,1:1|1:1,1:1:0:0:
332,251,37114,6,0,P|315:295|260:304,1,105,0|0,1:1|1:1,1:1:0:0:
223,214,37829,2,0,P|195:183|135:195,1,105,0|0,1:1|1:1,1:1:0:0:
99,273,38543,2,0,P|52:257|42:198,1,105,0|0,1:1|1:1,1:1:0:0:
46,112,39257,1,0,1:1:0:0:
152,141,39686,1,0,1:1:0:0:
222,80,39972,6,0,P|269:98|280:149,1,105,0|0,1:1|1:1,1:1:0:0:
291,226,40686,2,0,P|291:275|246:312,1,105,0|0,1:1|1:1,1:1:0:0:
181,273,41400,2,0,L|123:240,2,52.5,0|0|0,1:1|1:1|1:1,1:1:0:0:
204,187,42114,1,0,1:1:0:0:
305,154,42543,1,0,1:1:0:0:
400,101,42829,6,0,B|340:17|233:-1|162:220|93:29,1,350,0|0,1:1|1:1,1:1:0:0:
41,83,44543,1,0,1:1:0:0:
104,203,44972,1,0,1:1:0:0:
278,148,45686,5,0,1:1:0:0:
353,225,46400,2,0,P|282:270|207:234,1,175,0|0,1:1|1:1,1:1:0:0:
163,179,47400,1,0,1:1:0:0:
107,289,47829,2,0,B|201:279|173:371|282:336,1,175,0|0,1:1|1:1,1:1:0:0:
330,253,49257,6,0,P|389:187|366:108,1,175,0|0,1:1|1:1,1:1:0:0:
308,144,50257,1,0,1:1:0:0:
222,72,50686,1,0,1:1:0:0:
172,124,50972,1,0,1:1:0:0:
179,196,51257,1,0,1:1:0:0:
272,273,51686,6,0,P|194:332|60:233,1,280,0|0,1:1|1:1,1:1:0:0:
42,175,53114,1,0,1:1:0:0:
145,87,53543,1,0,1:1:0:0:
207,118,53781,2,0,P|196:164|183:178,1,58.3333333333333,0|0,1:1|1:1,1:1:0:0:
247,210,54257,5,0,1:1:0:0:
336,310,54972,2,0,B|326:212|410:266|401:132,1,175,0|0,1:1|1:1,1:1:0:0:
407,88,55972,1,0,1:1:0:0:
295,58,56400,2,0,L|228:55,2,58.3333333333333,0|0|0,1:1|1:1|1:1,1:1:0:0:
295,127,57114,5,0,1:1:0:0:
311,260,57829,1,0,1:1:0:0:
176,173,58543,1,0,1:1:0:0:
118,212,58829,1,0,1:1:0:0:
393,224,59972,5,0,1:1:0:0:
312,125,60686,2,0,P|208:90|165:102,1,140,0|0,1:1|1:1,1:1:0:0:
170,100,61400,1,0,1:1:0:0:
111,135,61686,1,0,1:1:0:0:
197,206,62114,2,0,P|267:213|309:268,1,140,0|0,1:1|1:1,1:1:0:0:
311,276,62829,5,0,1:1:0:0:
212,313,63543,2,0,P|120:308|81:263,1,140,0|0,1:1|1:1,1:1:0:0:
82,268,64257,1,0,1:1:0:0:
52,206,64543,1,0,1:1:0:0:
96,104,64972,2,0,L|53:45,2,70,0|0|0,1:1|1:1|1:1,1:1:0:0:
102,113,65686,5,0,1:1:0:0:
211,101,66400,2,0,B|286:141|211:179|275:216,1,140,0|0,1:1|1:1,1:1:0:0:
280,220,67114,1,0,1:1:0:0:
338,258,67400,1,0,1:1:0:0:
406,167,67829,2,0,P|385:93|317:67,1,140,0|0,1:1|1:1,1:1:0:0:
322,66,68543,5,0,1:1:0:0:
254,53,68829,2,0,B|148:25|202:179|74:66|64:195,1,245,0|0,1:1|1:1,1:1:0:0:
64,192,69972,1,0,1:1:0:0:
46,258,70257,1,0,1:1:0:0:
175,231,70686,2,0,L|224:163,2,70,0|0|0,1:1|1:1|1:1,1:1:0:0:
169,240,71400,5,0,1:1:0:0:
261,248,72114,2,0,P|229:313|154:326,1,140,0|0,1:1|1:1,1:1:0:0:
156,330,72829,1,0,1:1:0:0:
86,328,73114,1,0,1:1:0:0:
115,206,73543,1,0,1:1:0:0:
149,146,73781,1,0,1:1:0:0:
216,131,74019,1,0,1:1:0:0:
277,164,74257,5,0,1:1:0:0:
379,179,74614,1,0,1:1:0:0:
363,273,74972,2,0,P|388:339|451:308,1,140,0|0,1:1|1:1,1:1:0:0:
447,316,75686,1,0,1:1:0:0:
479,254,75972,1,0,1:1:0:0:
417,155,76400,2,0,L|489:156,2,70,0|0|0,1:1|1:1|1:1,1:1:0:0:
406,155,77114,5,0,1:1:0:0:
313,201,77472,1,0,1:1:0:0:
313,106,77829,2,0,P|305:55|211:67,1,140,0|0,1:1|1:1,1:1:0:0:
220,53,78543,1,0,1:1:0:0:
175,106,78829,1,0,1:1:0:0:
228,223,79257,2,0,L|79:250,1,140,0|0,1:1|1:1,1:1:0:0:
79,250,79972,5,0,1:1:0:0:
194,322,80686,2,0,L|349:292,1,140,0|0,1:1|1:1,1:1:0:0:
343,293,81400,1,0,1:1:0:0:
411,281,81686,1,0,1:1:0:0:
268,184,82114,2,0,L|331:141,2,70,0|0|0,1:1|1:1|1:1,1:1:0:0:
256,192,82829,5,0,1:1:0:0:
105,279,83543,2,0,P|61:234|61:188,1,93.3333333333333,0|0,1:1|1:1,1:1:0:0:
60,194,84257,1,0,1:1:0:0:
86,115,84543,1,0,1:1:0:0:
185,163,84971,2,0,P|227:213|235:246,1,93.3333333333333,0|0,1:1|1:1,1:1:0:0:
238,253,85686,5,0,1:1:0:0:
308,168,86400,2,0,P|353:151|405:180,1,93.3333333333333,0|0,1:1|1:1,1:1:0:0:
403,173,87114,1,0,1:1:0:0:
456,232,87400,1,0,1:1:0:0:
311,254,87829,2,0,L|306:313,2,46.6666666666667,0|0|0,1:1|1:1|1:1,1:1:0:0:
313,240,88543,5,0,1:1:0:0:
333,121,89257,2,0,P|307:79|254:63,1,93.3333333333333,0|0,1:1|1:1,1:1:0:0:
257,61,89971,1,0,1:1:0:0:
165,80,90257,1,0,1:1:0:0:
213,157,90685,2,0,P|251:197|243:232,1,93.3333333333333,0|0,1:1|1:1,1:1:0:0:
240,242,91400,5,0,1:1:0:0:
117,211,92114,2,0,P|123:160|167:126,1,93.3333333333333,0|0,1:1|1:1,1:1:0:0:
161,127,92828,1,0,1:1:0:0:
237,94,93114,1,0,1:1:0:0:
280,187,93543,2,0,L|253:235,2,46.6666666666667,0|0|0,1:1|1:1|1:1,1:1:0:0:
150,227,94828,6,0,P|129:293|157:311,1,93.3333333333333,0|0,1:1|1:1,1:1:0:0:
147,311,95543,1,0,1:1:0:0:
225,352,95828,1,0,1:1:0:0:
241,262,96257,2,0,P|286:242|329:254,1,93.3333333333333,0|0,1:1|1:1,1:1:0:0:
339,258,96971,5,0,1:1:0:0:
419,205,97685,2,0,P|377:162|337:160,1,93.3333333333333,0|0,1:1|1:1,1:1:0:0:
334,158,98400,1,0,1:1:0:0:
251,165,98685,1,0,1:1:0:0:
160,113,99114,2,0,L|175:60,2,46.6666666666667,0|0|0,1:1|1:1|1:1,1:1:0:0:
156,128,99829,5,0,1:1:0:0:
236,211,100543,2,0,P|269:255|243:282,1,93.3333333333333,0|0,1:1|1:1,1:1:0:0:
240,287,101257,1,0,1:1:0:0:
171,328,101543,1,0,1:1:0:0:
82,254,101971,2,0,P|118:201|156:196,1,93.3333333333333,0|0,1:1|1:1,1:1:0:0:
157,195,102686,5,0,1:1:0:0:
166,98,103400,2,0,P|231:65|265:73,1,93.3333333333333,0|0,1:1|1:1,1:1:0:0:
262,70,104114,1,0,1:1:0:0:
338,100,104400,1,0,1:1:0:0:
274,188,104829,2,0,L|309:221,2,46.6666666666667,0|0|0,1:1|1:1|1:1,1:1:0:0:
