osu file format v14

[General]
AudioFilename: audio.mp3
AudioLeadIn: 0
PreviewTime: 43774
Countdown: 0
SampleSet: Normal
StackLeniency: 0.7
Mode: 0
LetterboxInBreaks: 0
WidescreenStoryboard: 0

[Editor]
Bookmarks: 18218,18663,36218
DistanceSpacing: 1.5
BeatDivisor: 2
GridSize: 8
TimelineZoom: 1

[Metadata]
Title:3>
TitleUnicode:ε>
Artist:Plexi.
ArtistUnicode:Plexi.
Creator:Seaweed
Version:Hard
Source:プラスティック・メモリーズ
Tags:Asayake no Starmine Imai Asami isla ferris wheel plastic memories ed ending edit short version Ireiisu <3
BeatmapID:1049984
BeatmapSetID:492912

[Difficulty]
HPDrainRate:5
CircleSize:3.5
OverallDifficulty:6
ApproachRate:7.5
SliderMultiplier:1.6
SliderTickRate:1

[Events]
//Background and Video events
0,0,"Isla.(Plastic.Memories).full.1993146.jpg",0,0
//Break Periods
//Storyboard Layer 0 (Background)
//Storyboard Layer 1 (Fail)
//Storyboard Layer 2 (Pass)
//Storyboard Layer 3 (Foreground)
//Storyboard Sound Samples

[TimingPoints]
1774.18800168287,444.445470022206,4,1,1,50,1,0
8885,-100,4,1,1,45,0,0
15996,-100,4,1,1,30,0,0
20440,-111.111111111111,4,1,1,30,0,0
30440,-100,4,1,1,42,0,0
36218,-100,4,1,1,40,0,0
40885,-100,4,1,1,45,0,0
42885,-100,4,1,1,48,0,0
44440,-80,4,1,1,50,0,1
44885,-80,4,1,1,50,0,1
50218,-100,4,1,1,50,0,1
57107,-80,4,1,1,50,0,1
58663,-80,4,1,1,45,0,1
72441,-133.333333333333,4,1,1,40,0,1
72885,-133.333333333333,4,1,1,40,0,0
76441,-100,4,1,1,35,0,0
78885,-100,4,1,1,30,0,0
80441,-100,4,1,1,25,0,0
80885,-100,4,1,1,20,0,0
82663,-100,4,1,1,15,0,0
85329,-100,4,1,1,10,0,0

[Colours]
Combo1 : 64,128,128
Combo2 : 199,149,253
Combo3 : 128,191,191
Combo4 : 141,83,251
SliderBorder : 70,2,126
SliderTrackOverride : 34,34,34

[HitObjects]
232,40,1774,5,8,0:0:0:0:
168,248,2218,1,8,0:0:0:0:
340,112,2663,1,8,0:0:0:0:
128,112,3107,1,8,0:0:0:0:
304,248,3551,6,8,P|352:272|472:224,1,160
376,128,4440,1,8,0:0:0:0:
240,80,4885,1,8,0:0:0:0:
112,144,5329,6,8,P|88:200|136:296,1,160
240,200,6218,2,8,P|320:160|344:64,1,160
200,80,7107,5,8,0:0:0:0:
64,136,7551,1,8,0:0:0:0:
184,216,7996,1,8,0:0:0:0:
56,280,8440,1,8,0:0:0:0:
192,320,8885,6,8,P|264:304|304:224,1,160
336,104,9774,1,8,0:0:0:0:
200,48,10218,1,8,0:0:0:0:
208,192,10663,5,8,0:0:0:0:
272,64,11107,1,8,0:0:0:0:
352,184,11551,1,8,0:0:0:0:
432,64,11996,1,8,0:0:0:0:
472,200,12440,6,0,B|448:264|448:264|352:304,1,160
352,184,13329,2,0,B|264:224|264:224|176:216,1,160
352,48,14218,5,0,0:0:0:0:
208,48,14663,1,0,0:0:0:0:
152,176,15107,1,0,0:0:0:0:
232,152,15329,2,0,P|296:232|320:232,2,80,0|8|0,0:0|0:0|0:0,0:0:0:0:
288,96,15996,5,8,0:0:0:0:
360,64,16218,1,0,0:0:0:0:
440,80,16440,2,0,P|488:120|512:160,1,80
488,216,16885,1,8,0:0:0:0:
448,288,17107,1,0,0:0:0:0:
368,304,17329,1,8,0:0:0:0:
296,264,17552,6,0,P|248:256|176:280,1,80
120,288,17996,1,0,0:0:0:0:
32,240,18218,2,0,B|72:136|176:160,1,160
264,224,18885,1,0,0:0:0:0:
384,272,19107,1,8,0:0:0:0:
472,208,19329,1,0,0:0:0:0:
368,176,19552,2,0,L|304:96,1,80
224,48,19996,1,8,0:0:0:0:
128,112,20218,1,0,0:0:0:0:
224,176,20440,6,0,L|272:264,1,71.9999978027344,8|0,0:0|0:0,0:0:0:0:
344,176,20885,1,8,0:0:0:0:
344,176,21107,2,0,L|384:248,2,71.9999978027344,0|8|0,0:0|0:0|0:0,0:0:0:0:
264,160,21774,2,0,P|304:104|392:112,1,143.999995605469
440,56,22440,2,0,P|352:16|328:16,2,71.9999978027344,0|8|0,0:0|0:0|0:0,0:0:0:0:
456,168,23107,6,0,P|464:232|448:264,1,71.9999978027344,8|0,0:0|0:0,0:0:0:0:
416,304,23552,1,8,0:0:0:0:
336,312,23774,1,0,0:0:0:0:
264,288,23996,1,8,0:0:0:0:
200,240,24218,1,0,0:0:0:0:
168,168,24440,2,0,B|144:128|160:56,1,71.9999978027344
256,56,24885,5,0,0:0:0:0:
272,152,25107,2,0,L|352:208,2,71.9999978027344,0|8|0,0:0|0:0|0:0,0:0:0:0:
248,256,25774,1,0,0:0:0:0:
248,256,25996,2,0,P|208:264|144:240,2,71.9999978027344
248,160,26663,6,0,P|304:136|344:88,1,71.9999978027344
200,80,27107,1,0,0:0:0:0:
248,160,27329,2,0,P|288:64|256:8,2,143.999995605469
144,144,28440,5,8,0:0:0:0:
72,112,28663,1,0,0:0:0:0:
8,152,28885,1,8,0:0:0:0:
8,232,29107,1,0,0:0:0:0:
72,280,29329,2,8,L|112:304,4,35.9999989013672
128,208,29996,6,0,P|168:120|256:96,1,143.999995605469
416,96,30885,1,0,0:0:0:0:
320,264,31329,1,0,0:0:0:0:
136,200,31774,6,0,P|96:112|128:64,2,160
232,216,32885,1,8,0:0:0:0:
328,200,33107,1,0,0:0:0:0:
400,144,33329,1,8,0:0:0:0:
480,200,33552,6,0,P|488:96|432:40,2,160
424,272,34663,1,8,0:0:0:0:
336,304,34885,2,0,P|240:312|208:304,1,80,0|8,0:0|0:0,0:0:0:0:
264,224,35329,2,0,P|184:208|152:176,1,80,0|8,0:0|0:0,0:0:0:0:
248,136,35774,2,0,P|176:72|200:0,2,160
272,48,36885,5,8,0:0:0:0:
368,48,37107,1,0,0:0:0:0:
424,128,37329,1,0,0:0:0:0:
400,224,37552,6,0,L|352:304,2,80,0|8|0,0:0|0:0|0:0,0:0:0:0:
344,144,38218,1,8,0:0:0:0:
256,112,38440,1,0,0:0:0:0:
160,128,38663,1,8,0:0:0:0:
80,168,38885,6,0,P|48:224|56:264,1,80,0|8,0:0|0:0,0:0:0:0:
160,216,39329,2,0,P|168:288|208:320,1,80,0|8,0:0|0:0,0:0:0:0:
256,224,39774,2,0,P|360:232|384:224,1,80,0|8,0:0|0:0,0:0:0:0:
304,144,40218,1,0,0:0:0:0:
224,88,40440,1,8,0:0:0:0:
128,88,40663,1,0,0:0:0:0:
64,160,40885,6,0,P|80:216|128:256,1,80,8|0,0:0|0:0,0:0:0:0:
192,240,41329,1,8,0:0:0:0:
288,256,41552,2,0,P|306:291|333:320,1,80,0|8,0:0|0:0,0:0:0:0:
392,224,41996,1,0,0:0:0:0:
280,160,42218,5,8,0:0:0:0:
192,240,42440,2,0,P|160:288|168:344,1,80
331,336,42885,1,0,0:0:0:0:
461,270,43107,1,8,0:0:0:0:
324,208,43329,1,0,0:0:0:0:
410,330,43552,1,8,0:0:0:0:
281,272,43774,1,0,0:0:0:0:
405,205,43996,1,8,0:0:0:0:
331,336,44218,1,0,0:0:0:0:
256,216,44440,6,0,P|256:104|296:72,1,100,8|0,0:0|0:0,0:0:0:0:
336,56,44885,1,8,0:0:0:0:
448,96,45107,1,0,0:0:0:0:
352,176,45329,1,8,0:0:0:0:
456,240,45552,2,0,P|368:320|336:312,2,100,0|8|0,0:0|0:0|0:0,0:0:0:0:
424,144,46218,5,8,0:0:0:0:
304,120,46440,1,0,0:0:0:0:
192,160,46663,1,8,0:0:0:0:
128,264,46885,2,0,L|96:312,2,50
64,184,47329,2,0,P|88:104|112:96,1,100,0|8,0:0|0:0,0:0:0:0:
192,96,47774,1,0,0:0:0:0:
272,160,47996,6,0,P|248:240|224:248,1,100,8|0,0:0|0:0,0:0:0:0:
144,240,48440,1,8,0:0:0:0:
80,160,48663,1,0,0:0:0:0:
120,72,48885,1,8,0:0:0:0:
216,56,49107,1,0,0:0:0:0:
288,128,49329,2,0,L|368:232,2,100
433,112,49996,5,0,0:0:0:0:
433,112,50218,2,0,P|472:184|440:224,1,80
432,296,50663,2,0,L|312:232,1,80
248,192,51107,1,0,0:0:0:0:
120,176,51329,2,0,P|72:256|128:336,2,160
296,208,52440,5,8,0:0:0:0:
296,208,52663,2,0,L|200:152,1,80,0|8,0:0|0:0,0:0:0:0:
136,112,53107,1,0,0:0:0:0:
328,72,53552,1,0,0:0:0:0:
272,264,53996,1,0,0:0:0:0:
232,72,54440,1,0,0:0:0:0:
208,184,54663,1,0,0:0:0:0:
328,144,54885,1,0,0:0:0:0:
328,144,55107,6,0,P|384:208|368:232,1,80
320,288,55552,1,0,0:0:0:0:
320,288,55774,2,0,P|264:224|280:200,1,80
280,108,56218,1,0,0:0:0:0:
280,108,56440,2,0,P|208:116|184:140,1,80
136,256,56885,5,0,0:0:0:0:
88,176,57107,2,0,L|80:104,2,50
192,168,57552,2,0,L|208:104,2,50
136,256,57996,1,0,0:0:0:0:
224,312,58218,1,8,0:0:0:0:
328,304,58440,1,0,0:0:0:0:
392,224,58663,6,0,P|424:128|392:72,1,100,8|0,0:0|0:0,0:0:0:0:
360,64,59107,1,8,0:0:0:0:
256,32,59329,1,0,0:0:0:0:
160,72,59552,6,0,P|120:128|136:216,2,100,8|0|8,0:0|0:0|0:0,0:0:0:0:
208,144,60218,2,0,P|248:240|272:256,2,100,0|8|0,0:0|0:0|0:0,0:0:0:0:
304,128,60885,2,8,P|384:176|472:120,1,200
384,80,61552,1,0,0:0:0:0:
296,24,61774,1,8,0:0:0:0:
192,40,61996,1,0,0:0:0:0:
144,128,62218,6,8,P|144:192|192:240,2,100
240,152,62885,2,0,P|352:208|336:280,1,200
248,264,63552,1,8,0:0:0:0:
152,256,63774,6,0,P|80:168|216:56,1,300,0|8,0:0|0:0,0:0:0:0:
288,32,64663,1,0,0:0:0:0:
384,56,64885,1,8,0:0:0:0:
432,144,65107,2,0,P|392:192|328:208,1,100,0|8,0:0|0:0,0:0:0:0:
208,216,65552,6,0,P|120:128|176:56,1,200
240,40,66218,1,8,0:0:0:0:
240,40,66441,2,0,P|344:120|312:208,1,200
248,224,67107,1,8,0:0:0:0:
248,224,67329,1,0,0:0:0:0:
248,224,67552,6,8,P|304:320|408:328,1,200
360,240,68218,2,0,P|488:184|480:88,1,200
416,80,68885,1,8,0:0:0:0:
416,80,69107,6,0,P|288:48|200:80,1,200
144,120,69774,1,8,0:0:0:0:
144,120,69996,2,0,P|192:240|264:280,1,200
344,264,70663,2,0,L|448:208,1,100,8|0,0:0|0:0,0:0:0:0:
328,80,71107,5,8,0:0:0:0:
168,216,71552,1,8,0:0:0:0:
352,320,71996,2,8,P|424:312|480:264,1,100
376,208,72441,1,8,0:0:0:0:
160,96,72885,6,8,P|80:120|56:152,1,120.000004577637
160,216,73774,2,8,P|184:296|216:320,1,120.000004577637
288,224,74663,2,8,P|368:200|392:168,1,120.000004577637
288,112,75552,2,8,P|264:32|232:8,1,120.000004577637
112,112,76441,5,8,0:0:0:0:
224,224,76885,1,8,0:0:0:0:
344,120,77329,1,8,0:0:0:0:
472,216,77774,1,8,0:0:0:0:
344,304,78218,6,8,P|248:312|216:296,2,80
352,224,78885,2,8,P|391:226|429:214,3,80
432,136,79774,2,0,L|392:80,1,40
376,64,79996,5,8,0:0:0:0:
336,40,80441,1,0,0:0:0:0:
288,48,80885,1,0,0:0:0:0:
248,72,81329,1,0,0:0:0:0:
216,104,81774,6,0,P|184:200|224:264,1,160
240,280,82663,1,0,0:0:0:0:
288,296,83107,1,0,0:0:0:0:
336,296,83552,6,0,P|416:240|432:160,1,160
344,192,84441,2,0,P|296:96|320:32,1,160
392,96,85329,5,0,0:0:0:0:
432,120,85774,1,0,0:0:0:0:
464,160,86218,1,0,0:0:0:0:
472,208,86663,1,0,0:0:0:0:
