osu file format v14

[General]
AudioFilename: audio.mp3
AudioLeadIn: 0
PreviewTime: 50
Countdown: 0
SampleSet: Soft
StackLeniency: 0.2
Mode: 0
LetterboxInBreaks: 0
WidescreenStoryboard: 0

[Editor]
Bookmarks: 13764,27478,54907,82335,89192,109764,137192,150907,178335
DistanceSpacing: 0.7
BeatDivisor: 8
GridSize: 16
TimelineZoom: 2.1

[Metadata]
Title:R.I.P.
TitleUnicode:R.I.P.
Artist:Playboi Carti
ArtistUnicode:Playboi Carti
Creator:Usernametwo
Version:AAAAAAA
Source:
Tags:rip die lit pierre bourne trap rap hip hop hiphop interscope awge
BeatmapID:2312217
BeatmapSetID:1106339

[Difficulty]
HPDrainRate:2
CircleSize:3.8
OverallDifficulty:9
ApproachRate:9.8
SliderMultiplier:3.59999990463257
SliderTickRate:1

[Events]
//Background and Video events
0,0,"Untitled.jpg",0,0
//Break Periods
2,82535,84382
2,85964,88667
//Storyboard Layer 0 (Background)
//Storyboard Layer 1 (Fail)
//Storyboard Layer 2 (Pass)
//Storyboard Layer 3 (Foreground)
//Storyboard Layer 4 (Overlay)
//Storyboard Sound Samples

[TimingPoints]
50,428.571428571429,4,2,0,40,1,0
50,-50,4,2,0,40,0,0
1550,-66.6666666666667,4,2,0,40,0,0
2192,-50,4,2,0,40,0,0
2621,-66.6666666666667,4,2,0,40,0,0
3585,-50,4,2,0,40,0,0
4978,-66.6666666666667,4,2,0,40,0,0
5621,-50,4,2,0,40,0,0
6050,-66.6666666666667,4,2,0,40,0,0
6907,-50,4,2,0,40,0,0
8407,-66.6666666666667,4,2,0,40,0,0
9050,-50,4,2,0,40,0,0
9478,-66.6666666666667,4,2,0,40,0,0
10335,-50,4,2,0,40,0,0
11835,-66.6666666666667,4,2,0,40,0,0
12478,-50,4,2,0,40,0,0
12907,-66.6666666666667,4,2,0,40,0,0
13764,-50,4,2,0,40,0,0
20728,-33.3333333333333,4,2,0,40,0,0
20835,-50,4,2,0,40,0,0
21264,-133.333333333333,4,2,0,40,0,0
21478,-50,4,2,0,40,0,0
23835,-133.333333333333,4,2,0,40,0,0
24050,-50,4,2,0,40,0,0
25550,-133.333333333333,4,2,0,40,0,0
25978,-50,4,2,0,40,0,0
26835,-66.6666666666667,4,2,0,40,0,0
27050,-50,4,2,0,40,0,0
28978,-66.6666666666667,4,2,0,40,0,0
29407,-50,4,2,0,40,0,0
35835,-66.6666666666667,4,2,0,40,0,0
36478,-50,4,2,0,40,0,0
38835,-133.333333333333,4,2,0,40,0,0
39050,-50,4,2,0,40,0,0
39264,-66.6666666666667,4,2,0,40,0,0
39692,-50,4,2,0,40,0,0
41407,-66.6666666666667,4,2,0,40,0,0
41621,-50,4,2,0,40,0,0
41835,-133.333333333333,4,2,0,40,0,0
42050,-50,4,2,0,40,0,0
42157,-133.333333333333,4,2,0,40,0,0
42478,-50,4,2,0,40,0,0
42692,-133.333333333333,4,2,0,40,0,0
42907,-50,4,2,0,40,0,0
45585,-100,4,2,0,40,0,0
45907,-66.6666666666667,4,2,0,40,0,0
47621,-50,4,2,0,40,0,0
51692,-40,4,2,0,40,0,0
51907,-50,4,2,0,40,0,0
52550,-133.333333333333,4,2,0,40,0,0
52764,-50,4,2,0,40,0,0
52978,-151.515151515152,4,2,0,40,0,0
53407,-66.6666666666667,4,2,0,40,0,0
53621,-25,4,2,0,40,0,0
53728,-100,4,2,0,40,0,0
54050,-50,4,2,0,40,0,0
54478,-33.3333333333333,4,2,0,40,0,0
54907,-50,4,2,0,40,0,0
55335,-66.6666666666667,4,2,0,40,0,0
56407,-133.333333333333,4,2,0,40,0,0
56621,-50,4,2,0,40,0,0
57050,-66.6666666666667,4,2,0,40,0,0
58335,-50,4,2,0,40,0,0
58550,-100,4,2,0,40,0,0
58764,-66.6666666666667,4,2,0,40,0,0
59621,-100,4,2,0,40,0,0
61764,-50,4,2,0,40,0,0
63050,-100,4,2,0,40,0,0
64764,-133.333333333333,4,2,0,40,0,0
65192,-50,4,2,0,40,0,0
66478,-66.6666666666667,4,2,0,40,0,0
67335,-50,4,2,0,40,0,0
67764,-66.6666666666667,4,2,0,40,0,0
68621,-50,4,2,0,40,0,0
69050,-33.3333333333333,4,2,0,40,0,0
69907,-66.6666666666667,4,2,0,40,0,0
70764,-33.3333333333333,4,2,0,40,0,0
71621,-50,4,2,0,40,0,0
72907,-100,4,2,0,40,0,0
73335,-50,4,2,0,40,0,0
73978,-100,4,2,0,40,0,0
74192,-50,4,2,0,40,0,0
75692,-100,4,2,0,40,0,0
76335,-50,4,2,0,40,0,0
76764,-80,4,2,0,40,0,0
77407,-66.6666666666667,4,2,0,40,0,0
77621,-50,4,2,0,40,0,0
78050,-33.3333333333333,4,2,0,40,0,0
78478,-50,4,2,0,40,0,0
79121,-100,4,2,0,40,0,0
80192,-50,4,2,0,40,0,0
84907,-66.6666666666667,4,2,0,40,0,0
89192,-66.6666666666667,4,2,0,40,0,0
89621,-50,4,2,0,40,0,0
89835,-100,4,2,0,40,0,0
90050,-50,4,2,0,40,0,0
90157,-66.6666666666667,4,2,0,40,0,0
91121,-50,4,2,0,40,0,0
91550,-100,4,2,0,40,0,0
91764,-66.6666666666667,4,2,0,40,0,0
92407,-50,4,2,0,40,0,0
93050,-100,4,2,0,40,0,0
93478,-50,4,2,0,40,0,0
95192,-100,4,2,0,40,0,0
95621,-66.6666666666667,4,2,0,40,0,0
96050,-50,4,2,0,40,0,0
99050,-66.6666666666667,4,2,0,40,0,0
99907,-50,4,2,0,40,0,0
100335,-100,4,2,0,40,0,0
100764,-66.6666666666667,4,2,0,40,0,0
101621,-50,4,2,0,40,0,0
102907,-66.6666666666667,4,2,0,40,0,0
103335,-100,4,2,0,40,0,0
105478,-66.6666666666667,4,2,0,40,0,0
105907,-100,4,2,0,40,0,0
106335,-133.333333333333,4,2,0,40,0,0
106764,-100,4,2,0,40,0,0
108692,-66.6666666666667,4,2,0,40,0,0
108907,-100,4,2,0,40,0,0
109764,-66.6666666666667,4,2,0,40,0,0
111907,-100,4,2,0,40,0,0
112335,-50,4,2,0,40,0,0
112764,-66.6666666666667,4,2,0,40,0,0
116621,-100,4,2,0,40,0,0
119192,-50,4,2,0,40,0,0
119300,-66.6666666666667,4,2,0,40,0,0
119407,-100,4,2,0,40,0,0
119621,-66.6666666666667,4,2,0,40,0,0
120050,-100,4,2,0,40,0,0
120907,-133.333333333333,4,2,0,40,0,0
121335,-100,4,2,0,40,0,0
125192,-133.333333333333,4,2,0,40,0,0
126050,-66.6666666666667,4,2,0,40,0,0
126907,-100,4,2,0,40,0,0
127764,-133.333333333333,4,2,0,40,0,0
128621,-100,4,2,0,40,0,0
132050,-133.333333333333,4,2,0,40,0,0
132478,-100,4,2,0,40,0,0
132907,-66.6666666666667,4,2,0,40,0,0
133764,-100,4,2,0,40,0,0
137192,-400,4,2,0,40,0,0
139335,-200,4,2,0,40,0,0
139978,-100,4,2,0,40,0,0
140621,-400,4,2,0,40,0,0
142764,-200,4,2,0,40,0,0
146192,-133.333333333333,4,2,0,40,0,0
146835,-80,4,2,0,40,0,0
147478,-200,4,2,0,40,0,0
149621,-400,4,2,0,40,0,0
150907,-50,4,2,0,40,0,0
153478,-66.6666666666667,4,2,0,40,0,0
153585,-50,4,2,0,40,0,0
158407,-100,4,2,0,40,0,0
158621,-50,4,2,0,40,0,0
161835,-100,4,2,0,40,0,0
162050,-50,4,2,0,40,0,0
165692,-100,4,2,0,40,0,0
165907,-50,4,2,0,40,0,0
177264,-133.333333333333,4,2,0,40,0,0
177478,-50,4,2,0,40,0,0
177907,-25,4,2,0,40,0,0

[HitObjects]
99,8,50,6,0,B|91:67|91:67|115:89,1,89.9999976158143
9,126,157,2,0,B|73:154|73:154|79:172,1,89.9999976158143
179,168,264,2,0,B|61:338|61:338|-7:351,1,269.999992847443
43,278,478,2,0,L|445:307,2,359.999990463257
475,338,1121,1,0,0:0:0:0:
330,163,1335,6,0,B|289:271|289:271|226:285,1,179.999995231629
52,378,1550,2,0,B|99:325|99:325|427:262,1,405.000004720688
407,287,1978,2,0,B|428:182|428:182|392:141,1,135.000001573563
108,0,2192,2,0,B|203:341|203:341|357:372|357:372|380:354,1,539.999985694885
19,164,2621,6,0,P|90:70|339:151,1,405.000004720688
413,243,3050,2,0,P|352:220|340:139,1,135.000001573563
396,92,3264,2,0,P|457:117|474:180,1,134.999996423721
176,293,3478,6,0,L|167:221,1,67.5000007867814
91,225,3585,2,0,L|104:323,1,89.9999976158143
28,340,3692,2,0,B|0:121|0:121|43:59,1,269.999992847443
212,25,3907,2,0,B|168:104|168:104|188:192,1,179.999995231629
384,216,4121,2,0,B|428:137|428:137|407:47,1,179.999995231629
313,12,4335,1,0,0:0:0:0:
242,330,4550,1,0,0:0:0:0:
226,251,4764,6,0,B|278:252|278:252|332:312|332:312|379:313,1,179.999995231629
458,322,4978,2,0,B|99:348|99:348|18:284,1,405.000004720688
142,368,5407,2,0,B|171:332|171:332|144:233,1,135.000001573563
2,25,5621,2,0,B|34:82|34:82|403:261|403:261|442:344,1,539.999985694885
472,71,6050,6,0,B|175:52|175:52|99:135,1,405.000004720688
418,182,6478,2,0,B|401:144|401:144|309:136,1,135.000001573563
181,292,6692,2,0,B|220:317|220:317|308:304,1,135.000001573563
453,142,6907,6,0,B|428:74|428:74|413:66,1,89.9999976158143
318,196,7014,2,0,B|338:186|338:186|403:205,1,89.9999976158143
447,275,7121,2,0,B|257:355|257:355|173:333,1,269.999992847443
273,317,7335,2,0,L|312:142,1,179.999995231629
114,254,7550,2,0,B|129:391|129:391|167:409,1,179.999995231629
502,332,7764,1,0,0:0:0:0:
36,302,7978,1,0,0:0:0:0:
264,320,8192,6,0,B|239:281|239:281|251:149,1,179.999995231629
239,19,8407,2,0,B|167:57|167:57|139:381,1,405.000004720688
185,186,8835,2,0,B|294:199|294:199|315:230,1,135.000001573563
11,85,9050,2,0,B|378:125|378:125|397:110|397:110|403:71|403:71|391:49|391:49|309:39,1,539.999985694885
41,140,9478,6,0,P|231:96|377:226,1,405.000004720688
358,307,9907,2,0,P|413:346|479:348,1,135.000001573563
343,84,10121,2,0,P|276:85|222:123,1,135.000001573563
190,280,10335,6,0,B|186:301|186:301|120:323,1,89.9999976158143
33,231,10442,2,0,L|173:249,1,89.9999976158143
260,251,10550,2,0,B|305:305|305:305|437:288|437:288|462:226,1,269.999992847443
417,5,10764,2,0,B|368:336|368:336|393:372,2,359.999990463257
457,329,11407,1,0,0:0:0:0:
381,113,11621,6,0,B|248:92|248:92|213:136,1,179.999995231629
349,305,11835,2,0,P|209:166|29:297,1,405.000004720688
165,323,12264,2,0,P|209:311|164:317,1,135.000001573563
390,236,12478,2,0,B|478:282|478:282|583:217|583:217|308:281|308:281|288:318,1,539.999985694885
203,333,12907,6,0,P|31:288|110:129,1,405.000004720688
70,50,13335,2,0,P|136:45|197:74,1,135.000001573563
77,321,13550,2,0,P|82:255|130:209,1,135.000001573563
289,247,13764,6,0,L|400:232,1,89.9999976158143
482,162,13871,2,0,L|376:131,1,89.9999976158143
353,317,13978,2,0,L|174:340,1,179.999995231629
71,102,14192,5,0,0:0:0:0:
243,152,14300,1,0,0:0:0:0:
15,234,14407,2,0,B|142:247|142:247|196:204,1,179.999995231629
205,80,14621,6,0,P|313:68|367:107,1,179.999995231629
510,253,14835,2,0,P|399:237|344:276,1,179.999995231629
414,360,15050,2,0,P|459:321|410:354,1,179.999995231629
0,316,15264,2,0,B|251:292|251:292|308:359|308:359|515:335,1,539.999985694885
215,384,15692,2,0,B|239:241|239:241|202:187,1,179.999995231629
151,165,15907,5,0,0:0:0:0:
323,246,16014,1,0,0:0:0:0:
273,8,16121,2,0,B|260:132|260:132|297:173,1,179.999995231629
354,315,16335,6,0,L|393:124,1,179.999995231629
170,28,16550,2,0,B|182:176|182:176|222:205,1,179.999995231629
476,183,16764,2,0,B|205:217|205:217|151:300,1,359.999990463257
291,100,17193,6,0,B|222:106|222:106|212:124,1,89.9999976158143
229,199,17300,2,0,B|298:192|298:192|308:174,1,89.9999976158143
337,19,17408,2,0,B|171:34|171:34|157:60,1,179.999995231629
187,276,17621,5,0,0:0:0:0:
382,228,17728,1,0,0:0:0:0:
247,371,17835,2,0,B|129:345|129:345|106:279,1,179.999995231629
399,304,18050,6,0,L|44:363,2,359.999990463257
0,296,18692,2,0,L|510:202,1,539.999985694885
388,305,19121,2,0,B|413:284|413:284|440:101,1,179.999995231629
207,17,19335,5,0,0:0:0:0:
241,199,19442,1,0,0:0:0:0:
356,29,19550,2,0,B|314:153|314:153|258:170,1,179.999995231629
87,318,19764,6,0,B|62:301|62:301|44:153,1,179.999995231629
139,132,19978,2,0,B|157:281|157:281|183:298,1,179.999995231629
28,374,20192,2,0,B|77:343|77:343|108:43,1,359.999990463257
309,327,20621,6,0,L|282:230,1,89.9999976158143
208,225,20728,2,0,B|183:331|183:331|134:358,1,135.000001573563
161,344,20835,2,0,B|37:318|37:318|19:257,1,179.999995231629
26,39,21050,6,0,P|91:69|115:193,1,179.999995231629
98,286,21264,2,0,L|81:371,1,67.5000007867814
170,47,21478,6,0,B|228:40|228:40|274:79,1,89.9999976158143
223,80,21585,2,0,B|505:50|505:50|559:104,1,359.999990463257
29,324,21907,6,0,B|56:187|56:187|38:151,1,179.999995231629
98,73,22121,2,0,B|53:308|53:308|89:368|89:368|242:392|242:392|302:346,1,539.999985694885
232,284,22550,2,0,B|192:256|192:256|149:273|149:273|188:295|188:295|232:283,1,179.999995231629
182,143,22764,2,0,B|134:155|134:155|120:199|120:199|162:183|162:183|181:141,1,179.999995231629
455,308,22978,2,0,B|412:351|412:351|293:341,1,179.999995231629
73,12,23192,6,0,L|156:58,1,89.9999976158143
110,34,23300,2,0,B|137:310|137:310|74:378,1,359.999990463257
19,326,23621,2,0,P|25:239|95:188,1,179.999995231629
296,168,23835,2,0,B|348:162|348:162|371:129,1,67.5000007867814
131,319,24050,6,0,L|220:308,1,89.9999976158143
207,224,24157,2,0,L|293:247,1,89.9999976158143
282,355,24264,2,0,B|452:338|452:338|505:233,1,269.999992847443
464,270,24478,1,0,0:0:0:0:
53,330,24692,1,0,0:0:0:0:
296,52,24907,2,0,L|248:127,1,89.9999976158143
217,34,25014,2,0,B|250:312|250:312|344:350,1,359.999990463257
31,102,25335,6,0,B|109:172|109:172|182:155,1,179.999995231629
449,237,25550,2,0,B|371:307|371:307|276:286,1,202.500002360344
246,360,25978,6,0,L|277:182,1,179.999995231629
203,128,26192,2,0,L|171:305,1,179.999995231629
101,350,26407,2,0,B|54:220|54:220|94:136,1,179.999995231629
241,285,26621,2,0,L|61:297,1,179.999995231629
299,206,26835,2,0,L|433:197,1,135.000001573563
430,271,27050,6,0,P|356:251|384:148,1,179.999995231629
429,95,27264,2,0,P|409:36|441:89,1,179.999995231629
103,168,27478,6,0,L|14:162,1,89.9999976158143
160,68,27585,2,0,L|249:74,1,89.9999976158143
296,235,27692,2,0,L|475:245,1,179.999995231629
191,332,27907,6,0,B|70:351|70:351|22:319,1,179.999995231629
289,225,28121,2,0,L|466:193,1,179.999995231629
0,191,28335,6,0,B|-14:133|-14:133|78:55,1,179.999995231629
86,64,28550,2,0,B|111:183|111:183|67:222,1,179.999995231629
172,90,28764,2,0,B|301:38|301:38|369:68,1,179.999995231629
504,320,28978,2,0,B|336:312|336:312|300:266|300:266|227:340|227:340|187:301|187:301|125:297,1,405.000004720688
291,104,29407,6,0,P|386:192|386:236,1,179.999995231629
157,153,29621,2,0,B|193:-13|193:-13|221:29|221:29|153:358,1,539.999985694885
9,302,30050,2,0,B|62:228|62:228|151:234,1,179.999995231629
272,333,30264,2,0,B|342:390|342:390|427:361,1,179.999995231629
75,343,30478,2,0,B|102:305|102:305|147:309|147:309|120:347|120:347|78:342,3,179.999995231629
508,80,30907,6,0,L|406:96,1,89.9999976158143
494,159,31014,2,0,L|392:175,1,89.9999976158143
483,239,31121,2,0,L|381:255,1,89.9999976158143
456,12,31335,6,0,B|307:34|307:34|292:59,1,179.999995231629
490,316,31550,2,0,B|341:338|341:338|319:318,1,179.999995231629
303,137,31764,1,0,0:0:0:0:
303,137,31978,1,0,0:0:0:0:
198,366,32192,6,0,P|232:347|264:286,1,89.9999976158143
183,287,32300,2,0,P|184:247|147:189,1,89.9999976158143
106,260,32407,2,0,P|72:239|3:242,1,89.9999976158143
318,58,32621,6,0,P|352:76|384:137,1,89.9999976158143
303,137,32729,2,0,P|304:176|267:234,1,89.9999976158143
226,164,32836,2,0,P|192:184|123:181,1,89.9999976158143
460,225,33050,5,0,0:0:0:0:
460,225,33264,1,0,0:0:0:0:
262,192,33478,2,0,B|227:161|227:161|385:147,1,179.999995231629
280,326,33692,2,0,B|261:368|261:368|410:314,1,179.999995231629
204,268,33907,6,0,L|168:350,1,89.9999976158143
120,270,34014,2,0,L|84:352,1,89.9999976158143
36,272,34121,2,0,L|0:354,1,89.9999976158143
319,110,34335,6,0,L|283:28,1,89.9999976158143
235,108,34442,2,0,L|199:26,1,89.9999976158143
151,106,34549,2,0,L|115:24,1,89.9999976158143
510,119,34764,6,0,P|432:36|373:37,1,179.999995231629
373,38,34978,2,0,B|345:271|345:271|394:335,1,269.999992847443
267,226,35192,2,0,P|261:142|340:111,1,179.999995231629
444,304,35407,2,0,P|450:220|371:189,1,179.999995231629
187,48,35621,6,0,B|259:161|259:161|304:151,1,179.999995231629
424,361,35835,2,0,B|502:378|542:317|535:235|406:233|371:260|366:310|378:353|269:370|199:334,1,405.000004720688
159,350,36264,2,0,B|67:320|67:320|26:347,1,135.000001573563
217,201,36478,6,0,P|292:157|300:71,1,179.999995231629
96,117,36692,2,0,P|95:204|166:254,1,179.999995231629
449,201,36907,2,0,B|442:157|442:157|331:81,1,179.999995231629
241,138,37121,2,0,B|274:108|274:108|410:109,1,179.999995231629
197,335,37335,2,0,B|110:326|110:326|84:236,2,179.999995231629
441,157,37764,6,0,L|418:273,1,89.9999976158143
317,164,37871,2,0,L|340:48,1,89.9999976158143
457,143,37978,2,0,B|430:275|430:275|390:295,1,179.999995231629,0|0,0:0|0:0,3:0:0:0:
51,128,38192,6,0,P|131:93|165:12,1,179.999995231629
251,28,38407,2,0,P|240:115|294:184,1,179.999995231629
52,217,38621,2,0,B|79:187|79:187|62:48,1,179.999995231629
94,283,38835,2,0,L|102:349,1,67.5000007867814
51,128,39050,6,0,P|138:116|208:168,1,179.999995231629
147,221,39264,2,0,B|472:174|472:174|526:228,1,405.000004720688
172,299,39692,2,0,B|98:348|98:348|64:263,1,179.999995231629
107,12,39907,2,0,B|218:20|218:20|295:317|295:317|192:383,1,539.999985694885
60,100,40335,6,0,B|82:213|82:213|146:220,1,179.999995231629
78,315,40550,2,0,B|187:353|187:353|224:300,1,179.999995231629
274,407,40764,2,0,B|361:332|361:332|334:272,1,179.999995231629
452,284,40978,2,0,B|430:171|430:171|365:163,1,179.999995231629
222,323,41192,6,0,B|234:310|234:310|218:240,1,89.9999976158143
152,290,41300,2,0,L|242:296,1,89.9999976158143
313,226,41407,2,0,B|212:220|212:220|195:188,1,135.000001573563
85,51,41621,6,0,P|171:39|239:95,1,179.999995231629
209,258,41835,2,0,L|190:352,1,67.5000007867814
205,341,42050,2,0,B|273:349|273:349|330:294,1,89.9999976158143
341,159,42157,2,0,L|315:23,1,135.000001573563
468,247,42478,6,0,P|373:277|308:230,1,179.999995231629
395,39,42692,2,0,L|328:50,1,67.5000007867814
152,260,42907,6,0,B|138:196|138:196|162:204,1,89.9999976158143
178,209,43014,2,0,B|241:229|241:229|223:246,1,89.9999976158143
209,258,43121,2,0,B|161:302|161:302|156:278,1,89.9999976158143
96,167,43335,6,0,B|72:155|72:155|18:189,1,89.9999976158143
16,215,43442,2,0,B|50:249|50:249|377:214,1,359.999990463257
310,143,43764,6,0,B|243:130|243:130|233:110,1,89.9999976158143
312,66,43871,2,0,B|347:327|347:327|474:357,1,359.999990463257
466,276,44192,6,0,B|333:247|333:247|300:283,1,179.999995231629
223,382,44407,2,0,B|194:414|194:414|61:385,1,179.999995231629
173,193,44621,6,0,B|210:132|210:132|206:113,1,89.9999976158143
168,163,44728,2,0,B|202:225|202:225|219:231,1,89.9999976158143
196,173,44835,2,0,B|124:171|124:171|110:183,1,89.9999976158143,0|0,0:3|0:3,0:3:0:0:
32,11,45050,6,0,B|58:54|58:54|31:192,1,179.999995231629
28,163,45264,2,0,B|49:53|49:53|117:28,1,179.999995231629
142,273,45478,2,0,B|124:332|124:332|99:343,1,89.9999976158143
62,277,45585,2,0,L|244:259,1,179.999995231629
433,82,45907,2,0,B|341:88|341:88|321:126,1,135.000001573563
231,338,46121,2,0,L|96:351,1,135.000001573563
389,278,46335,6,0,B|427:221|427:221|438:286,1,135.000001573563
388,294,46550,2,0,B|399:359|399:359|437:302,1,135.000001573563
241,122,46764,6,0,B|230:179|230:179|234:187,1,67.5000007867814
147,289,46872,2,0,B|157:243|157:243|201:217|201:217|235:47,1,270.000003147125
67,172,47192,6,0,B|40:194|40:194|9:184|9:184|36:161|36:161|66:172,1,135.000001573563
214,275,47407,2,0,B|187:253|187:253|156:263|156:263|183:286|183:286|213:275,1,135.000001573563
332,36,47621,6,0,B|297:66|297:66|254:52|254:52|290:23|290:23|330:36,1,179.999995231629,0|0,0:3|0:3,0:3:0:0:
457,318,47835,2,0,B|423:289|423:289|380:303|380:303|416:332|416:332|456:319,1,179.999995231629,0|0,0:3|0:3,0:3:0:0:
297,270,48050,6,0,B|339:217|339:217|361:217,1,89.9999976158143
343,139,48157,2,0,B|409:148|409:148|420:168,1,89.9999976158143,0|0,0:3|0:3,0:3:0:0:
479,113,48264,2,0,B|503:175|503:175|492:194,2,89.9999976158143,0|0|0,0:3|0:3|0:3,0:3:0:0:
267,174,48478,6,0,P|186:139|150:58,1,179.999995231629
75,70,48692,2,0,P|61:156|-6:211,1,179.999995231629,0|0,0:0|0:0,0:3:0:0:
29,367,48907,6,0,P|89:303|177:298,1,179.999995231629,0|0,0:3|0:3,0:3:0:0:
416,346,49121,2,0,B|398:358|398:358|240:345,1,179.999995231629
384,275,49335,2,0,B|451:251|451:251|471:144,1,179.999995231629
417,12,49550,2,0,L|385:189,1,179.999995231629
297,328,49764,6,0,P|271:191|384:273,1,359.999990463257
321,28,50192,6,0,B|297:65|297:65|163:86,1,179.999995231629,0|0,0:3|0:3,0:3:0:0:
310,145,50407,2,0,B|339:179|339:179|474:194,1,179.999995231629
310,18,50621,6,0,L|327:197,1,179.999995231629
263,332,50835,2,0,L|245:152,1,179.999995231629
154,33,51050,2,0,L|171:212,1,179.999995231629
107,347,51264,2,0,L|89:167,1,179.999995231629
72,150,51478,6,0,P|66:194|34:224,1,89.9999976158143
194,236,51585,2,0,P|158:262|113:261,1,89.9999976158143,0|0,0:3|0:3,0:3:0:0:
216,380,51692,2,0,P|135:319|194:236,1,224.999994039536,0|0,0:3|0:3,0:3:0:0:
272,238,51907,6,0,L|451:255,1,179.999995231629
455,259,52121,2,0,L|276:242,1,179.999995231629
395,175,52335,2,0,B|384:294|384:294|332:323,1,179.999995231629
332,323,52550,2,0,L|265:316,1,67.5000007867814
274,278,52764,6,0,L|453:259,1,179.999995231629
49,358,52978,2,0,L|226:339,1,178.199994735489
244,352,53407,2,0,L|232:217,1,135.000001573563
96,29,53621,6,0,P|37:91|61:173,1,179.999995231629
137,191,53728,2,0,P|196:128|172:46,1,179.999995231629
37,133,54050,6,0,B|163:111|163:111|201:145,1,179.999995231629
204,322,54264,2,0,B|166:357|166:357|40:335,1,179.999995231629
246,213,54478,6,0,B|279:200|284:155|284:155|300:221|273:275|273:275|320:261|353:203|353:203|373:247|364:279|364:279|396:258|410:238|410:238|423:254|426:271|426:271|443:264|452:256|452:256|472:271,1,540.000006294251
40,253,54907,6,0,L|50:342,1,89.9999976158143
118,264,55014,2,0,L|128:353,1,89.9999976158143
196,275,55121,2,0,L|206:364,1,89.9999976158143
467,45,55335,6,0,B|368:31|368:31|341:54,1,135.000001573563
291,111,55550,2,0,L|157:91,1,135.000001573563
366,167,55764,2,0,B|286:196|286:196|271:243,1,135.000001573563
329,359,55978,1,0,0:0:0:0:
466,293,56085,1,0,0:0:0:0:
259,320,56192,2,0,B|149:310|149:310|131:292,1,135.000001573563
326,200,56407,2,0,L|319:268,1,67.5000007867814
26,213,56621,6,0,B|26:129|114:138|139:183|141:242|76:342|76:342|70:298|46:284,1,359.999990463257
1,346,56942,5,0,0:0:0:0:
174,321,57050,2,0,B|270:296|270:296|287:266,1,135.000001573563
251,208,57264,2,0,B|269:305|269:305|303:316,1,135.000001573563
473,304,57478,2,0,B|378:283|378:283|366:248,1,135.000001573563
490,279,57692,1,0,0:0:0:0:
340,349,57800,1,0,0:0:0:0:
251,208,57907,2,0,B|254:108|254:108|290:78,1,135.000001573563
416,241,58121,2,0,B|433:291|433:291|512:312,1,135.000001573563
345,33,58335,6,0,P|341:77|365:114,1,89.9999976158143
208,89,58442,2,0,P|236:122|279:132,1,89.9999976158143
195,230,58550,2,0,P|215:221|232:206,1,44.9999988079071
158,162,58764,6,0,B|139:150|139:150|28:164,1,135.000001573563
43,270,58978,2,0,B|154:256|154:256|169:239,1,135.000001573563
237,193,59192,1,0,0:0:0:0:
401,356,59300,1,0,0:0:0:0:
464,272,59407,2,0,B|360:284|360:284|341:307,1,135.000001573563
332,328,59621,2,0,L|62:309,1,269.999992847443
62,309,60050,6,0,B|150:330|150:330|161:357,1,119.999996821086
11,371,60335,1,0,0:0:0:0:
245,227,60478,1,0,0:0:0:0:
112,29,60621,1,0,0:0:0:0:
220,300,60764,1,0,0:0:0:0:
474,198,60907,2,0,B|382:185|382:185|337:220,1,119.999996821086
404,264,61192,1,0,0:0:0:0:
370,101,61335,2,0,B|388:288|388:288|434:311,1,239.999993642171
233,70,61764,6,0,P|208:107|202:151,1,89.9999976158143
100,50,61871,2,0,L|125:136,1,89.9999976158143
0,140,61978,2,0,P|40:157|70:191,1,89.9999976158143,0|0,0:3|0:3,0:3:0:0:
290,140,62192,5,0,0:0:0:0:
23,61,62335,1,0,0:0:0:0:
237,289,62478,1,0,0:0:0:0:
280,57,62621,1,0,0:0:0:0:
48,273,62764,1,0,0:0:0:0:
320,343,62907,1,0,0:0:0:0:
46,357,63050,6,0,B|87:333|87:333|121:132,1,239.999993642171
148,58,63478,2,0,B|63:90|63:90|89:101,2,119.999996821086
443,170,63907,5,0,0:0:0:0:
172,91,64050,1,0,0:0:0:0:
461,182,64192,1,0,0:0:0:0:
304,0,64335,1,0,0:0:0:0:
326,294,64478,1,0,0:0:0:0:
158,106,64621,1,0,0:0:0:0:
389,237,64764,6,0,B|362:363|362:363|311:372,1,180.000002098084
70,243,65192,6,0,L|89:341,1,89.9999976158143
149,243,65300,2,0,L|168:341,1,89.9999976158143
228,243,65407,2,0,L|247:341,1,89.9999976158143
112,174,65621,5,0,0:0:0:0:
319,284,65764,1,0,0:0:0:0:
407,27,65907,1,0,0:0:0:0:
95,257,66050,1,0,0:0:0:0:
408,293,66192,1,0,0:0:0:0:
70,243,66335,1,0,0:0:0:0:
300,72,66478,6,0,B|335:351|335:351|408:383,1,360.000004196167
253,324,66907,2,0,B|384:281|384:281|422:298,2,180.000002098084
158,121,67335,6,0,B|142:32|142:32|25:365|25:365|97:301,1,539.999985694885
418,357,67764,2,0,B|59:300|59:300|42:262,1,405.000004720688
42,287,68192,2,0,L|457:354,1,405.000004720688
248,340,68621,6,0,L|160:356,1,89.9999976158143
290,249,68728,2,0,L|202:265,1,89.9999976158143
406,364,68835,2,0,L|318:380,1,89.9999976158143
431,103,69050,6,0,B|417:123|388:127|388:127|101:155|101:155|-69:169|-36:254|3:311|84:281|124:238|85:169|45:164|1:125|6:78|64:42|105:81,1,810.000009441377
154,12,69478,5,0,0:0:0:0:
380,173,69621,1,0,0:0:0:0:
144,360,69764,1,0,0:0:0:0:
449,302,69907,6,0,B|416:296|416:296|385:358|385:358|307:342|307:342|303:219|303:219|58:177|58:177|-2:309,1,675.000007867814
24,192,70550,2,0,B|117:146|117:146|188:174,1,135.000001573563
201,290,70764,2,0,B|335:261|312:100|208:48|106:92|40:155|30:252|160:271|201:281|119:325|109:387|54:381|-41:349|-12:235|84:234,1,540.000006294251
387,49,71192,5,0,0:0:0:0:
86,151,71335,1,0,0:0:0:0:
326,346,71478,1,0,0:0:0:0:
69,176,71621,6,0,B|51:144|51:144|74:2,1,179.999995231629
143,203,71835,2,0,B|156:345|156:345|182:371,1,179.999995231629
423,352,72050,6,0,L|429:261,1,89.9999976158143
349,255,72157,2,0,L|342:345,1,89.9999976158143
262,340,72264,2,0,L|268:249,1,89.9999976158143
493,210,72478,5,0,0:0:0:0:
220,46,72621,1,0,0:0:0:0:
108,344,72764,1,0,0:0:0:0:
272,105,72907,6,0,B|239:191|239:191|189:118,1,179.999995231629
511,131,73335,6,0,P|435:88|356:124,1,179.999995231629
350,230,73550,2,0,P|426:273|505:236,1,179.999995231629
284,178,73764,6,0,B|212:201|222:264|222:264|266:258|252:203,1,179.999995231629
512,180,73978,2,0,B|494:156|494:156|507:97,1,89.9999976158143
512,19,74192,2,0,B|447:298|447:298|427:316|427:316|381:306,1,359.999990463257
324,245,74478,1,0,0:0:0:0:
93,143,74621,5,0,0:0:0:0:
303,324,74764,1,0,0:0:0:0:
377,41,74907,1,0,0:0:0:0:
239,157,75050,6,0,B|236:206|253:234|268:219|327:240|362:260|345:351|268:398|184:352|168:260|243:231|288:220,1,359.999990463257
84,98,75478,6,0,B|65:26|65:26|76:8,1,89.9999976158143
162,91,75585,2,0,B|148:162|148:162|158:176,1,89.9999976158143
236,72,75692,2,0,L|280:78,1,44.9999988079071
73,187,75907,5,0,0:0:0:0:
332,312,76050,1,0,0:0:0:0:
385,23,76192,1,0,0:0:0:0:
56,175,76335,6,0,B|-17:209|-17:209|16:285|101:289|200:239|186:115|75:27|-27:123,1,539.999985694885,0|0,0:3|0:0,0:0:0:0:
0,225,76764,6,0,B|19:181|19:181|512:235,1,562.499985098839
433,146,77407,2,0,B|446:53|446:53|480:30,1,135.000001573563
161,1,77621,2,0,B|210:323|210:323|348:350|348:350|369:328,1,539.999985694885
301,102,78050,6,0,B|293:135|293:135|311:166|311:166|319:131|319:131|301:102,1,135.000001573563
195,166,78157,2,0,B|213:195|213:195|247:204|247:204|228:174|228:174|195:166,1,135.000001573563
166,286,78264,2,0,B|199:293|199:293|230:275|230:275|195:267|195:267|166:286,1,135.000001573563,0|0,0:3|0:3,0:3:0:0:
507,251,78478,2,0,B|358:226|358:226|334:243,1,179.999995231629
1,77,78692,2,0,B|149:101|149:101|173:84,1,179.999995231629
300,36,78907,6,0,B|290:99|290:99|268:112,1,89.9999976158143
210,163,79014,2,0,B|219:226|219:226|241:239,1,89.9999976158143
281,305,79121,2,0,L|272:371,1,59.9999984105428
129,181,79335,5,0,0:0:0:0:
392,83,79478,1,0,0:0:0:0:
490,346,79621,1,0,0:0:0:0:
210,163,79764,1,0,0:3:0:0:
419,241,79907,1,0,0:3:0:0:
498,30,80050,1,0,0:3:0:0:
215,340,80192,6,0,B|223:313|241:304|241:304|390:252|390:252|420:248|439:273,2,239.999993642171
488,361,80621,6,0,L|303:301,1,179.999995231629
39,226,80835,1,0,0:0:0:0:
376,0,81050,2,0,B|-9:111|-9:111|-25:142|-25:142|-1:243,1,539.999985694885
307,359,81478,5,0,0:0:0:0:
205,25,81621,1,0,0:1:0:0:
20,247,81764,1,0,0:0:0:0:
492,137,81907,6,0,B|479:53|479:53|469:9|406:17|407:57|407:57|437:262|437:262|436:304|382:315|366:273|366:273|352:182|352:182|341:138|282:147|281:188|281:188|284:207,1,719.999980926514
388,220,84907,6,0,L|402:316,1,67.5000007867814
398,194,85014,2,0,L|412:290,1,67.5000007867814
409,168,85121,2,0,L|423:264,1,67.5000007867814
155,222,85335,6,0,L|167:299,1,67.5000007867814
501,102,85550,6,0,L|492:174,1,67.5000007867814
313,40,85764,5,0,0:0:0:0:
34,301,89192,6,0,B|367:332|367:332|412:277,1,405.000004720688
379,121,89621,6,0,P|310:170|332:252,1,179.999995231629
411,277,89835,2,0,B|469:282|469:282|489:258,1,89.9999976158143
278,190,90050,2,0,P|227:171|210:121,1,89.9999976158143
293,210,90157,2,0,P|159:213|50:289,1,270.000003147125
118,0,90478,2,0,B|160:332|160:332|242:358,1,405.000004720688
119,271,90907,2,0,B|106:168|106:168|78:152,1,135.000001573563
177,329,91121,6,0,P|215:356|268:288,1,179.999995231629,0|0,0:3|0:3,0:3:0:0:
176,55,91335,2,0,P|134:75|166:155,1,179.999995231629,0|0,0:3|0:3,0:3:0:0:
330,194,91550,2,0,L|418:211,1,89.9999976158143
263,110,91764,6,0,B|283:124|283:124|324:112,1,67.5000007867814
284,235,91871,2,0,B|308:230|308:230|329:193,1,67.5000007867814
387,308,91978,2,0,B|400:288|400:288|389:246,1,67.5000007867814,0|0,0:3|0:3,0:3:0:0:
215,185,92192,2,0,B|124:194|124:194|98:229,1,135.000001573563
404,170,92407,2,0,B|455:43|455:43|437:4,1,179.999995231629
345,75,92621,6,0,B|381:174|381:174|446:209,1,179.999995231629
287,146,92835,2,0,L|406:1,1,179.999995231629
347,250,93050,2,0,B|319:292|319:292|259:298,1,89.9999976158143
478,162,93264,2,0,P|497:201|486:244,1,89.9999976158143
271,219,93478,2,0,B|203:205|203:205|199:184,1,89.9999976158143,0|0,0:3|0:0,0:0:0:0:
162,61,93585,2,0,P|158:228|6:194,1,359.999990463257,0|0,0:3|0:3,0:3:0:0:
69,136,93907,6,0,B|101:130|101:130|126:279|126:279|477:220,1,539.999985694885
502,239,94335,1,0,0:0:0:0:
227,293,94550,6,0,B|257:263|257:263|234:118,1,179.999995231629
33,207,94764,2,0,B|62:384,1,179.999995231629
305,303,94978,2,0,P|271:225|186:225,1,179.999995231629
68,311,95192,6,0,L|156:296,1,89.9999976158143
500,234,95407,2,0,L|411:248,1,89.9999976158143
115,66,95621,2,0,B|208:110|208:110|216:148,1,135.000001573563
512,249,95835,2,0,B|419:203|419:203|416:169,1,135.000001573563
424,8,96050,6,0,L|386:94,1,89.9999976158143
373,46,96157,2,0,B|427:305|427:305|369:342|369:342|341:329,1,359.999990463257
144,229,96478,2,0,B|235:340|235:340|239:377,1,179.999995231629
238,376,96692,2,0,B|235:339|235:339|305:213,1,179.999995231629
37,306,96907,6,0,P|86:339|42:300,1,179.999995231629
257,182,97121,2,0,B|304:155|304:155|221:173|221:173|242:187|242:187|249:223,1,179.999995231629
479,333,97335,6,0,B|459:344|459:344|383:335|383:335|374:337|374:337|291:326|291:326|286:323|286:323|177:312|177:312|143:210|143:210|39:199|39:199|85:226,1,539.999985694885
461,218,97764,2,0,B|374:255|369:362|369:362|344:257|261:231,1,359.999990463257
38,281,98192,6,0,B|180:312|180:312|223:278,1,179.999995231629
73,200,98407,2,0,B|51:227|51:227|82:369,1,179.999995231629
131,33,98621,6,0,B|74:61|74:61|68:87,1,89.9999976158143
131,33,98728,2,0,B|151:93|151:93|137:115,1,89.9999976158143,0|0,0:3|0:3,0:3:0:0:
131,33,98835,2,0,B|74:61|74:61|68:87,1,89.9999976158143
282,221,99050,6,0,P|265:191|266:158,1,67.5000007867814
241,179,99157,2,0,P|274:179|302:196,1,67.5000007867814
297,164,99264,2,0,P|280:192|250:208,1,67.5000007867814
427,35,99478,6,0,P|410:65|411:98,1,67.5000007867814
386,77,99585,2,0,P|419:77|447:60,1,67.5000007867814
442,92,99692,2,0,P|425:64|395:48,1,67.5000007867814
330,150,99907,6,0,P|337:237|399:300,1,179.999995231629
464,337,100121,2,0,P|384:299|298:322,1,179.999995231629,0|0,0:3|0:3,0:3:0:0:
228,358,100335,2,0,B|89:341|89:341|66:307,1,179.999995231629
108,164,100764,6,0,L|38:213,1,67.5000007867814,0|0,0:3|0:3,0:3:0:0:
60,155,100871,2,0,L|99:209,1,67.5000007867814,0|0,0:3|0:3,0:3:0:0:
53,203,100978,2,0,L|108:164,1,67.5000007867814,0|0,0:3|0:3,0:3:0:0:
436,91,101192,6,0,L|362:48,1,67.5000007867814,0|0,0:3|0:3,0:3:0:0:
423,43,101299,2,0,L|390:101,1,67.5000007867814,0|0,0:3|0:3,0:3:0:0:
377,57,101406,2,0,L|435:90,1,67.5000007867814,0|0,0:3|0:3,0:3:0:0:
222,183,101621,6,0,B|236:313|236:313|290:346,1,179.999995231629
374,336,101835,2,0,P|256:281|122:368,1,269.999992847443
129,367,102050,1,0,0:0:0:0:
428,273,102264,1,0,0:0:0:0:
231,172,102478,6,0,L|143:191,1,89.9999976158143
217,252,102585,2,0,L|129:271,1,89.9999976158143
203,332,102692,2,0,L|115:351,1,89.9999976158143
348,12,102907,6,0,B|421:317|421:317|507:352,1,405.000004720688
326,246,103335,2,0,B|297:114|297:114|259:89,1,179.999995231629
444,38,103764,1,0,0:0:0:0:
104,209,103978,1,0,0:0:0:0:
440,359,104192,6,0,B|427:283|427:283|498:180|498:180|479:42,1,269.999992847443
476,100,104621,2,0,P|393:91|386:9,1,179.999995231629
251,314,105050,6,0,B|44:328|44:328|0:284,1,270.000003147125
218,197,105478,6,0,P|236:170|243:137,1,67.5000007867814
283,244,105585,2,0,P|268:213|242:191,1,67.5000007867814,0|0,0:3|0:3,0:3:0:0:
355,210,105692,2,0,P|321:207|289:218,1,67.5000007867814,0|0,0:3|0:3,0:3:0:0:
177,346,105907,6,0,B|11:328|11:328|12:313,1,179.999995231629
251,314,106335,2,0,B|425:331|425:331|445:313,1,202.500002360344
446,292,106764,6,0,P|421:254|416:210,1,89.9999976158143
449,70,106978,2,0,P|428:109|392:136,1,89.9999976158143
163,186,107192,2,0,B|300:217|300:217|334:198,1,179.999995231629
266,44,107621,6,0,B|30:87|30:87|-8:58,1,269.999992847443
126,286,108050,2,0,P|172:305|216:293,1,89.9999976158143
178,219,108264,2,0,P|141:244|126:286,1,89.9999976158143
257,367,108478,6,0,B|503:340|503:340|528:295,1,269.999992847443
393,134,108907,6,0,P|360:103|317:89,1,89.9999976158143,0|0,0:3|0:3,0:3:0:0:
358,0,109121,2,0,P|347:43|358:87,1,89.9999976158143
441,220,109335,2,0,B|423:193|423:193|455:29,1,179.999995231629,0|0,0:3|0:3,0:3:0:0:
17,263,109764,6,0,B|370:290|370:290|387:371,1,405.000004720688
105,301,110192,5,0,0:0:0:0:
225,81,110335,1,0,0:0:0:0:
423,198,110478,1,0,0:0:0:0:
48,106,110621,2,0,P|193:169|127:376,1,360.000004196167
250,189,111050,5,0,0:0:0:0:
31,212,111192,1,0,0:0:0:0:
212,76,111335,1,0,0:0:0:0:
362,274,111478,2,0,B|361:273|407:315|407:315|418:199|418:199|465:264|465:264|479:243|479:243|571:223,1,360.000004196167
316,339,111907,6,0,B|162:384|220:200|5:298,1,270.000003147125
448,42,112335,6,0,B|384:57|384:57|364:43,1,89.9999976158143
493,107,112442,2,0,L|391:131,1,89.9999976158143
482,188,112550,2,0,B|418:203|418:203|405:223,1,89.9999976158143
97,67,112764,2,0,B|200:93|200:93|225:153,1,135.000001573563
383,220,112978,2,0,B|279:249|279:249|254:309,1,135.000001573563
400,338,113192,6,0,B|434:399|513:389|543:315|478:245|413:257|384:334|367:382|299:371|246:327,1,360.000004196167
459,226,113621,5,0,0:0:0:0:
266,331,113764,1,0,0:0:0:0:
363,55,113907,1,0,0:0:0:0:
498,290,114050,2,0,B|467:315|467:315|356:300|356:300|528:114,1,360.000004196167
253,35,114478,5,0,0:0:0:0:
172,268,114621,1,0,0:0:0:0:
3,97,114764,1,0,0:0:0:0:
275,288,114907,2,0,P|76:296|27:425,1,360.000004196167
174,341,115335,2,0,B|415:312|415:312|460:212,1,270.000003147125
421,164,115657,1,0,0:0:0:0:
494,57,115764,5,0,0:0:0:0:
342,291,115907,1,0,0:0:0:0:
99,133,116050,1,0,0:0:0:0:
334,185,116192,2,0,B|309:317|309:317|292:366|233:367|202:335|209:290|209:290|222:224,1,360.000004196167
339,320,116621,6,0,B|487:300|487:300|505:254,1,179.999995231629
446,165,117050,5,0,0:0:0:0:
464,49,117192,1,0,0:0:0:0:
397,226,117335,1,0,0:0:0:0:
229,174,117478,2,0,B|91:158|91:158|70:104,1,179.999995231629
265,289,117907,5,0,0:0:0:0:
219,189,118050,1,0,0:0:0:0:
365,236,118192,1,0,0:0:0:0:
142,240,118335,2,0,B|28:279|28:279|70:167,1,239.999993642171
184,306,118764,2,0,B|341:321|341:321|376:293,1,179.999995231629
142,240,119192,6,0,L|47:254,1,89.9999976158143
120,167,119300,2,0,L|53:176,1,67.5000007867814
100,95,119407,2,0,L|55:101,1,44.9999988079071
183,305,119621,6,0,P|248:305|291:251,1,135.000001573563
476,114,119835,2,0,P|435:63|370:63,1,135.000001573563
229,79,120050,6,0,B|444:88|444:88|476:52,1,239.999993642171
314,121,120478,1,0,0:0:0:0:
291,2,120621,1,0,0:0:0:0:
384,165,120764,1,0,0:0:0:0:
219,56,120907,2,0,B|196:80|196:80|71:75,1,135.000001573563
298,362,121335,5,0,0:0:0:0:
360,263,121478,1,0,0:0:0:0:
201,321,121621,1,0,0:0:0:0:
430,301,121764,2,0,P|347:279|336:195,1,179.999995231629
230,330,122192,2,0,B|208:354|208:354|27:348,1,179.999995231629
35,325,122478,1,0,0:0:0:0:
119,216,122621,6,0,P|158:235|181:273,1,89.9999976158143
257,258,122835,2,0,P|254:213|275:174,1,89.9999976158143
159,349,123050,2,0,P|72:321|16:237,1,179.999995231629
348,32,123478,6,0,B|319:244|319:244|296:257,1,239.999993642171
237,210,123907,1,0,0:0:0:0:
416,321,124050,1,0,0:0:0:0:
479,173,124192,1,0,0:0:0:0:
337,326,124335,2,0,B|357:359|357:359|502:367,1,179.999995231629
269,286,124764,5,0,0:0:0:0:
192,294,124871,1,0,0:0:0:0:
116,301,124978,2,0,B|37:308|37:308|30:299,1,89.9999976158143
352,207,125192,2,0,P|357:273|329:333,1,135.000001573563
505,206,125621,2,0,P|465:225|439:261,1,90.0000010490418
419,159,125907,1,0,0:0:0:0:
510,35,126050,6,0,B|457:47|457:47|450:58,1,67.5000007867814
458,82,126157,2,0,L|354:71,1,67.5000007867814
335,21,126264,2,0,B|282:33|282:33|275:44,1,67.5000007867814
400,232,126478,6,0,B|426:254|426:254|436:356,1,135.000001573563
512,308,126692,2,0,L|499:173,1,135.000001573563
304,322,126907,6,0,B|144:311|144:311|131:296,1,179.999995231629
139,72,127335,5,0,0:0:0:0:
213,164,127478,1,0,0:0:0:0:
197,22,127621,1,0,0:0:0:0:
73,189,127764,2,0,B|84:218|84:218|141:228,1,90.0000010490418
19,264,128050,1,0,0:0:0:0:
168,180,128192,5,0,0:0:0:0:
151,262,128300,1,0,0:0:0:0:
134,344,128407,2,0,B|80:353|80:353|47:332,1,67.5000007867814
187,285,128621,6,0,L|384:292,1,179.999995231629
115,86,129050,2,0,B|44:104|44:104|39:131,1,89.9999976158143
73,189,129264,1,0,0:0:0:0:
378,210,129478,5,0,0:0:0:0:
300,145,129621,1,0,0:0:0:0:
353,315,129764,1,0,0:0:0:0:
390,193,129907,2,0,B|540:206|540:206|565:235,1,179.999995231629
226,336,130335,6,0,B|67:348|67:348|53:332,1,179.999995231629
267,212,130764,6,0,P|305:234|326:274,1,89.9999976158143
233,142,130978,2,0,B|178:156|248:104|297:143,1,89.9999976158143,0|0,0:3|0:3,0:3:0:0:
142,181,131192,2,0,P|107:177|67:134,2,89.9999976158143
150,54,131621,6,0,B|122:312|122:312|97:328,1,269.999992847443
111,264,132050,2,0,P|73:243|28:244,1,67.5000007867814
184,363,132264,2,0,P|242:356|278:327,1,67.5000007867814
284,102,132478,6,0,P|261:155|268:201,1,89.9999976158143
460,319,132692,2,0,P|424:272|381:255,1,89.9999976158143
240,328,132907,6,0,L|306:338,1,67.5000007867814
221,250,133014,2,0,L|287:260,1,67.5000007867814
202,172,133121,2,0,L|268:182,1,67.5000007867814
253,355,133335,6,0,L|119:376,1,135.000001573563
364,76,133550,2,0,L|230:97,1,135.000001573563
59,306,133764,6,0,B|223:278|223:278|229:265,1,179.999995231629
97,127,134192,2,0,B|168:140|168:140|183:128,1,89.9999976158143
16,240,134621,6,0,P|145:227|217:352,1,269.999992847443
200,356,135050,2,0,P|141:355|110:334,1,89.9999976158143
306,202,135264,2,0,P|309:247|290:287,1,89.9999976158143
177,283,135478,2,0,B|27:317|27:317|17:341,1,179.999995231629
356,263,135907,6,0,B|426:275|426:275|432:292,1,89.9999976158143
418,376,136121,2,0,B|488:364|488:364|494:346,1,89.9999976158143
427,112,136335,1,0,0:0:0:0:
416,185,136442,1,0,0:0:0:0:
400,258,136550,2,0,B|327:272|327:272|302:253,1,89.9999976158143
394,15,136764,6,0,B|426:155|426:155|460:165,1,179.999995231629
52,179,137192,6,0,B|38:219|38:219|51:259,1,67.4999982118607
61,253,137621,1,0,0:0:0:0:
126,220,137835,2,0,B|60:295|60:295|34:299,1,112.499997019768
162,316,138478,2,0,B|46:284|46:284|8:316,1,157.499995827675
110,356,139335,6,0,P|128:342|140:323,1,44.9999988079071
236,271,139550,2,0,P|238:293|249:313,1,44.9999988079071
414,274,139764,5,0,0:0:0:0:
339,285,139871,1,0,0:0:0:0:
265,295,139978,2,0,B|256:359|256:359|279:390,1,89.9999976158143
455,130,140192,2,0,B|479:92|479:92|472:47,1,89.9999976158143
398,34,140407,2,0,B|374:72|374:72|380:116,1,89.9999976158143
488,337,140621,6,0,B|406:322|406:322|384:341,1,112.499997019768
449,348,141264,2,0,B|418:300|418:300|420:289,1,67.4999982118607
438,293,141692,1,0,0:0:0:0:
511,258,141907,2,0,B|453:370|453:370|415:370,1,157.499995827675
377,277,142764,6,0,P|366:296|362:318,1,44.9999988079071
289,332,142978,2,0,P|277:312|260:298,1,44.9999988079071
121,303,143192,1,0,0:0:0:0:
128,334,143300,1,0,0:0:0:0:
153,351,143407,2,0,P|174:353|193:342,1,44.9999988079071
50,330,143621,2,0,B|-25:313|-25:313|-28:300,1,89.9999976158143
251,94,144050,6,0,B|226:204|226:204|200:223,1,134.999996423721
181,207,144478,1,0,0:0:0:0:
315,128,144692,2,0,B|126:173|126:173|107:199,1,224.999994039536
105,169,145335,2,0,B|200:253|200:253|150:48,1,314.99999165535
98,266,146192,6,0,P|70:283|37:280,1,67.5000007867814
128,351,146407,2,0,P|155:333|188:336,1,67.5000007867814
292,250,146621,5,0,0:0:0:0:
345,305,146728,1,0,0:0:0:0:
402,359,146835,2,0,B|489:337|489:337|492:314,1,112.499997019768
313,22,147050,2,0,B|302:124|302:124|294:130,1,112.499997019768
394,33,147264,2,0,B|383:135|383:135|375:141,1,112.499997019768
505,159,147478,6,0,B|494:133|494:133|330:96|330:96|306:113,1,224.999994039536
447,82,148121,2,0,B|411:199|411:199|376:218,1,134.999996423721
382,199,148550,1,0,0:0:0:0:
348,134,148764,2,0,B|391:351|391:351|465:366|465:366|476:351,1,314.99999165535
473,332,149621,6,0,B|264:349|264:349|251:373,1,224.999994039536
14,197,150907,6,0,B|61:131|61:131|441:142|441:142|473:218,1,539.999985694885
431,46,151335,5,0,0:0:0:0:
352,216,151442,1,0,0:0:0:0:
509,138,151550,2,0,B|365:116|365:116|338:137,1,179.999995231629
220,364,151764,2,0,B|365:347|365:347|379:316,1,179.999995231629
160,312,151978,2,0,P|80:278|55:194,1,179.999995231629
495,334,152192,6,0,B|485:255|485:255|28:308,1,539.999985694885
434,182,152621,2,0,B|277:93|277:93|408:132|408:132|400:179,1,359.999990463257
385,311,153050,5,0,0:0:0:0:
512,153,153157,1,0,0:0:0:0:
465,282,153264,2,0,B|432:297|432:297|291:265,1,179.999995231629
204,76,153478,6,0,L|192:142,1,67.5000007867814
131,50,153585,2,0,L|116:139,1,89.9999976158143
57,27,153692,2,0,B|33:180|33:180|11:193,1,179.999995231629
49,194,153907,2,0,P|-8:127|0:40,1,179.999995231629
132,0,154121,2,0,P|191:65|182:152,1,179.999995231629
24,215,154335,6,0,B|236:236|236:236|277:365|277:365|467:384,1,539.999985694885
327,172,154764,5,0,0:0:0:0:
175,309,154871,1,0,0:0:0:0:
360,290,154978,2,0,B|492:267|492:267|513:226,1,179.999995231629
325,41,155192,2,0,B|280:359|280:359|248:380,2,359.999990463257
0,286,155835,6,0,B|493:223|493:223|509:183,1,539.999985694885
497,168,156264,1,0,0:0:0:0:
152,345,156478,5,0,0:0:0:0:
256,197,156585,1,0,0:0:0:0:
318,373,156692,2,0,B|309:349|309:349|335:196,1,179.999995231629
459,44,156907,6,0,P|477:128|411:183,1,179.999995231629
326,163,157121,2,0,B|470:219|470:219|478:243,1,179.999995231629
236,316,157335,2,0,B|165:317|165:317|147:292|147:292|406:276,1,359.999990463257
165,8,157764,6,0,P|219:254|0:378,1,539.999985694885
479,10,158192,6,0,B|328:30|328:30|317:55,1,179.999995231629
344,280,158407,2,0,L|353:369,1,89.9999976158143
439,95,158621,6,0,B|386:113|386:113|372:160,1,89.9999976158143
452,179,158728,2,0,B|148:135|148:135|107:181,1,359.999990463257
51,350,159050,6,0,B|101:340|101:340|425:32|425:32|466:25,1,539.999985694885
486,56,159478,2,0,B|345:39|345:39|321:5,1,179.999995231629
204,112,159692,6,0,B|213:184|213:184|203:199|203:199|217:211|217:211|227:281,1,179.999995231629
306,271,159907,2,0,B|297:199|297:199|307:184|307:184|293:172|293:172|282:101,1,179.999995231629
26,328,160121,2,0,B|167:345|167:345|188:376,1,179.999995231629
34,130,160335,6,0,P|56:92|47:49,1,89.9999976158143
87,195,160442,2,0,P|65:156|23:143,1,89.9999976158143
170,181,160550,2,0,P|126:180|93:210,1,89.9999976158143
41,313,160764,6,0,B|11:352|11:352|136:316,1,179.999995231629
210,83,160978,2,0,B|191:37|191:37|159:164,1,179.999995231629,0|0,0:3|0:3,0:3:0:0:
304,326,161192,6,0,B|327:343|327:343|472:302,1,179.999995231629
472,302,161407,2,0,B|368:254|368:254|350:192,1,179.999995231629
442,56,161621,2,0,B|426:215|426:215|409:227,1,179.999995231629
361,89,161835,2,0,L|370:0,1,89.9999976158143
249,245,162050,6,0,P|224:257|197:328,1,89.9999976158143
287,316,162157,2,0,P|122:314|106:150,1,359.999990463257
477,9,162478,6,0,B|344:25|260:89|265:92|251:48|251:48|189:124|189:124|190:38|185:36|97:215|97:215|89:-18|93:-16|16:142,1,899.999976158143
77,169,163121,6,0,P|144:224|148:311,1,179.999995231629,0|0,0:3|0:3,0:3:0:0:
349,223,163335,2,0,P|265:250|230:330,1,179.999995231629,0|0,0:3|0:3,0:3:0:0:
176,384,163550,2,0,B|78:263|78:263|54:266,1,179.999995231629
340,146,163764,2,0,B|322:183|322:183|185:206,1,179.999995231629
185,206,163978,2,0,L|7:236,1,179.999995231629
86,25,164192,6,0,B|108:79|108:79|72:195,1,179.999995231629
211,375,164407,2,0,B|246:258|246:258|298:231,1,179.999995231629
503,90,164621,2,0,B|488:150|488:150|461:159,1,89.9999976158143
445,32,164728,2,0,B|367:337|367:337|404:382,1,359.999990463257
458,274,165050,6,0,P|374:248|300:294,1,179.999995231629
146,112,165264,2,0,P|220:66|304:93,1,179.999995231629
207,312,165478,2,0,B|45:339|45:339|34:327,1,179.999995231629
185,355,165692,2,0,L|206:267,1,89.9999976158143
10,50,165907,6,0,B|40:89|40:89|494:43|494:43|507:11,1,539.999985694885
266,83,166335,2,0,B|165:213|-14:135|94:-15|183:50,1,359.999990463257
335,281,166764,6,0,P|391:350|502:348,1,179.999995231629
486,343,166978,2,0,P|398:356|344:454,1,179.999995231629
99,321,167192,6,0,L|104:231,1,89.9999976158143
182,233,167300,2,0,L|177:323,1,89.9999976158143
256,329,167407,2,0,L|261:239,1,89.9999976158143
36,217,167621,2,0,B|180:218|180:218|202:189,1,179.999995231629
441,20,167835,2,0,B|297:19|297:19|274:47,1,179.999995231629
352,272,168050,6,0,B|549:192|390:39|243:120|365:375|493:313|493:313|519:298|492:261|440:283,1,539.999985694885
293,326,168478,6,0,B|144:338|144:338|170:322,1,179.999995231629
9,252,168692,2,0,B|158:240|158:240|132:256,1,179.999995231629
361,192,168907,2,0,P|192:222|135:384,1,359.999990463257
114,83,169335,6,0,B|38:51|112:24|99:63,1,89.9999976158143
98,63,169442,2,0,B|108:145|47:94|88:85,1,89.9999976158143
87,85,169550,2,0,B|153:34|139:112|111:81,1,89.9999976158143
271,195,169764,6,0,P|227:201|192:229,1,89.9999976158143,0|0,0:3|0:3,0:3:0:0:
142,165,169871,2,0,P|115:200|110:245,1,89.9999976158143,0|0,0:3|0:3,0:3:0:0:
31,233,169978,2,0,P|37:276|65:311,1,89.9999976158143,0|0,0:3|0:3,0:3:0:0:
317,322,170192,6,0,B|318:341|318:341|461:329|461:329|460:312,1,179.999995231629
440,75,170407,2,0,B|438:55|438:55|296:68|296:68|297:85,1,179.999995231629
391,353,170621,1,0,0:0:0:0:
364,42,170835,1,0,0:0:0:0:
372,198,171050,6,0,B|381:148|381:148|402:169|377:178,1,89.9999976158143
386,204,171157,2,0,B|424:236|424:236|395:244|400:218,1,89.9999976158143,0|0,0:3|0:3,0:3:0:0:
371,216,171264,2,0,B|323:232|323:232|331:203|351:221,1,89.9999976158143,0|0,0:3|0:3,0:3:0:0:
19,297,171478,6,0,P|18:253|44:218,1,89.9999976158143,0|0,0:3|0:0,0:0:0:0:
155,365,171585,2,0,P|116:343|98:303,1,89.9999976158143,0|0,0:3|0:0,0:0:0:0:
280,281,171693,2,0,P|242:304|198:299,1,89.9999976158143,0|0,0:3|0:3,0:3:0:0:
431,23,171907,6,0,B|420:45|420:45|266:62,1,179.999995231629
345,23,172121,2,0,B|374:344|374:344|408:358,2,359.999990463257
0,369,172764,2,0,B|28:342|28:342|29:200|29:200|109:300|109:300|174:220|174:220|230:250|230:250|258:220|258:220|274:222|274:222|280:219,1,539.999985694885
481,336,173192,6,0,B|460:322|404:308|437:396|313:342,1,179.999995231629
356,222,173407,2,0,B|486:260|404:306|456:332|484:335,1,179.999995231629
351,199,173621,6,0,P|286:143|311:62,1,179.999995231629
496,158,173835,2,0,P|480:241|397:259,1,179.999995231629
128,160,174050,6,0,L|136:71,1,89.9999976158143
58,63,174157,2,0,L|50:152,1,89.9999976158143
139,174,174264,2,0,L|146:84,1,89.9999976158143
280,35,174478,6,0,L|304:303,1,269.999992847443
232,344,174692,2,0,L|207:75,1,269.999992847443
58,62,174907,6,0,B|341:41|172:337|481:317,1,539.999985694885,0|0,0:3|0:0,0:0:0:0:
344,243,175335,6,0,B|195:258|195:258|179:283,1,179.999995231629
232,344,175550,2,0,B|316:351|316:351|254:332|254:332|237:358,1,179.999995231629
96,48,175764,6,0,B|223:59|223:59|251:102,1,179.999995231629
251,102,175978,2,0,B|287:64|287:64|414:75,1,179.999995231629
485,348,176192,2,0,B|356:307|317:146|317:146|314:309|200:369,1,539.999985694885
201,335,176621,6,0,B|38:355|38:355|28:367,1,179.999995231629
280,336,176835,2,0,B|290:324|290:324|453:304,1,179.999995231629
74,324,177050,6,0,P|159:315|192:236,1,179.999995231629
150,75,177264,2,0,L|131:11,1,67.5000007867814
112,5,177478,2,0,B|251:-18|251:-18|284:2,1,179.999995231629
249,181,177692,2,0,B|388:158|388:158|421:178,1,179.999995231629
117,299,177907,6,0,B|140:82|140:82|185:85|185:85|192:95|192:95|181:199|181:199|151:198|151:198|177:299|177:299|261:307|261:307|243:305|243:305|267:93|267:93|250:92|250:92|386:101|386:101|393:110|393:110|383:212|383:212|330:210|330:210|338:117|338:117|314:338,1,1439.99996185303
